(Classical) Kurt Atterberg - Symphony No. 4 'sinfonia Piccola'; Suite No. 3; Symphony No. 6 'dollar Symphony'; En Varmlandsrapsodi, Orchestral Works Vol. 1 (Neeme Jarvi/Järvi, Gothenburg Symphony Orchestra) - 2013, FLAC (tracks+.c


 

[Цитировать]

Kurt Atterberg - Symphony No. 4 'sinfonia Piccola'; Suite No. 3; Symphony No. 6 'dollar Symphony'; En Varmlandsrapsodi, Orchestral Works Vol. 1 (Neeme Jaarvi, Gothenburg Symphony Orchestra)
Жанр: Classical
Год издания диска: 2013
Издатель (лейбл): Chandos
Номер по каталогу: 5116
Аудиокодек: FLAC
Тип рипа: tracks+.cue
Битрейт аудио: lossless
Продолжительность: 01:10:17
Источник: собственный рип
Наличие сканов в содержимом раздачи: да
Исполнители:
Orchestra: Gothenburg Symphony Orchestra
Conductor: Neeme Jaarvi
Треклист:
Symphony No. 6 in C, Op 31, 'Dollar Symphony',
01. 1. Moderato (09:00)
02. 2. Adagio (09:54)
03. 3. Vivace (08:31)
04. En Varmlandsrapsodi, Op. 36 (08:07)
Suite no. 3, Op. 19 No. 1,
05. 1. Prelude (03:43)
06. 2. Pantomim (04:52)
07. 3. Vision (06:06)
Symphony No. 4 in G, Op 14, 'Sinfonia Piccola',
08. 1. Con forza (05:47)
09. 2. Andante (07:10)
10. 3. Scherzo (01:24)
11. 4. Finale. Rondo (05:40)

LOG EAC:

Exact Audio Copy V1.0 beta 3 from 29. August 2011
EAC extraction logfile from 21. July 2015, 9:17
Gothenburg Symphony Orchestra, Neeme Järvi / Orchestral Works, Vol. 1
Used drive : PIONEER DVD-RW DVR-221L Adapter: 2 ID: 0
Read mode : Secure
Utilize accurate stream : Yes
Defeat audio cache : Yes
Make use of C2 pointers : No
Read offset correction : 6
Overread into Lead-In and Lead-Out : No
Fill up missing offset samples with silence : Yes
Delete leading and trailing silent blocks : No
Null samples used in CRC calculations : Yes
Used interface : Installed external ASPI interface
Gap handling : Appended to previous track
Used output format : User Defined Encoder
Selected bitrate : 768 kBit/s
Quality : High
Add ID3 tag : No
Command line compressor : C:\Program Files\Exact Audio Copy\Flac\flac.exe
Additional command line options : -6 -V -T "ARTIST=%artist%" -T "TITLE=%title%" -T "ALBUM=%albumtitle%" -T "DATE=%year%" -T "TRACKNUMBER=%tracknr%" -T "GENRE=%genre%" -T "COMMENT=%comment%" -T "ALBUMARTIST=%albuminterpret%" -T "COMPOSER=%composer%" -T "DISCNUMBER=%cdnumber%" -T "TOTALDISCS=%totalcds%" -T "TOTALTRACKS=%numtracks%" %source% -o %dest%
TOC of the extracted CD
Track | Start | Length | Start sector | End sector
---------------------------------------------------------
1 | 0:00.00 | 8:59.48 | 0 | 40472
2 | 8:59.48 | 9:53.45 | 40473 | 84992
3 | 18:53.18 | 8:30.65 | 84993 | 123307
4 | 27:24.08 | 8:06.55 | 123308 | 159812
5 | 35:30.63 | 3:42.40 | 159813 | 176502
6 | 39:13.28 | 4:52.20 | 176503 | 198422
7 | 44:05.48 | 6:06.35 | 198423 | 225907
8 | 50:12.08 | 5:46.55 | 225908 | 251912
9 | 55:58.63 | 7:10.20 | 251913 | 284182
10 | 63:09.08 | 1:23.65 | 284183 | 290472
11 | 64:32.73 | 5:40.02 | 290473 | 315974
Track 1
Filename D:\EAC\01 - Symphony No. 6 in C, Op 31, ''Dollar Symphony'', 1. Moderato.wav
Pre-gap length 0:00:02.00
Peak level 92.4 %
Extraction speed 5.7 X
Track quality 100.0 %
Test CRC AEADD31A
Copy CRC AEADD31A
Cannot be verified as accurate (confidence 11) [CD619532], AccurateRip returned [D1CEE757] (AR v2)
Copy OK
Track 2
Filename D:\EAC\02 - Symphony No. 6 in C, Op 31, ''Dollar Symphony'', 2. Adagio.wav
Peak level 91.1 %
Extraction speed 6.2 X
Track quality 99.9 %
Test CRC 02BA8BED
Copy CRC 02BA8BED
Cannot be verified as accurate (confidence 11) [600EAC14], AccurateRip returned [AA87CE65] (AR v2)
Copy OK
Track 3
Filename D:\EAC\03 - Symphony No. 6 in C, Op 31, ''Dollar Symphony'', 3. Vivace.wav
Peak level 95.1 %
Extraction speed 7.6 X
Track quality 100.0 %
Test CRC 2FE31D21
Copy CRC 2FE31D21
Cannot be verified as accurate (confidence 11) [3FEFF966], AccurateRip returned [E8628349] (AR v2)
Copy OK
Track 4
Filename D:\EAC\04 - En Värmlandsrapsodi, Op. 36.wav
Peak level 91.1 %
Extraction speed 8.2 X
Track quality 100.0 %
Test CRC 9B8F8286
Copy CRC 9B8F8286
Cannot be verified as accurate (confidence 11) [80558559], AccurateRip returned [B31713EC] (AR v2)
Copy OK
Track 5
Filename D:\EAC\05 - Suite no. 3, Op. 19 No. 1, 1. Prélude.wav
Pre-gap length 0:00:00.01
Peak level 29.9 %
Extraction speed 8.0 X
Track quality 100.0 %
Test CRC 5E536143
Copy CRC 5E536143
Cannot be verified as accurate (confidence 11) [C96B5DFA], AccurateRip returned [3D342C13] (AR v2)
Copy OK
Track 6
Filename D:\EAC\06 - Suite no. 3, Op. 19 No. 1, 2. Pantomim.wav
Peak level 50.7 %
Extraction speed 8.6 X
Track quality 100.0 %
Test CRC 8CEBEB4B
Copy CRC 8CEBEB4B
Cannot be verified as accurate (confidence 11) [F6A79C78], AccurateRip returned [7C8D102C] (AR v2)
Copy OK
Track 7
Filename D:\EAC\07 - Suite no. 3, Op. 19 No. 1, 3. Vision.wav
Peak level 42.8 %
Extraction speed 9.1 X
Track quality 100.0 %
Test CRC 1D3581C2
Copy CRC 1D3581C2
Cannot be verified as accurate (confidence 11) [C4DA63FF], AccurateRip returned [A2E57FAD] (AR v2)
Copy OK
Track 8
Filename D:\EAC\08 - Symphony No. 4 in G, Op 14, ''Sinfonia Piccola'', 1. Con forza.wav
Peak level 91.3 %
Extraction speed 9.5 X
Track quality 100.0 %
Test CRC 39505CFE
Copy CRC 39505CFE
Cannot be verified as accurate (confidence 11) [A5125FB3], AccurateRip returned [7A47B149] (AR v2)
Copy OK
Track 9
Filename D:\EAC\09 - Symphony No. 4 in G, Op 14, ''Sinfonia Piccola'', 2. Andante.wav
Peak level 49.7 %
Extraction speed 8.8 X
Track quality 99.9 %
Test CRC ED880760
Copy CRC ED880760
Cannot be verified as accurate (confidence 11) [20273999], AccurateRip returned [AF231024] (AR v2)
Copy OK
Track 10
Filename D:\EAC\10 - Symphony No. 4 in G, Op 14, ''Sinfonia Piccola'', 3. Scherzo.wav
Peak level 63.1 %
Extraction speed 7.5 X
Track quality 100.0 %
Test CRC FC8E14C3
Copy CRC FC8E14C3
Cannot be verified as accurate (confidence 11) [B2850F81], AccurateRip returned [ED1D58B6] (AR v2)
Copy OK
Track 11
Filename D:\EAC\11 - Symphony No. 4 in G, Op 14, ''Sinfonia Piccola'', 4. Finale. Rondo.wav
Peak level 91.4 %
Extraction speed 10.3 X
Track quality 100.0 %
Test CRC 9DB6ED33
Copy CRC 9DB6ED33
Cannot be verified as accurate (confidence 11) [34EE09F6], AccurateRip returned [273333EB] (AR v2)
Copy OK
No tracks could be verified as accurate
You may have a different pressing from the one(s) in the database
No errors occurred
End of status report
==== Log checksum CF5B6A624E73684FC02E1E8795D03D043EE5FCBAB59341EB1E1FAF53AEDAF5A0 ====

LOG (.CUE):

REM GENRE Classical
REM DATE 2013
REM DISCID 8F10750B
REM COMMENT "ExactAudioCopy v1.0b3"
PERFORMER "Gothenburg Symphony Orchestra, Neeme Jarvi"
TITLE "Orchestral Works, Vol. 1"
FILE "01 - Symphony No. 6 in C, Op 31, ''Dollar Symphony'', 1. Moderato.wav" WAVE
TRACK 01 AUDIO
TITLE "Symphony No. 6 in C, Op 31, 'Dollar Symphony', 1. Moderato"
PERFORMER "Gothenburg Symphony Orchestra, Neeme Jarvi"
INDEX 01 00:00:00
FILE "02 - Symphony No. 6 in C, Op 31, ''Dollar Symphony'', 2. Adagio.wav" WAVE
TRACK 02 AUDIO
TITLE "Symphony No. 6 in C, Op 31, 'Dollar Symphony', 2. Adagio"
PERFORMER "Gothenburg Symphony Orchestra, Neeme Jarvi"
INDEX 01 00:00:00
FILE "03 - Symphony No. 6 in C, Op 31, ''Dollar Symphony'', 3. Vivace.wav" WAVE
TRACK 03 AUDIO
TITLE "Symphony No. 6 in C, Op 31, 'Dollar Symphony', 3. Vivace"
PERFORMER "Gothenburg Symphony Orchestra, Neeme Jarvi"
INDEX 01 00:00:00
FILE "04 - En Varmlandsrapsodi, Op. 36.wav" WAVE
TRACK 04 AUDIO
TITLE "En Varmlandsrapsodi, Op. 36"
PERFORMER "Gothenburg Symphony Orchestra, Neeme Jarvi"
INDEX 01 00:00:00
TRACK 05 AUDIO
TITLE "Suite no. 3, Op. 19 No. 1, 1. Prelude"
PERFORMER "Gothenburg Symphony Orchestra, Neeme Jarvi"
INDEX 00 08:06:54
FILE "05 - Suite no. 3, Op. 19 No. 1, 1. Prelude.wav" WAVE
INDEX 01 00:00:00
FILE "06 - Suite no. 3, Op. 19 No. 1, 2. Pantomim.wav" WAVE
TRACK 06 AUDIO
TITLE "Suite no. 3, Op. 19 No. 1, 2. Pantomim"
PERFORMER "Gothenburg Symphony Orchestra, Neeme Jarvi"
INDEX 01 00:00:00
FILE "07 - Suite no. 3, Op. 19 No. 1, 3. Vision.wav" WAVE
TRACK 07 AUDIO
TITLE "Suite no. 3, Op. 19 No. 1, 3. Vision"
PERFORMER "Gothenburg Symphony Orchestra, Neeme Jarvi"
INDEX 01 00:00:00
FILE "08 - Symphony No. 4 in G, Op 14, ''Sinfonia Piccola'', 1. Con forza.wav" WAVE
TRACK 08 AUDIO
TITLE "Symphony No. 4 in G, Op 14, 'Sinfonia Piccola', 1. Con forza"
PERFORMER "Gothenburg Symphony Orchestra, Neeme Jarvi"
INDEX 01 00:00:00
FILE "09 - Symphony No. 4 in G, Op 14, ''Sinfonia Piccola'', 2. Andante.wav" WAVE
TRACK 09 AUDIO
TITLE "Symphony No. 4 in G, Op 14, 'Sinfonia Piccola', 2. Andante"
PERFORMER "Gothenburg Symphony Orchestra, Neeme Jarvi"
INDEX 01 00:00:00
FILE "10 - Symphony No. 4 in G, Op 14, ''Sinfonia Piccola'', 3. Scherzo.wav" WAVE
TRACK 10 AUDIO
TITLE "Symphony No. 4 in G, Op 14, 'Sinfonia Piccola', 3. Scherzo"
PERFORMER "Gothenburg Symphony Orchestra, Neeme Jarvi"
INDEX 01 00:00:00
FILE "11 - Symphony No. 4 in G, Op 14, ''Sinfonia Piccola'', 4. Finale. Rondo.wav" WAVE
TRACK 11 AUDIO
TITLE "Symphony No. 4 in G, Op 14, 'Sinfonia Piccola', 4. Finale. Rondo"
PERFORMER "Gothenburg Symphony Orchestra, Neeme Jarvi"
INDEX 01 00:00:00
--Atterberg - Orchestral Works Vol. 1 - lossless
Atterberg - Orchestral Works Vol. 2 - lossless
Atterberg - Orchestral Works Vol. 3 - lossless



Показать сообщения:    

Текущее время: 05-Дек 03:24

Часовой пояс: UTC + 3


Вы не можете начинать темы
Вы не можете отвечать на сообщения
Вы не можете редактировать свои сообщения
Вы не можете удалять свои сообщения
Вы не можете голосовать в опросах
Вы не можете прикреплять файлы к сообщениям
Вы не можете скачивать файлы