(Classical) Kurt Atterberg - Symphonies No. 1 & 5, Orchestral Works Vol. 3 (Neeme Jarvi/Järvi, Gothenburg Symphony Orchestra) - 2015, FLAC (tracks+.cue) lossless


 

[Цитировать]

Kurt Atterberg - Symphonies No. 1 & 5, Orchestral Works Vol. 3 (Neeme Jaarvi, Gothenburg Symphony Orchestra)
Жанр: Classical
Год издания диска: 2015
Издатель (лейбл): Chandos
Номер по каталогу: 5154
Аудиокодек: FLAC
Тип рипа: tracks+.cue
Битрейт аудио: lossless
Продолжительность: 01:03:19
Источник: собственный рип
Наличие сканов в содержимом раздачи: да
Исполнители:
Orchestra: Gothenburg Symphony Orchestra
Conductor: Neeme Jaarvi
Треклист:
Symphony No.1, op.3
01. I. Allegro con fuoco - Tranquillo - etc (09:51)
02. II. Adagio - (08:29)
03. III. Presto - Pesante - Tranquillo - etc (07:01)
04. IV. Adagio - Allegro energico - etc (11:32)
Symphony No.5, op.20 ''Sinfonia funebre'
05. I. Pesante allegro - Molto piu mosso - etc (07:30)
06. II. Lento - (06:34)
07. III. Allegro molto - Tempo vivo - etc (12:22)

LOG EAC:

Exact Audio Copy V1.0 beta 3 from 29. August 2011
EAC extraction logfile from 21. July 2015, 10:16
Gothenburg Symphony Orchestra, Neeme Järvi / Orchestral Works, Vol. 3
Used drive : PIONEER DVD-RW DVR-221L Adapter: 2 ID: 0
Read mode : Secure
Utilize accurate stream : Yes
Defeat audio cache : Yes
Make use of C2 pointers : No
Read offset correction : 6
Overread into Lead-In and Lead-Out : No
Fill up missing offset samples with silence : Yes
Delete leading and trailing silent blocks : No
Null samples used in CRC calculations : Yes
Used interface : Installed external ASPI interface
Gap handling : Appended to previous track
Used output format : User Defined Encoder
Selected bitrate : 768 kBit/s
Quality : High
Add ID3 tag : No
Command line compressor : C:\Program Files\Exact Audio Copy\Flac\flac.exe
Additional command line options : -6 -V -T "ARTIST=%artist%" -T "TITLE=%title%" -T "ALBUM=%albumtitle%" -T "DATE=%year%" -T "TRACKNUMBER=%tracknr%" -T "GENRE=%genre%" -T "COMMENT=%comment%" -T "ALBUMARTIST=%albuminterpret%" -T "COMPOSER=%composer%" -T "DISCNUMBER=%cdnumber%" -T "TOTALDISCS=%totalcds%" -T "TOTALTRACKS=%numtracks%" %source% -o %dest%
TOC of the extracted CD
Track | Start | Length | Start sector | End sector
---------------------------------------------------------
1 | 0:00.00 | 9:50.44 | 0 | 44293
2 | 9:50.44 | 8:29.11 | 44294 | 82479
3 | 18:19.55 | 7:00.48 | 82480 | 114027
4 | 25:20.28 | 11:31.51 | 114028 | 165903
5 | 36:52.04 | 7:30.18 | 165904 | 199671
6 | 44:22.22 | 6:34.13 | 199672 | 229234
7 | 50:56.35 | 12:21.66 | 229235 | 284875
Track 1
Filename D:\EAC\01 - Symphony No.1, op.3 - I. Allegro con fuoco - Tranquillo.wav
Pre-gap length 0:00:02.00
Peak level 95.8 %
Extraction speed 5.8 X
Track quality 100.0 %
Test CRC 06B38B65
Copy CRC 06B38B65
Track not present in AccurateRip database
Copy OK
Track 2
Filename D:\EAC\02 - Symphony No.1, op.3 - II. Adagio.wav
Peak level 61.9 %
Extraction speed 6.7 X
Track quality 100.0 %
Test CRC B39D92DA
Copy CRC B39D92DA
Track not present in AccurateRip database
Copy OK
Track 3
Filename D:\EAC\03 - Symphony No.1, op.3 - III. Presto - Pesante - Tranquillo.wav
Peak level 98.8 %
Extraction speed 6.5 X
Track quality 99.9 %
Test CRC 8F4C6415
Copy CRC 8F4C6415
Track not present in AccurateRip database
Copy OK
Track 4
Filename D:\EAC\04 - Symphony No.1, op.3 - IV. Adagio - Allegro energico.wav
Peak level 99.0 %
Extraction speed 8.4 X
Track quality 100.0 %
Test CRC 4AF5DDAB
Copy CRC 4AF5DDAB
Track not present in AccurateRip database
Copy OK
Track 5
Filename D:\EAC\05 - Symphony No.5, op.20 ''Sinfonia funèbre'' - I. Pesante allegro - Molto più mosso.wav
Peak level 98.7 %
Extraction speed 8.9 X
Track quality 100.0 %
Test CRC 209EF761
Copy CRC 209EF761
Track not present in AccurateRip database
Copy OK
Track 6
Filename D:\EAC\06 - Symphony No.5, op.20 ''Sinfonia funèbre'' - II. Lento.wav
Peak level 87.7 %
Extraction speed 9.2 X
Track quality 100.0 %
Test CRC E4F26971
Copy CRC E4F26971
Track not present in AccurateRip database
Copy OK
Track 7
Filename D:\EAC\07 - Symphony No.5, op.20 ''Sinfonia funèbre'' - III. Allegro molto - Tempo vivo.wav
Peak level 99.0 %
Extraction speed 10.4 X
Track quality 100.0 %
Test CRC 5A7A19EF
Copy CRC 5A7A19EF
Track not present in AccurateRip database
Copy OK
None of the tracks are present in the AccurateRip database
No errors occurred
End of status report
==== Log checksum BEC47F78CA538EB6DEDE6F0C2020995F29ECF62E4313C34D4A214E4518C531E5 ====

LOG (.CUE):

REM GENRE Classical
REM DATE 2015
REM DISCID 4A0ED607
REM COMMENT "ExactAudioCopy v1.0b3"
PERFORMER "Gothenburg Symphony Orchestra, Neeme Jarvi"
TITLE "Orchestral Works, Vol. 3"
FILE "01 - Symphony No.1, op.3 - I. Allegro con fuoco - Tranquillo.wav" WAVE
TRACK 01 AUDIO
TITLE "Symphony No.1, op.3 - I. Allegro con fuoco - Tranquillo"
PERFORMER "Gothenburg Symphony Orchestra, Neeme Jarvi"
INDEX 01 00:00:00
FILE "02 - Symphony No.1, op.3 - II. Adagio.wav" WAVE
TRACK 02 AUDIO
TITLE "Symphony No.1, op.3 - II. Adagio"
PERFORMER "Gothenburg Symphony Orchestra, Neeme Jarvi"
INDEX 01 00:00:00
FILE "03 - Symphony No.1, op.3 - III. Presto - Pesante - Tranquillo.wav" WAVE
TRACK 03 AUDIO
TITLE "Symphony No.1, op.3 - III. Presto - Pesante - Tranquillo"
PERFORMER "Gothenburg Symphony Orchestra, Neeme Jarvi"
INDEX 01 00:00:00
FILE "04 - Symphony No.1, op.3 - IV. Adagio - Allegro energico.wav" WAVE
TRACK 04 AUDIO
TITLE "Symphony No.1, op.3 - IV. Adagio - Allegro energico"
PERFORMER "Gothenburg Symphony Orchestra, Neeme Jarvi"
INDEX 01 00:00:00
FILE "05 - Symphony No.5, op.20 ''Sinfonia funebre'' - I. Pesante allegro - Molto piu mosso.wav" WAVE
TRACK 05 AUDIO
TITLE "Symphony No.5, op.20 ''Sinfonia funebre'' - I. Pesante allegro - Molto piu mosso"
PERFORMER "Gothenburg Symphony Orchestra, Neeme Jarvi"
INDEX 01 00:00:00
FILE "06 - Symphony No.5, op.20 ''Sinfonia funebre'' - II. Lento.wav" WAVE
TRACK 06 AUDIO
TITLE "Symphony No.5, op.20 ''Sinfonia funebre'' - II. Lento"
PERFORMER "Gothenburg Symphony Orchestra, Neeme Jarvi"
INDEX 01 00:00:00
FILE "07 - Symphony No.5, op.20 ''Sinfonia funebre'' - III. Allegro molto - Tempo vivo.wav" WAVE
TRACK 07 AUDIO
TITLE "Symphony No.5, op.20 ''Sinfonia funebre'' - III. Allegro molto - Tempo vivo"
PERFORMER "Gothenburg Symphony Orchestra, Neeme Jarvi"
INDEX 01 00:00:00
Atterberg - Orchestral Works Vol. 1 - lossless
Atterberg - Orchestral Works Vol. 2 - lossless
Atterberg - Orchestral Works Vol. 3 - lossless



Показать сообщения:    

Текущее время: 04-Дек 02:57

Часовой пояс: UTC + 3


Вы не можете начинать темы
Вы не можете отвечать на сообщения
Вы не можете редактировать свои сообщения
Вы не можете удалять свои сообщения
Вы не можете голосовать в опросах
Вы не можете прикреплять файлы к сообщениям
Вы не можете скачивать файлы