[TR24][OF] Anne-Sophie Mutter, James Levine, Wiener Philharmoniker - Carmen-Fantasie (Pablo de Sarasate, Henryk Wieniawski, Giuseppe Tartini, Maurice Ravel, Jules Massenet, Gabriel Fauré/Faure) - 1993/2015 (Classical)

DL-List and Torrent activity [Update пиров]
Size:  648 MB   |    Registered:  7 months 2 days   |    Completed:  0 times

Seeder not seen: Never



Anne-Sophie Mutter
James Levine & Vienna Philharmonic
-Год издания/переиздания диска: 1993/2015
Жанр: Classical | Издатель: Deutsche Grammophon
Продолжительность: 01:06:45
Наличие сканов: Sleeve, Digital Booklet- -Контейнер: FLAC (*.flac) | Тип рипа: tracks
Разрядность: 24bit / 44.1kHz | Количество каналов: 2.0
Pablo Martin de Sarasate (1844-1908)
01.Zigeunerweisen, Op.20 (8:41)
Henryk Wieniawski (1835-1880)
02. Legende, Op.17 (7:41)
Giuseppe Tartini (1692-1770)
03. Sonata For Violin And Continuo In G Minor, B. g5 "Il trillo del diavolo" (16:32)
Maurice Ravel (1875-1937)
04. Tzigane, M. 76 (10:01)
Jules Massenet (1842-1912)
Thaïs, Acte Deux
05. Meditation (6:42)
Pablo Martin de Sarasate (1844-1908)
Carmen Fantasy, Op.25
06. Introduction. Allegro moderato (3:22)
07. 1. Moderato (2:27)
08. 2. Lento assai (2:11)
09. 3. Allegro moderato (2:07)
10. 4. Moderato (2:31)
Gabriel Fauré (1845-1924)
11. Berceuse, Op.16 (4:30)

О релизе

Playful and virtuosity
A bestseller in Anne-Sophie Mutter’s DG catalogue since its first release more than 20 years ago, this album is a feast of lollipops with a varied and well-balanced mix of flavors. It combines highly virtuosic works by Sarasate and Tartini with lyrical pieces like Fauré’s Berceuse and Massenet’s well-known Meditation from “Thaïs”. Anne-Sophie Mutter It is unashamedly a fun record, and even Mutter has rarely played with such freedom and warmth, obviously enjoying these display pieces every bit as much as the repertory concertos and new works that are her staple diet. The gipsy flavours of the two Sarasate pieces, as well as of Ravel's 'Tzigane', sound even more exotic than usual, and rarely have I heard the brilliant sound section, with its Hungarian fire, sound quite so exciting with a stunning accelerando at the end. The tender repose which she then brings to the Massenet ''Meditation'' is thus all the more affecting. Anne-Sophie Mutter Sarasate's Carmen Fantasy, which provides the whole recording with its title, is as high-powered as the Ravel [...]. Anne-Sophie Mutter [...] with James Levine and the Vienna Philharmonic providing Mutter with comparably weighty and committed accompaniment, I have to say her performance thrusts home [...] powerfully.' (Edward Greenfield, Gramophone)
Anne-Sophie Mutter, violin
Wiener Philharmoniker
James Levine, conductor
Recorded in November 1992, Grosser Saal, Musikverein, Vienna
Engineered by Günter Hermanns
Produced by Werner Mayer
Digitally remastered

ОтчётыДинамический диапазон

foobar2000 1.3.8 / Dynamic Range Meter 1.1.1
log date: 2015-07-21 14:34:54
Analyzed: Anne-Sophie Mutter, Wiener Philharmoniker, James Levine / Carmen-Fantasie
DR Peak RMS Duration Track
DR14 0.00 dB -19.77 dB 8:41 01-Zigeunerweisen, Op.20
DR17 0.00 dB -21.76 dB 7:41 02-Legende, Op.17
DR16 0.00 dB -20.65 dB 16:32 03-Sonata For Violin And Continuo In G Minor, B. g5 "Il trillo del diavolo"
DR12 0.00 dB -17.17 dB 10:01 04-Tzigane, M. 76
DR13 -0.03 dB -19.65 dB 6:42 05-Thaïs, Acte Deux - Meditation
DR15 0.00 dB -21.04 dB 3:22 06-Carmen Fantasy, Op.25 - Introduction. Allegro moderato
DR15 0.00 dB -21.73 dB 2:27 07-Carmen Fantasy, Op.25 - 1. Moderato
DR16 -6.89 dB -30.08 dB 2:11 08-Carmen Fantasy, Op.25 - 2. Lento assai
DR14 0.00 dB -21.76 dB 2:07 09-Carmen Fantasy, Op.25 - 3. Allegro moderato
DR12 0.00 dB -16.40 dB 2:31 10-Carmen Fantasy, Op.25 - 4. Moderato
DR13 -6.17 dB -24.82 dB 4:30 11-Berceuse, Op.16
Number of tracks: 11
Official DR value: DR14
Samplerate: 44100 Hz
Channels: 2
Bits per sample: 24
Bitrate: 1252 kbps
Codec: FLAC

Скриншот спектра частот

Доп. информация

При скачивании, если необходимо, переименуйте папку, в которой будет находиться альбомБольшая просьба к скачавшим поддерживать раздачу! Помогайте другим, ведь вам тоже может понадобиться помощь!Не забываем говорить "Спасибо"!Комментарии приветствуются!
Torrent: Registered [ 2016-03-20 12:53 ] · 1FA40463AF34C18E3FB916F6AEA76DA961714D4E

Download .torrent


14 KB

Status: checked
Completed: 0 times
Size: 648 MB

Quick Reply


Heads necessary to send messages to enable JavaScript
Display posts:    

Current time is: 23-Oct 10:53

All times are UTC + 3

You can post new topics in this forum
You can reply to topics in this forum
You cannot edit your posts in this forum
You cannot delete your posts in this forum
You cannot vote in polls in this forum
You cannot attach files in this forum
You can download files in this forum