(Classical) Claudio Monteverdi - Il Sesto Libro de Madrigali - Concerto Italiano, Rinaldo Alessandrini - 2011, FLAC (image+.cue) lossless


 

[Цитировать]

Claudio Monteverdi - Il Sesto Libro de Madrigali - Concerto Italiano, Rinaldo Alessandrini
Жанр: Classical
Страна-производитель диска: France
Год издания диска: 2011
Издатель (лейбл): Naive
Номер по каталогу: OP30423
Дата записи: 2005
Аудиокодек: FLAC
Тип рипа: image+.cue
Битрейт аудио: lossless
Продолжительность: 63:50
Источник: собственный рип
Наличие сканов в содержимом раздачи: да
Треклист:
Claudio Monteverdi (1567-1643)
Il Sesto Libro de Madrigali
in Venetia Appresso Ricciardo Amadino, 1614
[1]-[4] Lamento d'Ariana
[5] Zefiro torna
[6] Una donna fra l'altre
[7] A Dio, Florida bella
[8]-[13] Sestina (Lagrime d'Amante al Sepolcro dell' Amata)
[14] Ohimè il bel viso
[15] Qui rise, o Tirsi
[16] Misero Alceo
[17] Batto, qui pianse Ergasto
[18] Presso un fiume tranquillo
Исполнители:
Concerto Italiano
Rinaldo Alessandrini

Лог создания рипа

Exact Audio Copy V1.0 beta 3 from 29. August 2011
EAC extraction logfile from 1. February 2015, 20:54
Concerto Italiano, Rinaldo Alessandrini / Monteverdi - Il Sesto Libro de Madrigali
Used drive : HL-DT-STDVDRAM GU70N Adapter: 0 ID: 0
Read mode : Secure
Utilize accurate stream : Yes
Defeat audio cache : Yes
Make use of C2 pointers : No
Read offset correction : 48
Overread into Lead-In and Lead-Out : No
Fill up missing offset samples with silence : Yes
Delete leading and trailing silent blocks : No
Null samples used in CRC calculations : Yes
Used interface : Native Win32 interface for Win NT & 2000
Used output format : User Defined Encoder
Selected bitrate : 128 kBit/s
Quality : High
Add ID3 tag : No
Command line compressor : C:\Program Files (x86)\Exact Audio Copy\Flac\flac.exe
Additional command line options : -V -8 -T "Date=%year%" -T "Genre=%genre%" %source%
TOC of the extracted CD
Track | Start | Length | Start sector | End sector
---------------------------------------------------------
1 | 0:00.00 | 1:50.67 | 0 | 8316
2 | 1:50.67 | 4:44.52 | 8317 | 29668
3 | 6:35.44 | 2:44.37 | 29669 | 42005
4 | 9:20.06 | 3:35.00 | 42006 | 58130
5 | 12:55.06 | 3:55.56 | 58131 | 75811
6 | 16:50.62 | 3:11.71 | 75812 | 90207
7 | 20:02.58 | 3:56.48 | 90208 | 107955
8 | 23:59.31 | 2:03.69 | 107956 | 117249
9 | 26:03.25 | 1:59.29 | 117250 | 126203
10 | 28:02.54 | 2:26.20 | 126204 | 137173
11 | 30:28.74 | 3:16.27 | 137174 | 151900
12 | 33:45.26 | 2:51.21 | 151901 | 164746
13 | 36:36.47 | 3:21.22 | 164747 | 179843
14 | 39:57.69 | 4:57.53 | 179844 | 202171
15 | 44:55.47 | 5:20.55 | 202172 | 226226
16 | 50:16.27 | 4:38.56 | 226227 | 247132
17 | 54:55.08 | 3:24.33 | 247133 | 262465
18 | 58:19.41 | 5:22.56 | 262466 | 286671
Range status and errors
Selected range
Filename C:\temp\OP30423 - Monteverdi - Il Sesto Libro de Madrigali (Concerto Italiano, Alessandrini - NAIVE)\Monteverdi - Il Sesto Libro de Madrigali.wav
Peak level 80.4 %
Extraction speed 2.1 X
Range quality 99.9 %
Test CRC 2C9275D8
Copy CRC 2C9275D8
Copy OK
No errors occurred
AccurateRip summary
Track 1 accurately ripped (confidence 13) [BF86AEB4] (AR v2)
Track 2 accurately ripped (confidence 13) [E0D321D0] (AR v2)
Track 3 accurately ripped (confidence 13) [F3601CE5] (AR v2)
Track 4 accurately ripped (confidence 13) [607FE173] (AR v2)
Track 5 accurately ripped (confidence 12) [21144C18] (AR v2)
Track 6 accurately ripped (confidence 13) [68A1DD15] (AR v2)
Track 7 accurately ripped (confidence 13) [214FBC84] (AR v2)
Track 8 accurately ripped (confidence 13) [92C63848] (AR v2)
Track 9 accurately ripped (confidence 13) [36A7E5E5] (AR v2)
Track 10 accurately ripped (confidence 13) [8832D29D] (AR v2)
Track 11 accurately ripped (confidence 13) [F7577486] (AR v2)
Track 12 accurately ripped (confidence 13) [63CC5302] (AR v2)
Track 13 accurately ripped (confidence 13) [65349239] (AR v2)
Track 14 accurately ripped (confidence 13) [D66EF901] (AR v2)
Track 15 accurately ripped (confidence 13) [A7474C85] (AR v2)
Track 16 accurately ripped (confidence 13) [3DCC1C77] (AR v2)
Track 17 accurately ripped (confidence 13) [3D8643A3] (AR v2)
Track 18 accurately ripped (confidence 12) [A72C2C5C] (AR v2)
All tracks accurately ripped
End of status report
==== Log checksum 3AFA1241F00A788FA5E0236E684D92E77D4ED622A081A49E0B27D23732B76237 ====



Показать сообщения:    

Текущее время: 10-Дек 23:29

Часовой пояс: UTC + 3


Вы не можете начинать темы
Вы не можете отвечать на сообщения
Вы не можете редактировать свои сообщения
Вы не можете удалять свои сообщения
Вы не можете голосовать в опросах
Вы не можете прикреплять файлы к сообщениям
Вы не можете скачивать файлы