(Classical / Orchestral) Antonin Dvorak - Slovanske tance (Slawische Tanze / Slavonic Dances) / Антонин Дворжак - Славянские танцы (Cleveland Orchestra, Christoph von Dohnanyi, 1989) - 1990, FLAC (tracks+.cue) lossless


 

[Цитировать]

Antonín Dvořák | Антонин Дворжак
(1841–1904)



Slovanské tance | Slawische Tänze | Slavonic Dances | Славянские танцы


Cleveland Orchestra
Christoph von Dohnányi conductor


Жанр: Classical / Orchestral
Дата и место записи: Masonic Auditorium, Cleveland, USA, August 1989
Формат записи: DDD, Stereo
Год издания диска: 1990
Издатель (лейбл): Decca
Номер по каталогу: 430 171-2
Аудиокодек: FLAC
Тип рипа: tracks+.cue
Битрейт аудио: lossless
Продолжительность: 1:14:52
Наличие сканов в содержимом раздачи: нет
Источник: What.CD
Релизёр: squeakyfipi


Tracklist / Треклист
Slovanské tance, Op. 46 - 37:27
Nr. 1 C-dur: Presto - 4:01
  • Nr. 2 e-moll: Allegretto scherzando - 4:54
  • Nr. 3 As-dur: Poco allegro - 4:37
  • Nr. 4 F-dur: Tempo di Minuetto - 6:59
  • Nr. 5 A-dur: Allegro vivace - 3:24
  • Nr. 6 D-dur: Allegretto scherzando - 5:29
  • Nr. 7 c-moll: Allegro assai - 3:45
  • Nr. 8 g-moll: Presto - 4:18
    Slovanské tance, Op. 72 - 37:24
    Nr. 1 H-dur: Molto vivace - 4:25
  • Nr. 2 e-moll: Allegretto grazioso - 6:16
  • Nr. 3 F-dur: Allegro - 3:18
  • Nr. 4 Des-dur: Allegretto grazioso - 5:25
  • Nr. 5 b-moll: Poco adagio. — Vivace - 2:33
  • Nr. 6 B-dur: Moderato, quasi Minuetto - 3:55
  • Nr. 7 C-dur: Presto - 3:28
  • Nr. 8 As-dur: Grazioso e lento, ma non troppo, quasi tempo di Valse - 8:04

    -

    XLD log / Отчёт XLD

    X Lossless Decoder version 20120609 (141.0)
    XLD extraction logfile from 2012-06-10 20:52:38 -0700
    Christoph Von Dohnanyi / Slavonic Dances
    Used drive : Optiarc DVD RW AD-7260S (revision 1.03)
    Ripper mode : XLD Secure Ripper
    Disable audio cache : OK for the drive with a cache less than 1375KiB
    Make use of C2 pointers : NO
    Read offset correction : 48
    Max retry count : 100
    Gap status : Analyzed, Appended (except HTOA)
    TOC of the extracted CD
    Track | Start | Length | Start sector | End sector
    ---------------------------------------------------------
    1 | 00:00:33 | 04:00:50 | 33 | 18082
    2 | 04:01:08 | 04:54:32 | 18083 | 40164
    3 | 08:55:40 | 04:36:63 | 40165 | 60927
    4 | 13:32:28 | 06:58:72 | 60928 | 92349
    5 | 20:31:25 | 03:24:28 | 92350 | 107677
    6 | 23:55:53 | 05:29:20 | 107678 | 132372
    7 | 29:24:73 | 03:44:42 | 132373 | 149214
    8 | 33:09:40 | 04:18:23 | 149215 | 168587
    9 | 37:27:63 | 04:24:70 | 168588 | 188457
    10 | 41:52:58 | 06:16:00 | 188458 | 216657
    11 | 48:08:58 | 03:18:30 | 216658 | 231537
    12 | 51:27:13 | 05:25:25 | 231538 | 255937
    13 | 56:52:38 | 02:32:57 | 255938 | 267394
    14 | 59:25:20 | 03:54:55 | 267395 | 284999
    15 | 63:20:00 | 03:27:68 | 285000 | 300592
    16 | 66:47:68 | 08:04:32 | 300593 | 336924
    List of alternate offset correction values
    # | Absolute | Relative | Confidence
    ------------------------------------------
    1 | 313 | 265 | 13
    AccurateRip Summary (DiscID: 002b844e-0207f1b2-e6118c10)
    Track 01 : OK (v1+v2, confidence 7/28)
    Track 02 : OK (v1+v2, confidence 7/29)
    Track 03 : OK (v1+v2, confidence 7/29)
    Track 04 : OK (v1+v2, confidence 7/29)
    Track 05 : OK (v1+v2, confidence 7/30)
    Track 06 : OK (v1+v2, confidence 7/28)
    Track 07 : OK (v1+v2, confidence 7/28)
    Track 08 : OK (v1+v2, confidence 7/27)
    Track 09 : OK (v1+v2, confidence 7/27)
    Track 10 : OK (v1+v2, confidence 7/28)
    Track 11 : OK (v1+v2, confidence 7/28)
    Track 12 : OK (v1+v2, confidence 7/28)
    Track 13 : OK (v1+v2, confidence 7/28)
    Track 14 : OK (v1+v2, confidence 7/28)
    Track 15 : OK (v1+v2, confidence 7/28)
    Track 16 : OK (v1+v2, confidence 7/25)
    ->All tracks accurately ripped.
    All Tracks
    Album gain : -1.70 dB
    Peak : 1.000000
    Statistics
    Read error : 0
    Jitter error (maybe fixed) : 0
    Retry sector count : 0
    Damaged sector count : 0
    Track 01
    Filename : /Volumes/931/RIPS/Christoph Von Dohnanyi - Slavonic Dances (1990) [LAME MP3 (CBR 320kbps)]/01 - Slavonic Dances, Op.46: No.1 in C major.mp3
    /Volumes/931/RIPS/Christoph Von Dohnanyi - Slavonic Dances (1990) [LAME MP3 (VBR-new quality 0.0)]/01 - Slavonic Dances, Op.46: No.1 in C major.mp3
    /Volumes/931/RIPS/Christoph Von Dohnanyi - Slavonic Dances (1990) [FLAC (level 8)]/01 - Slavonic Dances, Op.46: No.1 in C major.flac
    /Volumes/931/RIPS/Christoph Von Dohnanyi - Slavonic Dances (1990) [LAME MP3 (VBR-new quality 2.0)]/01 - Slavonic Dances, Op.46: No.1 in C major.mp3
    Pre-gap length : 00:02:33
    Track gain : -3.15 dB
    Peak : 0.976379
    CRC32 hash (test run) : E33AE588
    CRC32 hash : E33AE588
    CRC32 hash (skip zero) : 5DDF3AC5
    AccurateRip v1 signature : 60B9C0A1
    AccurateRip v2 signature : 93F11E6C
    ->Accurately ripped (v1+v2, confidence 5+2/28)
    Statistics
    Read error : 0
    Jitter error (maybe fixed) : 0
    Retry sector count : 0
    Damaged sector count : 0
    Track 02
    Filename : /Volumes/931/RIPS/Christoph Von Dohnanyi - Slavonic Dances (1990) [LAME MP3 (CBR 320kbps)]/02 - Slavonic Dances, Op.46: No.2 in E minor.mp3
    /Volumes/931/RIPS/Christoph Von Dohnanyi - Slavonic Dances (1990) [LAME MP3 (VBR-new quality 0.0)]/02 - Slavonic Dances, Op.46: No.2 in E minor.mp3
    /Volumes/931/RIPS/Christoph Von Dohnanyi - Slavonic Dances (1990) [FLAC (level 8)]/02 - Slavonic Dances, Op.46: No.2 in E minor.flac
    /Volumes/931/RIPS/Christoph Von Dohnanyi - Slavonic Dances (1990) [LAME MP3 (VBR-new quality 2.0)]/02 - Slavonic Dances, Op.46: No.2 in E minor.mp3
    Track gain : -0.75 dB
    Peak : 0.991119
    CRC32 hash (test run) : 41C88BB0
    CRC32 hash : 41C88BB0
    CRC32 hash (skip zero) : 35A8E86C
    AccurateRip v1 signature : 4FF37146
    AccurateRip v2 signature : 3217EB11
    ->Accurately ripped (v1+v2, confidence 5+2/29)
    Statistics
    Read error : 0
    Jitter error (maybe fixed) : 0
    Retry sector count : 0
    Damaged sector count : 0
    Track 03
    Filename : /Volumes/931/RIPS/Christoph Von Dohnanyi - Slavonic Dances (1990) [LAME MP3 (CBR 320kbps)]/03 - Slavonic Dances, Op.46: No.3 in A flat major.mp3
    /Volumes/931/RIPS/Christoph Von Dohnanyi - Slavonic Dances (1990) [LAME MP3 (VBR-new quality 0.0)]/03 - Slavonic Dances, Op.46: No.3 in A flat major.mp3
    /Volumes/931/RIPS/Christoph Von Dohnanyi - Slavonic Dances (1990) [FLAC (level 8)]/03 - Slavonic Dances, Op.46: No.3 in A flat major.flac
    /Volumes/931/RIPS/Christoph Von Dohnanyi - Slavonic Dances (1990) [LAME MP3 (VBR-new quality 2.0)]/03 - Slavonic Dances, Op.46: No.3 in A flat major.mp3
    Track gain : -0.64 dB
    Peak : 0.972321
    CRC32 hash (test run) : DAEAC276
    CRC32 hash : DAEAC276
    CRC32 hash (skip zero) : CBE26B13
    AccurateRip v1 signature : ACCA9819
    AccurateRip v2 signature : DEEFE638
    ->Accurately ripped (v1+v2, confidence 5+2/29)
    Statistics
    Read error : 0
    Jitter error (maybe fixed) : 0
    Retry sector count : 0
    Damaged sector count : 0
    Track 04
    Filename : /Volumes/931/RIPS/Christoph Von Dohnanyi - Slavonic Dances (1990) [LAME MP3 (CBR 320kbps)]/04 - Slavonic Dances, Op.46: No.4 in F major.mp3
    /Volumes/931/RIPS/Christoph Von Dohnanyi - Slavonic Dances (1990) [LAME MP3 (VBR-new quality 0.0)]/04 - Slavonic Dances, Op.46: No.4 in F major.mp3
    /Volumes/931/RIPS/Christoph Von Dohnanyi - Slavonic Dances (1990) [FLAC (level 8)]/04 - Slavonic Dances, Op.46: No.4 in F major.flac
    /Volumes/931/RIPS/Christoph Von Dohnanyi - Slavonic Dances (1990) [LAME MP3 (VBR-new quality 2.0)]/04 - Slavonic Dances, Op.46: No.4 in F major.mp3
    Pre-gap length : 00:01:13
    Track gain : -1.24 dB
    Peak : 0.970795
    CRC32 hash (test run) : 8B9906C3
    CRC32 hash : 8B9906C3
    CRC32 hash (skip zero) : 719F0CB8
    AccurateRip v1 signature : 7355AB7E
    AccurateRip v2 signature : 336D6DF4
    ->Accurately ripped (v1+v2, confidence 5+2/29)
    Statistics
    Read error : 0
    Jitter error (maybe fixed) : 0
    Retry sector count : 0
    Damaged sector count : 0
    Track 05
    Filename : /Volumes/931/RIPS/Christoph Von Dohnanyi - Slavonic Dances (1990) [LAME MP3 (CBR 320kbps)]/05 - Slavonic Dances, Op.46: No.5 in A major.mp3
    /Volumes/931/RIPS/Christoph Von Dohnanyi - Slavonic Dances (1990) [LAME MP3 (VBR-new quality 0.0)]/05 - Slavonic Dances, Op.46: No.5 in A major.mp3
    /Volumes/931/RIPS/Christoph Von Dohnanyi - Slavonic Dances (1990) [FLAC (level 8)]/05 - Slavonic Dances, Op.46: No.5 in A major.flac
    /Volumes/931/RIPS/Christoph Von Dohnanyi - Slavonic Dances (1990) [LAME MP3 (VBR-new quality 2.0)]/05 - Slavonic Dances, Op.46: No.5 in A major.mp3
    Track gain : -1.12 dB
    Peak : 0.966400
    CRC32 hash (test run) : D9B03BF1
    CRC32 hash : D9B03BF1
    CRC32 hash (skip zero) : FB6B606F
    AccurateRip v1 signature : 8C22B1DF
    AccurateRip v2 signature : BF7897F2
    ->Accurately ripped (v1+v2, confidence 5+2/30)
    Statistics
    Read error : 0
    Jitter error (maybe fixed) : 0
    Retry sector count : 0
    Damaged sector count : 0
    Track 06
    Filename : /Volumes/931/RIPS/Christoph Von Dohnanyi - Slavonic Dances (1990) [LAME MP3 (CBR 320kbps)]/06 - Slavonic Dances, Op.46: No.6 in D major.mp3
    /Volumes/931/RIPS/Christoph Von Dohnanyi - Slavonic Dances (1990) [LAME MP3 (VBR-new quality 0.0)]/06 - Slavonic Dances, Op.46: No.6 in D major.mp3
    /Volumes/931/RIPS/Christoph Von Dohnanyi - Slavonic Dances (1990) [FLAC (level 8)]/06 - Slavonic Dances, Op.46: No.6 in D major.flac
    /Volumes/931/RIPS/Christoph Von Dohnanyi - Slavonic Dances (1990) [LAME MP3 (VBR-new quality 2.0)]/06 - Slavonic Dances, Op.46: No.6 in D major.mp3
    Track gain : -1.13 dB
    Peak : 0.970734
    CRC32 hash (test run) : ACECC571
    CRC32 hash : ACECC571
    CRC32 hash (skip zero) : B84F1D13
    AccurateRip v1 signature : F04E67FE
    AccurateRip v2 signature : 26B0000D
    ->Accurately ripped (v1+v2, confidence 5+2/28)
    Statistics
    Read error : 0
    Jitter error (maybe fixed) : 0
    Retry sector count : 0
    Damaged sector count : 0
    Track 07
    Filename : /Volumes/931/RIPS/Christoph Von Dohnanyi - Slavonic Dances (1990) [LAME MP3 (CBR 320kbps)]/07 - Slavonic Dances, Op.46: No.7 in C minor.mp3
    /Volumes/931/RIPS/Christoph Von Dohnanyi - Slavonic Dances (1990) [LAME MP3 (VBR-new quality 0.0)]/07 - Slavonic Dances, Op.46: No.7 in C minor.mp3
    /Volumes/931/RIPS/Christoph Von Dohnanyi - Slavonic Dances (1990) [FLAC (level 8)]/07 - Slavonic Dances, Op.46: No.7 in C minor.flac
    /Volumes/931/RIPS/Christoph Von Dohnanyi - Slavonic Dances (1990) [LAME MP3 (VBR-new quality 2.0)]/07 - Slavonic Dances, Op.46: No.7 in C minor.mp3
    Track gain : -1.90 dB
    Peak : 0.974121
    CRC32 hash (test run) : 5ED96927
    CRC32 hash : 5ED96927
    CRC32 hash (skip zero) : 149DB759
    AccurateRip v1 signature : E4635480
    AccurateRip v2 signature : 518A10C4
    ->Accurately ripped (v1+v2, confidence 5+2/28)
    Statistics
    Read error : 0
    Jitter error (maybe fixed) : 0
    Retry sector count : 0
    Damaged sector count : 0
    Track 08
    Filename : /Volumes/931/RIPS/Christoph Von Dohnanyi - Slavonic Dances (1990) [LAME MP3 (CBR 320kbps)]/08 - Slavonic Dances, Op.46: No.8 in G minor.mp3
    /Volumes/931/RIPS/Christoph Von Dohnanyi - Slavonic Dances (1990) [LAME MP3 (VBR-new quality 0.0)]/08 - Slavonic Dances, Op.46: No.8 in G minor.mp3
    /Volumes/931/RIPS/Christoph Von Dohnanyi - Slavonic Dances (1990) [FLAC (level 8)]/08 - Slavonic Dances, Op.46: No.8 in G minor.flac
    /Volumes/931/RIPS/Christoph Von Dohnanyi - Slavonic Dances (1990) [LAME MP3 (VBR-new quality 2.0)]/08 - Slavonic Dances, Op.46: No.8 in G minor.mp3
    Track gain : -2.77 dB
    Peak : 0.992859
    CRC32 hash (test run) : 5D9D283C
    CRC32 hash : 5D9D283C
    CRC32 hash (skip zero) : 94AFA642
    AccurateRip v1 signature : DFB96B42
    AccurateRip v2 signature : 3C46447E
    ->Accurately ripped (v1+v2, confidence 5+2/27)
    Statistics
    Read error : 0
    Jitter error (maybe fixed) : 0
    Retry sector count : 0
    Damaged sector count : 0
    Track 09
    Filename : /Volumes/931/RIPS/Christoph Von Dohnanyi - Slavonic Dances (1990) [LAME MP3 (CBR 320kbps)]/09 - Slavonic Dances, Op.72: No.1 in B major.mp3
    /Volumes/931/RIPS/Christoph Von Dohnanyi - Slavonic Dances (1990) [LAME MP3 (VBR-new quality 0.0)]/09 - Slavonic Dances, Op.72: No.1 in B major.mp3
    /Volumes/931/RIPS/Christoph Von Dohnanyi - Slavonic Dances (1990) [FLAC (level 8)]/09 - Slavonic Dances, Op.72: No.1 in B major.flac
    /Volumes/931/RIPS/Christoph Von Dohnanyi - Slavonic Dances (1990) [LAME MP3 (VBR-new quality 2.0)]/09 - Slavonic Dances, Op.72: No.1 in B major.mp3
    Pre-gap length : 00:03:40
    Track gain : -2.89 dB
    Peak : 0.991516
    CRC32 hash (test run) : 84B73443
    CRC32 hash : 84B73443
    CRC32 hash (skip zero) : 391E5025
    AccurateRip v1 signature : C8056E69
    AccurateRip v2 signature : 0929915B
    ->Accurately ripped (v1+v2, confidence 5+2/27)
    Statistics
    Read error : 0
    Jitter error (maybe fixed) : 0
    Retry sector count : 0
    Damaged sector count : 0
    Track 10
    Filename : /Volumes/931/RIPS/Christoph Von Dohnanyi - Slavonic Dances (1990) [LAME MP3 (CBR 320kbps)]/10 - Slavonic Dances, Op.72: No.2 in E minor.mp3
    /Volumes/931/RIPS/Christoph Von Dohnanyi - Slavonic Dances (1990) [LAME MP3 (VBR-new quality 0.0)]/10 - Slavonic Dances, Op.72: No.2 in E minor.mp3
    /Volumes/931/RIPS/Christoph Von Dohnanyi - Slavonic Dances (1990) [FLAC (level 8)]/10 - Slavonic Dances, Op.72: No.2 in E minor.flac
    /Volumes/931/RIPS/Christoph Von Dohnanyi - Slavonic Dances (1990) [LAME MP3 (VBR-new quality 2.0)]/10 - Slavonic Dances, Op.72: No.2 in E minor.mp3
    Track gain : 0.62 dB
    Peak : 0.739868
    CRC32 hash (test run) : E08539A4
    CRC32 hash : E08539A4
    CRC32 hash (skip zero) : FD01F421
    AccurateRip v1 signature : 4234887C
    AccurateRip v2 signature : 89280894
    ->Accurately ripped (v1+v2, confidence 5+2/28)
    Statistics
    Read error : 0
    Jitter error (maybe fixed) : 0
    Retry sector count : 0
    Damaged sector count : 0
    Track 11
    Filename : /Volumes/931/RIPS/Christoph Von Dohnanyi - Slavonic Dances (1990) [LAME MP3 (CBR 320kbps)]/11 - Slavonic Dances, Op.72: No.3 in F major.mp3
    /Volumes/931/RIPS/Christoph Von Dohnanyi - Slavonic Dances (1990) [LAME MP3 (VBR-new quality 0.0)]/11 - Slavonic Dances, Op.72: No.3 in F major.mp3
    /Volumes/931/RIPS/Christoph Von Dohnanyi - Slavonic Dances (1990) [FLAC (level 8)]/11 - Slavonic Dances, Op.72: No.3 in F major.flac
    /Volumes/931/RIPS/Christoph Von Dohnanyi - Slavonic Dances (1990) [LAME MP3 (VBR-new quality 2.0)]/11 - Slavonic Dances, Op.72: No.3 in F major.mp3
    Track gain : -2.41 dB
    Peak : 0.972534
    CRC32 hash (test run) : 0A33148B
    CRC32 hash : 0A33148B
    CRC32 hash (skip zero) : BC61C2B5
    AccurateRip v1 signature : A9ECB742
    AccurateRip v2 signature : 520DB804
    ->Accurately ripped (v1+v2, confidence 5+2/28)
    Statistics
    Read error : 0
    Jitter error (maybe fixed) : 0
    Retry sector count : 0
    Damaged sector count : 0
    Track 12
    Filename : /Volumes/931/RIPS/Christoph Von Dohnanyi - Slavonic Dances (1990) [LAME MP3 (CBR 320kbps)]/12 - Slavonic Dances, Op.72: No.4 in D flat major.mp3
    /Volumes/931/RIPS/Christoph Von Dohnanyi - Slavonic Dances (1990) [LAME MP3 (VBR-new quality 0.0)]/12 - Slavonic Dances, Op.72: No.4 in D flat major.mp3
    /Volumes/931/RIPS/Christoph Von Dohnanyi - Slavonic Dances (1990) [FLAC (level 8)]/12 - Slavonic Dances, Op.72: No.4 in D flat major.flac
    /Volumes/931/RIPS/Christoph Von Dohnanyi - Slavonic Dances (1990) [LAME MP3 (VBR-new quality 2.0)]/12 - Slavonic Dances, Op.72: No.4 in D flat major.mp3
    Track gain : 1.18 dB
    Peak : 0.663513
    CRC32 hash (test run) : 1710FB4E
    CRC32 hash : 1710FB4E
    CRC32 hash (skip zero) : D55DE0C5
    AccurateRip v1 signature : B35AB2C6
    AccurateRip v2 signature : 8E888C79
    ->Accurately ripped (v1+v2, confidence 5+2/28)
    Statistics
    Read error : 0
    Jitter error (maybe fixed) : 0
    Retry sector count : 0
    Damaged sector count : 0
    Track 13
    Filename : /Volumes/931/RIPS/Christoph Von Dohnanyi - Slavonic Dances (1990) [LAME MP3 (CBR 320kbps)]/13 - Slavonic Dances, Op.72: No.5 in B flat minor.mp3
    /Volumes/931/RIPS/Christoph Von Dohnanyi - Slavonic Dances (1990) [LAME MP3 (VBR-new quality 0.0)]/13 - Slavonic Dances, Op.72: No.5 in B flat minor.mp3
    /Volumes/931/RIPS/Christoph Von Dohnanyi - Slavonic Dances (1990) [FLAC (level 8)]/13 - Slavonic Dances, Op.72: No.5 in B flat minor.flac
    /Volumes/931/RIPS/Christoph Von Dohnanyi - Slavonic Dances (1990) [LAME MP3 (VBR-new quality 2.0)]/13 - Slavonic Dances, Op.72: No.5 in B flat minor.mp3
    Track gain : -2.60 dB
    Peak : 0.984741
    CRC32 hash (test run) : 22EAD12E
    CRC32 hash : 22EAD12E
    CRC32 hash (skip zero) : 1FAD2F72
    AccurateRip v1 signature : 2A4008F0
    AccurateRip v2 signature : 648A9A4E
    ->Accurately ripped (v1+v2, confidence 5+2/28)
    Statistics
    Read error : 0
    Jitter error (maybe fixed) : 0
    Retry sector count : 0
    Damaged sector count : 0
    Track 14
    Filename : /Volumes/931/RIPS/Christoph Von Dohnanyi - Slavonic Dances (1990) [LAME MP3 (CBR 320kbps)]/14 - Slavonic Dances, Op.72: No.6 in B flat major.mp3
    /Volumes/931/RIPS/Christoph Von Dohnanyi - Slavonic Dances (1990) [LAME MP3 (VBR-new quality 0.0)]/14 - Slavonic Dances, Op.72: No.6 in B flat major.mp3
    /Volumes/931/RIPS/Christoph Von Dohnanyi - Slavonic Dances (1990) [FLAC (level 8)]/14 - Slavonic Dances, Op.72: No.6 in B flat major.flac
    /Volumes/931/RIPS/Christoph Von Dohnanyi - Slavonic Dances (1990) [LAME MP3 (VBR-new quality 2.0)]/14 - Slavonic Dances, Op.72: No.6 in B flat major.mp3
    Track gain : 1.27 dB
    Peak : 0.716583
    CRC32 hash (test run) : 2498E0A4
    CRC32 hash : 2498E0A4
    CRC32 hash (skip zero) : 69B6E537
    AccurateRip v1 signature : A2A1707B
    AccurateRip v2 signature : 4EBBA6F6
    ->Accurately ripped (v1+v2, confidence 5+2/28)
    Statistics
    Read error : 0
    Jitter error (maybe fixed) : 0
    Retry sector count : 0
    Damaged sector count : 0
    Track 15
    Filename : /Volumes/931/RIPS/Christoph Von Dohnanyi - Slavonic Dances (1990) [LAME MP3 (CBR 320kbps)]/15 - Slavonic Dances, Op.72: No.7 in C major.mp3
    /Volumes/931/RIPS/Christoph Von Dohnanyi - Slavonic Dances (1990) [LAME MP3 (VBR-new quality 0.0)]/15 - Slavonic Dances, Op.72: No.7 in C major.mp3
    /Volumes/931/RIPS/Christoph Von Dohnanyi - Slavonic Dances (1990) [FLAC (level 8)]/15 - Slavonic Dances, Op.72: No.7 in C major.flac
    /Volumes/931/RIPS/Christoph Von Dohnanyi - Slavonic Dances (1990) [LAME MP3 (VBR-new quality 2.0)]/15 - Slavonic Dances, Op.72: No.7 in C major.mp3
    Track gain : -3.27 dB
    Peak : 1.000000
    CRC32 hash (test run) : 63CE5089
    CRC32 hash : 63CE5089
    CRC32 hash (skip zero) : 478E0C79
    AccurateRip v1 signature : 672282CF
    AccurateRip v2 signature : AFEB05DA
    ->Accurately ripped (v1+v2, confidence 5+2/28)
    Statistics
    Read error : 0
    Jitter error (maybe fixed) : 0
    Retry sector count : 0
    Damaged sector count : 0
    Track 16
    Filename : /Volumes/931/RIPS/Christoph Von Dohnanyi - Slavonic Dances (1990) [LAME MP3 (CBR 320kbps)]/16 - Slavonic Dances, Op.72: No.8 in A flat major.mp3
    /Volumes/931/RIPS/Christoph Von Dohnanyi - Slavonic Dances (1990) [LAME MP3 (VBR-new quality 0.0)]/16 - Slavonic Dances, Op.72: No.8 in A flat major.mp3
    /Volumes/931/RIPS/Christoph Von Dohnanyi - Slavonic Dances (1990) [FLAC (level 8)]/16 - Slavonic Dances, Op.72: No.8 in A flat major.flac
    /Volumes/931/RIPS/Christoph Von Dohnanyi - Slavonic Dances (1990) [LAME MP3 (VBR-new quality 2.0)]/16 - Slavonic Dances, Op.72: No.8 in A flat major.mp3
    Track gain : -1.49 dB
    Peak : 0.897827
    CRC32 hash (test run) : 16C0E0BF
    CRC32 hash : 16C0E0BF
    CRC32 hash (skip zero) : C59C6159
    AccurateRip v1 signature : 3FCD9DD2
    AccurateRip v2 signature : 3346CA86
    ->Accurately ripped (v1+v2, confidence 5+2/25)
    Statistics
    Read error : 0
    Jitter error (maybe fixed) : 0
    Retry sector count : 0
    Damaged sector count : 0
    No errors occurred
    End of status report

    auCDtect Task Manager log / Отчёт auCDtect Task Manager

    -----------------------
    DON'T MODIFY THIS FILE
    -----------------------
    PERFORMER: auCDtect Task Manager, ver. 1.5.1RC3 build 1.5.1.4
    Copyright (c) 2008-2010 y-soft. All rights reserved
    ANALYZER: auCDtect: CD records authenticity detector, version 0.8.2
    Copyright (c) 2004 Oleg Berngardt. All rights reserved.
    Copyright (c) 2004 Alexander Djourik. All rights reserved.
    FILE: 13 - Slovanske tance, Op. 72 - Nr. 5 b-moll. Poco adagio. - Vivace.flac
    Size: 13610101 Hash: 9E0197A188063CD8F58D6601BC72E19E Accuracy: -m0
    Conclusion: CDDA 99%
    Signature: 18B7E29281D7FA6EDF92FF304F402FC303D5C679
    FILE: 12 - Slovanske tance, Op. 72 - Nr. 4 Des-dur. Allegretto grazioso.flac
    Size: 25183492 Hash: 32B6EB73566D9584A6216B118D7F84F7 Accuracy: -m0
    Conclusion: CDDA 100%
    Signature: FE95847F8438B585E9F436E905D1C6F2D0226C91
    FILE: 11 - Slovanske tance, Op. 72 - Nr. 3 F-dur. Allegro.flac
    Size: 16467825 Hash: CD34A5996608AE77F7CCE7B85FD77D03 Accuracy: -m0
    Conclusion: CDDA 100%
    Signature: C9069D546C9A7D7BC33CE508EFC6BE083A3DD30D
    FILE: 10 - Slovanske tance, Op. 72 - Nr. 2 e-moll. Allegretto grazioso.flac
    Size: 28934529 Hash: 6506EDA82C63D6F63C5C2DE9F6C1F967 Accuracy: -m0
    Conclusion: CDDA 100%
    Signature: D3970621A0E101613770652B25078D80AA7D8AA0
    FILE: 09 - Slovanske tance, Op. 72 - Nr. 1 H-dur. Molto vivace.flac
    Size: 23750045 Hash: 49A289DE50D2F56227ECC8EA95DEFD4A Accuracy: -m0
    Conclusion: CDDA 100%
    Signature: 65066F9E9852784CB3F2F9C6DAD2BC99FF59DA0E
    FILE: 08 - Slovanske tance, Op. 46 - Nr. 8 g-moll. Presto.flac
    Size: 22239949 Hash: A27E6FBACE106A8AD942A341A5F96795 Accuracy: -m0
    Conclusion: CDDA 100%
    Signature: 1BE1B90D918266BEAC4B465EC182EB6E40D4BF03
    FILE: 07 - Slovanske tance, Op. 46 - Nr. 7 c-moll. Allegro assai.flac
    Size: 17812705 Hash: 9E01BDC6592E851EDF28E034AF2EEE44 Accuracy: -m0
    Conclusion: CDDA 94%
    Signature: DA275AEEAC4122091896120A88F773F8AE62E041
    FILE: 06 - Slovanske tance, Op. 46 - Nr. 6 D-dur. Allegretto scherzando.flac
    Size: 25627333 Hash: ADF95D8EE6C000A55EDD8D0AFF45C8F1 Accuracy: -m0
    Conclusion: CDDA 100%
    Signature: FC7BC43A640281A4FDB3E1CED89B97FCF0F63423
    FILE: 05 - Slovanske tance, Op. 46 - Nr. 5 A-dur. Allegro vivace.flac
    Size: 17985106 Hash: 09D302AACB8672F7A14988A23E5055FE Accuracy: -m0
    Conclusion: CDDA 87%
    Signature: 98C6494A2274FAA51C07444121B5ADE8995EF854
    FILE: 04 - Slovanske tance, Op. 46 - Nr. 4 F-dur. Tempo di Minuetto.flac
    Size: 32261393 Hash: D4DDF080B9D759BA38787F76A491ACC5 Accuracy: -m0
    Conclusion: CDDA 100%
    Signature: C6CA41798BE849B12D5544529FF3F6EB26ECA338
    FILE: 03 - Slovanske tance, Op. 46 - Nr. 3 As-dur. Poco allegro.flac
    Size: 22873047 Hash: B1E8BA7E9E40B632FF5EC077C969C49D Accuracy: -m0
    Conclusion: CDDA 100%
    Signature: 19B9E19049CB2CDB7C8655A7EBEB7EBD8115A68F
    FILE: 02 - Slovanske tance, Op. 46 - Nr. 2 e-moll. Allegretto scherzando.flac
    Size: 24235223 Hash: 05BDD89F54E6E396F9288303C5502AC1 Accuracy: -m0
    Conclusion: CDDA 100%
    Signature: 38F00F81CD3414E6DCF9AD13AE377B9E8ED13885
    FILE: 01 - Slovanske tance, Op. 46 - Nr. 1 C-dur. Presto.flac
    Size: 20967434 Hash: 115BADA6BB31767EAA3941C062C74C01 Accuracy: -m0
    Conclusion: CDDA 99%
    Signature: 2FC1D1DA6E74A98819A80C7AE69215C33EDDDE5D
    FILE: 16 - Slovanske tance, Op. 72 - Nr. 8 As-dur. Grazioso e lento, ma non troppo, quasi tempo di Valse.flac
    Size: 37393365 Hash: 25EC59D4BE3B10C21521C4C35C01ECAC Accuracy: -m0
    Conclusion: CDDA 100%
    Signature: AF49B2AA89829959E8F57EA2347E87EB8AE7E3D6
    FILE: 15 - Slovanske tance, Op. 72 - Nr. 7 C-dur. Presto.flac
    Size: 19394528 Hash: 61F34FFEA632D587336AE00DC03381F0 Accuracy: -m0
    Conclusion: CDDA 100%
    Signature: 0B5BC4209EFCF511D54850DA03DEB15B13EFF9E3
    FILE: 14 - Slovanske tance, Op. 72 - Nr. 6 B-dur. Moderato, quasi Minuetto.flac
    Size: 17970494 Hash: E77F2649BEDC31669B888D3EA57369E5 Accuracy: -m0
    Conclusion: CDDA 100%
    Signature: 9FA6023050571BB315C799EE485926F929D67D51

    CUETools log / Отчёт CUETools

    [CUETools log; Date: 22.07.2015 12:16:17; Version: 2.1.4]
    Pregap length 00:00:33.
    [AccurateRip ID: 002b844e-0207f1b2-e6118c10] found.
    Track [ CRC | V2 ] Status
    01 [60b9c0a1|93f11e6c] (05+04/61) Accurately ripped
    02 [4ff37146|3217eb11] (05+04/60) Accurately ripped
    03 [acca9819|deefe638] (05+04/61) Accurately ripped
    04 [7355ab7e|336d6df4] (05+04/61) Accurately ripped
    05 [8c22b1df|bf7897f2] (05+04/63) Accurately ripped
    06 [f04e67fe|26b0000d] (05+04/61) Accurately ripped
    07 [e4635480|518a10c4] (05+04/61) Accurately ripped
    08 [dfb96b42|3c46447e] (05+04/60) Accurately ripped
    09 [c8056e69|0929915b] (05+04/60) Accurately ripped
    10 [4234887c|89280894] (05+04/61) Accurately ripped
    11 [a9ecb742|520db804] (05+04/60) Accurately ripped
    12 [b35ab2c6|8e888c79] (05+04/61) Accurately ripped
    13 [2a4008f0|648a9a4e] (05+04/60) Accurately ripped
    14 [a2a1707b|4ebba6f6] (05+04/61) Accurately ripped
    15 [672282cf|afeb05da] (05+04/61) Accurately ripped
    16 [3fcd9dd2|3346ca86] (05+04/59) Accurately ripped
    Offsetted by 265:
    01 [97fde14c] (09/61) Accurately ripped
    02 [441d19a6] (10/60) Accurately ripped
    03 [c1b6410a] (10/61) Accurately ripped
    04 [617d20e0] (10/61) Accurately ripped
    05 [360e7aa2] (11/63) Accurately ripped
    06 [c147b8ca] (10/61) Accurately ripped
    07 [2921803d] (10/61) Accurately ripped
    08 [6bbf85b7] (09/60) Accurately ripped
    09 [459f1cc1] (09/60) Accurately ripped
    10 [da5fe822] (10/61) Accurately ripped
    11 [207b32b1] (10/60) Accurately ripped
    12 [2bd0d627] (10/61) Accurately ripped
    13 [54d46ec8] (10/60) Accurately ripped
    14 [a2ffcc51] (10/61) Accurately ripped
    15 [238c4e98] (10/61) Accurately ripped
    16 [63a3126b] (09/59) Accurately ripped
    Track Peak [ CRC32 ] [W/O NULL]
    -- 100,0 [471FDA0A] [06862BE5]
    01 97,6 [E33AE588] [5DDF3AC5]
    02 99,1 [41C88BB0] [35A8E86C]
    03 97,2 [DAEAC276] [CBE26B13]
    04 97,0 [8B9906C3] [719F0CB8]
    05 96,6 [D9B03BF1] [FB6B606F]
    06 97,0 [ACECC571] [B84F1D13]
    07 97,4 [5ED96927] [149DB759]
    08 99,2 [5D9D283C] [94AFA642]
    09 99,1 [84B73443] [391E5025]
    10 73,9 [E08539A4] [FD01F421]
    11 97,2 [0A33148B] [BC61C2B5]
    12 66,3 [1710FB4E] [D55DE0C5]
    13 98,4 [22EAD12E] [1FAD2F72]
    14 71,6 [2498E0A4] [69B6E537]
    15 100,0 [63CE5089] [478E0C79]
    16 89,7 [16C0E0BF] [C59C6159]

    CUE sheet

    TITLE "Antonín Dvořák. Slovanské tance"
    PERFORMER "Christoph von Dohnányi"
    REM GENRE Classical
    REM DISCID E6118C10
    REM REPLAYGAIN_ALBUM_GAIN -1.70 dB
    REM REPLAYGAIN_ALBUM_PEAK 1.000000
    FILE "01 - Slovanske tance, Op. 46 - Nr. 1 C-dur. Presto.flac" WAVE
    TRACK 01 AUDIO
    TITLE "Slovanské tance, Op. 46: Nr. 1 C-dur: Presto"
    PERFORMER "Cleveland Orchestra. Christoph von Dohnányi, conductor"
    REM DATE 1989
    REM COMMENT "ripped with xld 20120609"
    REM REPLAYGAIN_TRACK_GAIN -3.15 dB
    REM REPLAYGAIN_TRACK_PEAK 0.976379
    PREGAP 00:00:33
    INDEX 01 00:00:00
    FILE "02 - Slovanske tance, Op. 46 - Nr. 2 e-moll. Allegretto scherzando.flac" WAVE
    TRACK 02 AUDIO
    TITLE "Slovanské tance, Op. 46: Nr. 2 e-moll: Allegretto scherzando"
    PERFORMER "Cleveland Orchestra. Christoph von Dohnányi, conductor"
    REM DATE 1989
    REM COMMENT "ripped with xld 20120609"
    REM REPLAYGAIN_TRACK_GAIN -0.75 dB
    REM REPLAYGAIN_TRACK_PEAK 0.991119
    INDEX 01 00:00:00
    FILE "03 - Slovanske tance, Op. 46 - Nr. 3 As-dur. Poco allegro.flac" WAVE
    TRACK 03 AUDIO
    TITLE "Slovanské tance, Op. 46: Nr. 3 As-dur: Poco allegro"
    PERFORMER "Cleveland Orchestra. Christoph von Dohnányi, conductor"
    REM DATE 1989
    REM COMMENT "ripped with xld 20120609"
    REM REPLAYGAIN_TRACK_GAIN -0.64 dB
    REM REPLAYGAIN_TRACK_PEAK 0.972321
    INDEX 01 00:00:00
    TRACK 04 AUDIO
    TITLE "Slovanské tance, Op. 46: Nr. 4 F-dur: Tempo di Minuetto"
    PERFORMER "Cleveland Orchestra. Christoph von Dohnányi, conductor"
    REM DATE 1989
    REM COMMENT "ripped with xld 20120609"
    REM REPLAYGAIN_TRACK_GAIN -1.24 dB
    REM REPLAYGAIN_TRACK_PEAK 0.970795
    INDEX 00 04:35:50
    FILE "04 - Slovanske tance, Op. 46 - Nr. 4 F-dur. Tempo di Minuetto.flac" WAVE
    INDEX 01 00:00:00
    FILE "05 - Slovanske tance, Op. 46 - Nr. 5 A-dur. Allegro vivace.flac" WAVE
    TRACK 05 AUDIO
    TITLE "Slovanské tance, Op. 46: Nr. 5 A-dur: Allegro vivace"
    PERFORMER "Cleveland Orchestra. Christoph von Dohnányi, conductor"
    REM DATE 1989
    REM COMMENT "ripped with xld 20120609"
    REM REPLAYGAIN_TRACK_GAIN -1.12 dB
    REM REPLAYGAIN_TRACK_PEAK 0.966400
    INDEX 01 00:00:00
    FILE "06 - Slovanske tance, Op. 46 - Nr. 6 D-dur. Allegretto scherzando.flac" WAVE
    TRACK 06 AUDIO
    TITLE "Slovanské tance, Op. 46: Nr. 6 D-dur: Allegretto scherzando"
    PERFORMER "Cleveland Orchestra. Christoph von Dohnányi, conductor"
    REM DATE 1989
    REM COMMENT "ripped with xld 20120609"
    REM REPLAYGAIN_TRACK_GAIN -1.13 dB
    REM REPLAYGAIN_TRACK_PEAK 0.970734
    INDEX 01 00:00:00
    FILE "07 - Slovanske tance, Op. 46 - Nr. 7 c-moll. Allegro assai.flac" WAVE
    TRACK 07 AUDIO
    TITLE "Slovanské tance, Op. 46: Nr. 7 c-moll: Allegro assai"
    PERFORMER "Cleveland Orchestra. Christoph von Dohnányi, conductor"
    REM DATE 1989
    REM COMMENT "ripped with xld 20120609"
    REM REPLAYGAIN_TRACK_GAIN -1.90 dB
    REM REPLAYGAIN_TRACK_PEAK 0.974121
    INDEX 01 00:00:00
    FILE "08 - Slovanske tance, Op. 46 - Nr. 8 g-moll. Presto.flac" WAVE
    TRACK 08 AUDIO
    TITLE "Slovanské tance, Op. 46: Nr. 8 g-moll: Presto"
    PERFORMER "Cleveland Orchestra. Christoph von Dohnányi, conductor"
    REM DATE 1989
    REM COMMENT "ripped with xld 20120609"
    REM REPLAYGAIN_TRACK_GAIN -2.77 dB
    REM REPLAYGAIN_TRACK_PEAK 0.992859
    INDEX 01 00:00:00
    TRACK 09 AUDIO
    TITLE "Slovanské tance, Op. 72: Nr. 1 H-dur: Molto vivace"
    PERFORMER "Cleveland Orchestra. Christoph von Dohnányi, conductor"
    REM DATE 1989
    REM COMMENT "ripped with xld 20120609"
    REM REPLAYGAIN_TRACK_GAIN -2.89 dB
    REM REPLAYGAIN_TRACK_PEAK 0.991516
    INDEX 00 04:14:58
    FILE "09 - Slovanske tance, Op. 72 - Nr. 1 H-dur. Molto vivace.flac" WAVE
    INDEX 01 00:00:00
    FILE "10 - Slovanske tance, Op. 72 - Nr. 2 e-moll. Allegretto grazioso.flac" WAVE
    TRACK 10 AUDIO
    TITLE "Slovanské tance, Op. 72: Nr. 2 e-moll: Allegretto grazioso"
    PERFORMER "Cleveland Orchestra. Christoph von Dohnányi, conductor"
    REM DATE 1989
    REM COMMENT "ripped with xld 20120609"
    REM REPLAYGAIN_TRACK_GAIN 0.62 dB
    REM REPLAYGAIN_TRACK_PEAK 0.739868
    INDEX 01 00:00:00
    FILE "11 - Slovanske tance, Op. 72 - Nr. 3 F-dur. Allegro.flac" WAVE
    TRACK 11 AUDIO
    TITLE "Slovanské tance, Op. 72: Nr. 3 F-dur: Allegro"
    PERFORMER "Cleveland Orchestra. Christoph von Dohnányi, conductor"
    REM DATE 1989
    REM COMMENT "ripped with xld 20120609"
    REM REPLAYGAIN_TRACK_GAIN -2.41 dB
    REM REPLAYGAIN_TRACK_PEAK 0.972534
    INDEX 01 00:00:00
    FILE "12 - Slovanske tance, Op. 72 - Nr. 4 Des-dur. Allegretto grazioso.flac" WAVE
    TRACK 12 AUDIO
    TITLE "Slovanské tance, Op. 72: Nr. 4 Des-dur: Allegretto grazioso"
    PERFORMER "Cleveland Orchestra. Christoph von Dohnányi, conductor"
    REM DATE 1989
    REM COMMENT "ripped with xld 20120609"
    REM REPLAYGAIN_TRACK_GAIN 1.18 dB
    REM REPLAYGAIN_TRACK_PEAK 0.663513
    INDEX 01 00:00:00
    FILE "13 - Slovanske tance, Op. 72 - Nr. 5 b-moll. Poco adagio. - Vivace.flac" WAVE
    TRACK 13 AUDIO
    TITLE "Slovanské tance, Op. 72: Nr. 5 b-moll: Poco adagio. — Vivace"
    PERFORMER "Cleveland Orchestra. Christoph von Dohnányi, conductor"
    REM DATE 1989
    REM COMMENT "ripped with xld 20120609"
    REM REPLAYGAIN_TRACK_GAIN -2.60 dB
    REM REPLAYGAIN_TRACK_PEAK 0.984741
    INDEX 01 00:00:00
    FILE "14 - Slovanske tance, Op. 72 - Nr. 6 B-dur. Moderato, quasi Minuetto.flac" WAVE
    TRACK 14 AUDIO
    TITLE "Slovanské tance, Op. 72: Nr. 6 B-dur: Moderato, quasi Minuetto"
    PERFORMER "Cleveland Orchestra. Christoph von Dohnányi, conductor"
    REM DATE 1989
    REM COMMENT "ripped with xld 20120609"
    REM REPLAYGAIN_TRACK_GAIN 1.27 dB
    REM REPLAYGAIN_TRACK_PEAK 0.716583
    INDEX 01 00:00:00
    FILE "15 - Slovanske tance, Op. 72 - Nr. 7 C-dur. Presto.flac" WAVE
    TRACK 15 AUDIO
    TITLE "Slovanské tance, Op. 72: Nr. 7 C-dur: Presto"
    PERFORMER "Cleveland Orchestra. Christoph von Dohnányi, conductor"
    REM DATE 1989
    REM COMMENT "ripped with xld 20120609"
    REM REPLAYGAIN_TRACK_GAIN -3.27 dB
    REM REPLAYGAIN_TRACK_PEAK 1.000000
    INDEX 01 00:00:00
    FILE "16 - Slovanske tance, Op. 72 - Nr. 8 As-dur. Grazioso e lento, ma non troppo, quasi tempo di Valse.flac" WAVE
    TRACK 16 AUDIO
    TITLE "Slovanské tance, Op. 72: Nr. 8 As-dur: Grazioso e lento, ma non troppo, quasi tempo di Valse"
    PERFORMER "Cleveland Orchestra. Christoph von Dohnányi, conductor"
    REM DATE 1989
    REM COMMENT "ripped with xld 20120609"
    REM REPLAYGAIN_TRACK_GAIN -1.49 dB
    REM REPLAYGAIN_TRACK_PEAK 0.897827
    INDEX 01 00:00:00
    -
    Все мои раздачи / All my releases



  • Показать сообщения:    

    Текущее время: 04-Дек 23:19

    Часовой пояс: UTC + 3


    Вы не можете начинать темы
    Вы не можете отвечать на сообщения
    Вы не можете редактировать свои сообщения
    Вы не можете удалять свои сообщения
    Вы не можете голосовать в опросах
    Вы не можете прикреплять файлы к сообщениям
    Вы не можете скачивать файлы