(opera) Verdi: Don Carlo (Prevedi, Cappuccilli, Cossotto, Ghiaurov, Talvela; Claudio Abbado, 1968) - 2000, APE (image+.cue) lossless


 

[Цитировать]

Verdi: Don Carlo (Prevedi, Cappuccilli, Cossotto, Ghiaurov, Talvela; Claudio Abbado, 1968)
Жанр: opera
Год издания диска: 2000
Издатель (лейбл): Opera D'Oro
Дата записи: 1968
Аудиокодек: APE
Тип рипа: image+.cue
Битрейт аудио: lossless
Продолжительность: 2:52:24
Источник: собственный рип
Наличие сканов в содержимом раздачи: нет

Треклист

Disc: 1
1. Act One: Carlo, Il Sommo Imperatore
2. Act One: Io L'ho Perduta!... Io La Vidi
3. Act One: E Lui!... Desso... L'infante!
4. Act One: Dio, Che Nell'alma Infondere
5. Act One: Sotto Ai Folti, Immensi Abeti
6. Act One: Nei Giardin - Del Bello
7. Act One: La Regina!
8. Act One: Che Mai Si Fa Nel Suo Francese
9. Act One: Carlo, Ch'e Sol - Il Nostro Amore
10. Act One: Io Vengo A Domandar Grazia
11. Act One: Il Re!/Perche Sola E La Regina?
12. Act One: Non Pianger, Mia Compagna
13. Act One: Restate!/Presso All Mia Persona
14. Act One: O Signor, Di Fiandra Arrivo
15. Act One: Quest' E La Pace
16. Act One: Oso Lo Sguardo Tuo Penetrar
Disc: 2
1. Act Two: A Mezzanotte/Ai Giardin Della Regina
2. Act Two: Ed Io, Che Tremava Al Suo Aspetto!
3. Act Two: Spuntato Ecco Il Di D'esultanza
4. Act Two: Schiusa Or Sia La Porta Del Tempio!
5. Act Two: Nel Posar Sul Mo Capo La Corona
6. Act Two: Sire! Elgi E Tempo Ch'io Viva
7. Act Two: O Ciel! Tu! Rodrigo!
8. Act Three: Ella Giammai M'amo
9. Act Three: Il Grande Inquisitor!
10. Act Three: Giustizia! O Sire! Ho Fe'
11. Act Three: Pieta! Perdon!
12. Act Three: O Don Fatal, O Don Crudel
Disc: 3
1. Act Three: Son Io, Mio Carlo
2. Act Three: Per Me Giunto E Il Di Supremo
3. Act Three: Io Morrom, Ma Lieto In Core
4. Act Three: Mio Carlo, A Te La Spada Io Rendo
5. Act Four: Tu Che Le Vanita Conoscesti
6. Act Four: E Dessa!
Исполнители:
Orchestra del Teatro alla Scala di Milano,
Direttore Claudio Abbado
Coro del Teatro alla Scala di Milano
Fhilippe II - Nicolai Ghiaurov
Don Carlos – Bruno Prevedi
Rodrigue, Marquis de Posa - Piero Cappuccilli
Elisabeth de Valois – Rita Orlandi-Malaspina
La Princesse d'Eboli - Fiorenza Cossotto
Le Grand Inquisiteur – Martti Talvela
Date of Recording: 12/07/1968
Live La Scala Theater, Milan, Italy

Лог создания рипа CD1

Exact Audio Copy V1.0 beta 3 from 29. August 2011
Отчёт EAC об извлечении, выполненном 27. мая 2015, 14:15
Rita Orlandi-Malaspina, Bruno Prevedi, Piero Cappuccilli, Fiorenza Cossotto, Nicolai Ghiaurov, Martti Talvela; Claudio Abbado / Don Carlos CD1
Дисковод: Optiarc BD ROM BC-5500S Adapter: 2 ID: 0
Режим чтения : Достоверность
Использование точного потока : Да
Отключение кэша аудио : Да
Использование указателей C2 : Нет
Коррекция смещения при чтении : 48
Способность читать области Lead-in и Lead-out : Нет
Заполнение пропущенных сэмплов тишиной : Да
Удаление блоков с тишиной в начале и конце : Нет
При вычислениях CRC использовались нулевые сэмплы : Да
Интерфейс : Встроенный Win32-интерфейс для Win NT/2000
Выходной формат : Внутренние WAV-операции
Формат сэмплов : 44.100 Гц; 16 бит; стерео
TOC извлечённого CD
Трек | Старт | Длительность | Начальный сектор | Конечный сектор
---------------------------------------------------------------------
1 | 0:00.33 | 5:30.25 | 33 | 24807
2 | 5:30.58 | 3:55.50 | 24808 | 42482
3 | 9:26.33 | 3:34.00 | 42483 | 58532
4 | 13:00.33 | 5:22.25 | 58533 | 82707
5 | 18:22.58 | 3:23.50 | 82708 | 97982
6 | 21:46.33 | 5:16.40 | 97983 | 121722
7 | 27:02.73 | 1:31.35 | 121723 | 128582
8 | 28:34.33 | 2:17.00 | 128583 | 138857
9 | 30:51.33 | 4:24.00 | 138858 | 158657
10 | 35:15.33 | 10:06.00 | 158658 | 204107
11 | 45:21.33 | 1:11.50 | 204108 | 209482
12 | 46:33.08 | 4:09.25 | 209483 | 228182
13 | 50:42.33 | 2:08.40 | 228183 | 237822
14 | 52:50.73 | 3:17.60 | 237823 | 252657
15 | 56:08.58 | 2:55.50 | 252658 | 265832
16 | 59:04.33 | 4:02.00 | 265833 | 283982
Характеристики диапазона извлечения и сообщения об ошибках
Выбранный диапазон
Имя файла A:\New Music\Don Carlo (Orlandi-Malaspina, Prevedi, Cappuccilli, Cossotto, Ghiaurov, Talvela; Claudio Abbado, 1968) I.wav
Пиковый уровень 86.0 %
Скорость извлечения 2.2 X
Качество диапазона 99.9 %
CRC копии C2372EEC
Копирование... OK
Ошибок не произошло
AccurateRip: сводка
Трек 1 : извлечено точно (доверие 2) [F036C81F] (AR v1)
Трек 2 : извлечено точно (доверие 2) [5506B66C] (AR v1)
Трек 3 : извлечено точно (доверие 2) [683E7BC6] (AR v1)
Трек 4 : извлечено точно (доверие 2) [B6AD944F] (AR v1)
Трек 5 : извлечено точно (доверие 2) [5CA95579] (AR v1)
Трек 6 : извлечено точно (доверие 2) [207B37B1] (AR v1)
Трек 7 : извлечено точно (доверие 2) [92DDE4AE] (AR v1)
Трек 8 : извлечено точно (доверие 2) [8DFCA371] (AR v1)
Трек 9 : извлечено точно (доверие 2) [9AB303EC] (AR v1)
Трек 10 : извлечено точно (доверие 2) [6932D023] (AR v1)
Трек 11 : извлечено точно (доверие 2) [F9F783A3] (AR v1)
Трек 12 : извлечено точно (доверие 2) [83785933] (AR v1)
Трек 13 : извлечено точно (доверие 2) [5B8FD379] (AR v1)
Трек 14 : извлечено точно (доверие 2) [B3113A0C] (AR v1)
Трек 15 : извлечено точно (доверие 2) [B199873D] (AR v1)
Трек 16 : извлечено точно (доверие 2) [A8589546] (AR v1)
Все треки извлечены точно
Конец отчёта

Лог создания рипа CD2

Exact Audio Copy V1.0 beta 3 from 29. August 2011
Отчёт EAC об извлечении, выполненном 27. мая 2015, 14:47
Rita Orlandi-Malaspina, Bruno Prevedi, Piero Cappuccilli, Fiorenza Cossotto, Nicolai Ghiaurov, Martti Talvela; Claudio Abbado / Don Carlo CD2
Дисковод: Optiarc BD ROM BC-5500S Adapter: 2 ID: 0
Режим чтения : Достоверность
Использование точного потока : Да
Отключение кэша аудио : Да
Использование указателей C2 : Нет
Коррекция смещения при чтении : 48
Способность читать области Lead-in и Lead-out : Нет
Заполнение пропущенных сэмплов тишиной : Да
Удаление блоков с тишиной в начале и конце : Нет
При вычислениях CRC использовались нулевые сэмплы : Да
Интерфейс : Встроенный Win32-интерфейс для Win NT/2000
Выходной формат : Внутренние WAV-операции
Формат сэмплов : 44.100 Гц; 16 бит; стерео
TOC извлечённого CD
Трек | Старт | Длительность | Начальный сектор | Конечный сектор
---------------------------------------------------------------------
1 | 0:00.33 | 10:21.00 | 33 | 46607
2 | 10:21.33 | 5:31.00 | 46608 | 71432
3 | 15:52.33 | 6:51.00 | 71433 | 102257
4 | 22:43.33 | 1:42.25 | 102258 | 109932
5 | 24:25.58 | 5:43.00 | 109933 | 135657
6 | 30:08.58 | 2:05.00 | 135658 | 145032
7 | 32:13.58 | 3:02.50 | 145033 | 158732
8 | 35:16.33 | 11:08.25 | 158733 | 208857
9 | 46:24.58 | 9:35.50 | 208858 | 252032
10 | 56:00.33 | 8:56.12 | 252033 | 292244
11 | 64:56.45 | 3:06.63 | 292245 | 306257
12 | 68:03.33 | 4:51.00 | 306258 | 328082
Характеристики диапазона извлечения и сообщения об ошибках
Выбранный диапазон
Имя файла A:\New Music\Don Carlo (Orlandi-Malaspina, Prevedi, Cappuccilli, Cossotto, Ghiaurov, Talvela; Claudio Abbado, 1968) II.wav
Пиковый уровень 81.4 %
Скорость извлечения 2.8 X
Качество диапазона 99.9 %
CRC копии 3FD4B6FC
Копирование... OK
Ошибок не произошло
AccurateRip: сводка
Трек 1 : извлечено точно (доверие 1) [42E061DB] (AR v1)
Трек 2 : извлечено точно (доверие 1) [469F6360] (AR v1)
Трек 3 : извлечено точно (доверие 1) [10F2BA83] (AR v1)
Трек 4 : извлечено точно (доверие 1) [05A96FA0] (AR v1)
Трек 5 : извлечено точно (доверие 1) [F86568BD] (AR v1)
Трек 6 : извлечено точно (доверие 1) [08A8D863] (AR v1)
Трек 7 : извлечено точно (доверие 1) [7C146F79] (AR v1)
Трек 8 : извлечено точно (доверие 1) [91EBB5B2] (AR v1)
Трек 9 : извлечено точно (доверие 1) [6AE05A4C] (AR v1)
Трек 10 : извлечено точно (доверие 1) [A76096F8] (AR v1)
Трек 11 : извлечено точно (доверие 1) [92EB43CE] (AR v1)
Трек 12 : извлечено точно (доверие 1) [36BBEA79] (AR v1)
Все треки извлечены точно
Конец отчёта

Лог создания рипа CD3

Exact Audio Copy V1.0 beta 3 from 29. August 2011
Отчёт EAC об извлечении, выполненном 27. мая 2015, 22:58
Rita Orlandi-Malaspina, Bruno Prevedi, Piero Cappuccilli, Fiorenza Cossotto, Nicolai Ghiaurov, Martti Talvela; Claudio Abbado / Don Carlo CD3
Дисковод: Optiarc BD ROM BC-5500S Adapter: 2 ID: 0
Режим чтения : Достоверность
Использование точного потока : Да
Отключение кэша аудио : Да
Использование указателей C2 : Нет
Коррекция смещения при чтении : 48
Способность читать области Lead-in и Lead-out : Нет
Заполнение пропущенных сэмплов тишиной : Да
Удаление блоков с тишиной в начале и конце : Нет
При вычислениях CRC использовались нулевые сэмплы : Да
Интерфейс : Встроенный Win32-интерфейс для Win NT/2000
Выходной формат : Внутренние WAV-операции
Формат сэмплов : 44.100 Гц; 16 бит; стерео
TOC извлечённого CD
Трек | Старт | Длительность | Начальный сектор | Конечный сектор
---------------------------------------------------------------------
1 | 0:00.33 | 2:59.40 | 33 | 13497
2 | 2:59.73 | 5:54.10 | 13498 | 40057
3 | 8:54.08 | 2:21.70 | 40058 | 50702
4 | 11:16.03 | 4:08.30 | 50703 | 69332
5 | 15:24.33 | 10:42.37 | 69333 | 117519
6 | 26:06.70 | 10:17.38 | 117520 | 163832
Характеристики диапазона извлечения и сообщения об ошибках
Выбранный диапазон
Имя файла A:\New Music\Don Carlo (Orlandi-Malaspina, Prevedi, Cappuccilli, Cossotto, Ghiaurov, Talvela; Claudio Abbado, 1968) III.wav
Пиковый уровень 100.0 %
Скорость извлечения 0.0 X
Качество диапазона 99.9 %
CRC копии 955044FA
Копирование... OK
Ошибок не произошло
AccurateRip: сводка
Трек 1 : извлечено точно (доверие 1) [F4CAC0E3] (AR v1)
Трек 2 : извлечено точно (доверие 1) [170122A9] (AR v1)
Трек 3 : извлечено точно (доверие 1) [8E9364E2] (AR v1)
Трек 4 : извлечено точно (доверие 1) [7421DCDF] (AR v1)
Трек 5 : извлечено точно (доверие 1) [1F30BDAA] (AR v1)
Трек 6 : извлечено точно (доверие 1) [F04C1075] (AR v1)
Все треки извлечены точно
Конец отчёта

Содержание индексной карты CD1

REM GENRE Opera
REM DATE 1968
PERFORMER "Rita Orlandi-Malaspina, Bruno Prevedi, Piero Cappuccilli, Fiorenza Cossotto, Nicolai Ghiaurov, Martti Talvela; Claudio Abbado"
TITLE "Don Carlo"
FILE "Don Carlo (Orlandi-Malaspina, Prevedi, Cappuccilli, Cossotto, Ghiaurov, Talvela; Claudio Abbado, 1968) I.ape" WAVE
TRACK 01 AUDIO
TITLE "Atto I. Scena 1 ‘Carlo, il sommo imperatore’ (Coro, Frate) Grande è Dio sol, e s'ei lo vuol’ (Frate)"
PERFORMER "Rita Orlandi-Malaspina, Bruno Prevedi, Piero Cappuccilli, Fiorenza Cossotto, Nicolai Ghiaurov, Martti Talvela; Claudio Abbado"
INDEX 00 00:00:00
INDEX 01 00:00:33
TRACK 02 AUDIO
TITLE "Atto I. Scena 2 ‘Io l'ho perduta! Oh potenza suprema!’ (Carlo) ‘Io la vidi e il suo sorriso’ (Carlo, Frate)"
PERFORMER "Rita Orlandi-Malaspina, Bruno Prevedi, Piero Cappuccilli, Fiorenza Cossotto, Nicolai Ghiaurov, Martti Talvela; Claudio Abbado"
INDEX 01 05:30:58
TRACK 03 AUDIO
TITLE "Atto I. Scena 3 ‘È lui!… desso… l'Infante!’ (Rodrigo, Carlo, Coro interno)"
PERFORMER "Rita Orlandi-Malaspina, Bruno Prevedi, Piero Cappuccilli, Fiorenza Cossotto, Nicolai Ghiaurov, Martti Talvela; Claudio Abbado"
INDEX 01 09:26:33
TRACK 04 AUDIO
TITLE "Atto I. Scena 3 ‘Dio, che nell'alma infondere’ (Rodrigo, Carlo, Coro interno)"
PERFORMER "Rita Orlandi-Malaspina, Bruno Prevedi, Piero Cappuccilli, Fiorenza Cossotto, Nicolai Ghiaurov, Martti Talvela; Claudio Abbado"
INDEX 01 13:00:33
TRACK 05 AUDIO
TITLE "Atto I. Scena 1 ‘Sotto ai folti, immensi abeti’ (Dame, Tebaldo, Eboli)"
PERFORMER "Rita Orlandi-Malaspina, Bruno Prevedi, Piero Cappuccilli, Fiorenza Cossotto, Nicolai Ghiaurov, Martti Talvela; Claudio Abbado"
INDEX 01 18:22:58
TRACK 06 AUDIO
TITLE "Atto I. Scena 1 ‘Nei giardin del bello saracin ostello’ (Eboli, Coro)"
PERFORMER "Rita Orlandi-Malaspina, Bruno Prevedi, Piero Cappuccilli, Fiorenza Cossotto, Nicolai Ghiaurov, Martti Talvela; Claudio Abbado"
INDEX 01 21:46:33
TRACK 07 AUDIO
TITLE "Atto I. Scena 2 ‘La Regina! - Un'arcana mestizia’ (Coro, Eboli, Elisabetta, Tebaldo, Rodrigo)"
PERFORMER "Rita Orlandi-Malaspina, Bruno Prevedi, Piero Cappuccilli, Fiorenza Cossotto, Nicolai Ghiaurov, Martti Talvela; Claudio Abbado"
INDEX 01 27:02:73
TRACK 08 AUDIO
TITLE "Atto I. Scena 3 ‘Che mai si fa nel suol francese’ (Eboli, Rodrigo, Elisabetta)"
PERFORMER "Rita Orlandi-Malaspina, Bruno Prevedi, Piero Cappuccilli, Fiorenza Cossotto, Nicolai Ghiaurov, Martti Talvela; Claudio Abbado"
INDEX 01 28:34:33
TRACK 09 AUDIO
TITLE "Atto I. Scena 3 ‘Carlo, ch'è sol il nostro amore’ (Rodrigo, Elisabetta, Eboli)"
PERFORMER "Rita Orlandi-Malaspina, Bruno Prevedi, Piero Cappuccilli, Fiorenza Cossotto, Nicolai Ghiaurov, Martti Talvela; Claudio Abbado"
INDEX 01 30:51:33
TRACK 10 AUDIO
TITLE "Atto I. Scena 4 ‘Io vengo a domandar grazia alla mia Regina’ (Carlo, Elisabetta)"
PERFORMER "Rita Orlandi-Malaspina, Bruno Prevedi, Piero Cappuccilli, Fiorenza Cossotto, Nicolai Ghiaurov, Martti Talvela; Claudio Abbado"
INDEX 01 35:15:33
TRACK 11 AUDIO
TITLE "Atto I. Scena 5 ‘Il Re! - Perché qui sola è la Regina?’ (Tebaldo, Filippo, Coro)"
PERFORMER "Rita Orlandi-Malaspina, Bruno Prevedi, Piero Cappuccilli, Fiorenza Cossotto, Nicolai Ghiaurov, Martti Talvela; Claudio Abbado"
INDEX 01 45:21:33
TRACK 12 AUDIO
TITLE "Atto I. Scena 5 ‘Non pianger, mia compagna’ (Elisabetta, Rodrigo, Filippo, Coro)"
PERFORMER "Rita Orlandi-Malaspina, Bruno Prevedi, Piero Cappuccilli, Fiorenza Cossotto, Nicolai Ghiaurov, Martti Talvela; Claudio Abbado"
INDEX 01 46:33:08
TRACK 13 AUDIO
TITLE "Atto I. Scena 6 ‘Restate! Presso della mia persona’ (Filippo, Rodrigo)"
PERFORMER "Rita Orlandi-Malaspina, Bruno Prevedi, Piero Cappuccilli, Fiorenza Cossotto, Nicolai Ghiaurov, Martti Talvela; Claudio Abbado"
INDEX 01 50:42:33
TRACK 14 AUDIO
TITLE "Atto I. Scena 6 ‘O signor, di Fiandra arrivo’ (Rodrigo, Filippo)"
PERFORMER "Rita Orlandi-Malaspina, Bruno Prevedi, Piero Cappuccilli, Fiorenza Cossotto, Nicolai Ghiaurov, Martti Talvela; Claudio Abbado"
INDEX 01 52:50:73
TRACK 15 AUDIO
TITLE "Atto I. Scena 6 ‘Quest'è la pace che voi date al mondo?’ (Rodrigo, Filippo)"
PERFORMER "Rita Orlandi-Malaspina, Bruno Prevedi, Piero Cappuccilli, Fiorenza Cossotto, Nicolai Ghiaurov, Martti Talvela; Claudio Abbado"
INDEX 01 56:08:58
TRACK 16 AUDIO
TITLE "Atto I. Scena 6 ‘Osò lo sguardo tuo penetrar il mio soglio…’ (Filippo, Rodrigo)"
PERFORMER "Rita Orlandi-Malaspina, Bruno Prevedi, Piero Cappuccilli, Fiorenza Cossotto, Nicolai Ghiaurov, Martti Talvela; Claudio Abbado"
INDEX 01 59:04:33

Содержание индексной карты CD2

REM GENRE Opera
REM DATE 1968
PERFORMER "Rita Orlandi-Malaspina, Bruno Prevedi, Piero Cappuccilli, Fiorenza Cossotto, Nicolai Ghiaurov, Martti Talvela; Claudio Abbado"
TITLE "Don Carlo"
FILE "Don Carlo (Prevedi, Cappuccilli, Cossotto, Ghiaurov, Talvela; Claudio Abbado, 1968) II.ape" WAVE
TRACK 01 AUDIO
TITLE "Atto II. Scena 1 ‘A mezzanotte, ai giardini della Regina’ (Carlo) Scena 2 ‘Sei tu, bella adorata’ (Carlo, Eboli)"
PERFORMER "Rita Orlandi-Malaspina, Bruno Prevedi, Piero Cappuccilli, Fiorenza Cossotto, Nicolai Ghiaurov, Martti Talvela; Claudio Abbado"
INDEX 00 00:00:00
INDEX 01 00:00:33
TRACK 02 AUDIO
TITLE "Atto II. Scena 3 ‘Ed io, che tremava al suo aspetto…!’ (Eboli, Rodrigo, Carlo)"
PERFORMER "Rita Orlandi-Malaspina, Bruno Prevedi, Piero Cappuccilli, Fiorenza Cossotto, Nicolai Ghiaurov, Martti Talvela; Claudio Abbado"
INDEX 01 10:21:33
TRACK 03 AUDIO
TITLE "Atto II. Scena 1 ‘Spuntato ecco il dì d'esultanza’ (Popolo)"
PERFORMER "Rita Orlandi-Malaspina, Bruno Prevedi, Piero Cappuccilli, Fiorenza Cossotto, Nicolai Ghiaurov, Martti Talvela; Claudio Abbado"
INDEX 01 15:52:33
TRACK 04 AUDIO
TITLE "Atto II. Scena 2 ‘Schiusa or sia la porta del tempio!’ (Araldo, Coro)!"
PERFORMER "Rita Orlandi-Malaspina, Bruno Prevedi, Piero Cappuccilli, Fiorenza Cossotto, Nicolai Ghiaurov, Martti Talvela; Claudio Abbado"
INDEX 01 22:43:33
TRACK 05 AUDIO
TITLE "Atto II. Scena 3 ‘Nel posar sul mio capo la corona’ (Filippo, Elisabetta, Rodrigo, Carlo, Tebaldo, Coro)"
PERFORMER "Rita Orlandi-Malaspina, Bruno Prevedi, Piero Cappuccilli, Fiorenza Cossotto, Nicolai Ghiaurov, Martti Talvela; Claudio Abbado"
INDEX 01 24:25:58
TRACK 06 AUDIO
TITLE "Atto II. Scena 4 ‘Sire; egli è tempo ch'io viva’ (Carlo, Filippo, Elisabetta, Rodrigo, Coro)"
PERFORMER "Rita Orlandi-Malaspina, Bruno Prevedi, Piero Cappuccilli, Fiorenza Cossotto, Nicolai Ghiaurov, Martti Talvela; Claudio Abbado"
INDEX 01 30:08:58
TRACK 07 AUDIO
TITLE "Atto II. Scena 4 ‘O ciel! Tu, Rodrigo…!’ (Carlo, Filippo, Coro, Una voce dal cielo)"
PERFORMER "Rita Orlandi-Malaspina, Bruno Prevedi, Piero Cappuccilli, Fiorenza Cossotto, Nicolai Ghiaurov, Martti Talvela; Claudio Abbado"
INDEX 01 32:13:58
TRACK 08 AUDIO
TITLE "Atto III. Scena 1 ‘Ella giammai m'amò!… Quel core chiuso è a me’ (Filippo)"
PERFORMER "Rita Orlandi-Malaspina, Bruno Prevedi, Piero Cappuccilli, Fiorenza Cossotto, Nicolai Ghiaurov, Martti Talvela; Claudio Abbado"
INDEX 00 35:07:33
INDEX 01 35:16:33
TRACK 09 AUDIO
TITLE "Atto III. Scena 2 ‘Il Grande Inquisitor! - Son io dinanti al Re?’ (Conte di Lerma, Inquisitore, Filippo)"
PERFORMER "Rita Orlandi-Malaspina, Bruno Prevedi, Piero Cappuccilli, Fiorenza Cossotto, Nicolai Ghiaurov, Martti Talvela; Claudio Abbado"
INDEX 01 46:24:58
TRACK 10 AUDIO
TITLE "Atto III. Scena 3 ‘Giustizia! o Sire! Ho fé’ (Elisabetta, Filippo, Eboli, Rodrigo)"
PERFORMER "Rita Orlandi-Malaspina, Bruno Prevedi, Piero Cappuccilli, Fiorenza Cossotto, Nicolai Ghiaurov, Martti Talvela; Claudio Abbado"
INDEX 01 56:00:33
TRACK 11 AUDIO
TITLE "Atto III. Scena 5 ‘Pietà! perdon!… per la rea che si pente’ (Eboli, Elisabetta)"
PERFORMER "Rita Orlandi-Malaspina, Bruno Prevedi, Piero Cappuccilli, Fiorenza Cossotto, Nicolai Ghiaurov, Martti Talvela; Claudio Abbado"
INDEX 01 64:56:45
TRACK 12 AUDIO
TITLE "Atto III. Scena 6 ‘O don fatale, o don crudele’ (Eboli)"
PERFORMER "Rita Orlandi-Malaspina, Bruno Prevedi, Piero Cappuccilli, Fiorenza Cossotto, Nicolai Ghiaurov, Martti Talvela; Claudio Abbado"
INDEX 01 68:03:33

Содержание индексной карты CD3

REM GENRE Opera
REM DATE 1968
PERFORMER "Rita Orlandi-Malaspina, Bruno Prevedi, Piero Cappuccilli, Fiorenza Cossotto, Nicolai Ghiaurov, Martti Talvela; Claudio Abbado"
TITLE "Don Carlo"
FILE "Don Carlo (Prevedi, Cappuccilli, Cossotto, Ghiaurov, Talvela; Claudio Abbado, 1968) III.ape" WAVE
TRACK 01 AUDIO
TITLE "Atto III. Scena 1 ‘Son io, mio Carlo’ (Rodrigo, Carlo)"
PERFORMER "Rita Orlandi-Malaspina, Bruno Prevedi, Piero Cappuccilli, Fiorenza Cossotto, Nicolai Ghiaurov, Martti Talvela; Claudio Abbado"
INDEX 00 00:00:00
INDEX 01 00:00:33
TRACK 02 AUDIO
TITLE "Atto III. Scena 1 ‘Per me giunto è il dì supremo’ (Rodrigo, Carlo)"
PERFORMER "Rita Orlandi-Malaspina, Bruno Prevedi, Piero Cappuccilli, Fiorenza Cossotto, Nicolai Ghiaurov, Martti Talvela; Claudio Abbado"
INDEX 01 02:59:73
TRACK 03 AUDIO
TITLE "Atto III. Scena 1 ‘Io morrò, ma lieto in core’ (Rodrigo)"
PERFORMER "Rita Orlandi-Malaspina, Bruno Prevedi, Piero Cappuccilli, Fiorenza Cossotto, Nicolai Ghiaurov, Martti Talvela; Claudio Abbado"
INDEX 01 08:54:08
TRACK 04 AUDIO
TITLE "Atto III. Scena 2 ‘Mio Carlo, a te la spada io rendo’ (Filippo, Carlo, Coro, Eboli, Inquisitore)"
PERFORMER "Rita Orlandi-Malaspina, Bruno Prevedi, Piero Cappuccilli, Fiorenza Cossotto, Nicolai Ghiaurov, Martti Talvela; Claudio Abbado"
INDEX 01 11:16:03
TRACK 05 AUDIO
TITLE "Atto IIII. Scena 1 ‘Tu che le vanità conoscesti del mondo’ (Elisabetta)"
PERFORMER "Rita Orlandi-Malaspina, Bruno Prevedi, Piero Cappuccilli, Fiorenza Cossotto, Nicolai Ghiaurov, Martti Talvela; Claudio Abbado"
INDEX 01 15:24:33
TRACK 06 AUDIO
TITLE "Atto IIII. Scena 2 ‘È dessa! - Un detto, un sol; al ciel raccomando’ (Carlo, Elisabetta) ‘Per sempre!… Io voglio un doppio sacrifizio!’ (Filippo, Inquisitore, Elisabetta, Carlo, Frate, Coro)"
PERFORMER "Rita Orlandi-Malaspina, Bruno Prevedi, Piero Cappuccilli, Fiorenza Cossotto, Nicolai Ghiaurov, Martti Talvela; Claudio Abbado"
INDEX 01 26:06:70



Показать сообщения:    

Текущее время: 09-Дек 08:53

Часовой пояс: UTC + 3


Вы не можете начинать темы
Вы не можете отвечать на сообщения
Вы не можете редактировать свои сообщения
Вы не можете удалять свои сообщения
Вы не можете голосовать в опросах
Вы не можете прикреплять файлы к сообщениям
Вы не можете скачивать файлы