Роли исполняют 2 часть (87 выпускoв) [2008-2014, Россия, Документальный цикл, DVB]


Статистика раздачи [Обновить пиров]
Размер:  49.41 GB   |    Зарегистрирован:  8 месяцев 16 дней   |    Скачан:  0 раз

Полного источника не было: Никогда

 
   
 
 
 

[Цитировать]

Роли исполняют 2 часть
Страна: Россия
Жанр: Документальный цикл
Год выпуска: 2008-2014
Продолжительность: 00:29:23
Перевод: Не требуется
Язык: Русский
Cубтитры: нет
Оригинальная аудиодорожка: русский
Рип: dean10,
Описание:
Авторская программа Марины Райкиной. Рассказы о знаковых театральных спектаклях — и, конечно, встречи с любимыми театральными актерами ...
15.03.2016 _ добавил: Любимов Юрий, Янковский Олег
перезаливаем

<< Роли исполняют 2 часть >>01. Якунина Анна

Марина Райкина беседует с актрисой Ленкома – Анной Якуниной.
Анна родилась в театральной семье и в буквальном смысле росла за кулисами театра на Малой Бронной, в котором играла ее бабушка — Елена Дмитриева. А в 16 лет танцевала в спектаклях театра имени Станиславского, где мама была режиссером. Актриса Анна Якунина почти не дает интервью. Она — женщина-загадка. Эксцентрична, независима и темпераментна. Мечтала стать балериной, но поступила в ГИТИС. Отдала Сатирикону много лет, но потом оставила Константина Райкина и ушла к Марку Захарову. Она играет в лучших спектаклях Ленкома и не стыдится съемок в хороших сериалах.

02. Ардова Анна

03. Дубровская Анна

Анна Дубровская — настоящая звезда. И в родном театре сыграла уже не одну главную роль, и Олег Меньшиков приглашал ее в свои нашумевшие спектакли, и Евгений Гришковец для «Планеты» выбрал среди десятка претенденток именно Анну Дубровскую. Актриса Театра имени Е. Вахтангова Анна Дубровская не новичок и на киноэкране. Первая картина, в которой она снялась, была комедия «Хочу вашего мужа». Потом — «Дом на камнях» и «Хочу в Америку», и роль рыжеволосой Габриэль в кинокартине «Графиня де Монсоро», и сериалы «Дом» и «Черная комната» Андрея Звягинцева.«Ночной дозор» сделал ее звездой.

04. Крамер Виктор

05. Машкова Мария

06. Пирогов Кирилл

07. Жук Вадим

08. Миронов Андрей_v2

09. Повереннова Дарья

10. Сирин Александр

11. Стернин Александр

12. Фурманов Рудольф

13. Швыдкой Михаил

14. Шерменева Евгения

15. Бадов Владимир

16. Егоров Виталий

17. Кузичев Андрей

18. Песков Александр

19. Стеклова Агриппина

20. Урсуляк Александра

21. Бабочкин Борис

22. Васильев Юрий

23. Долинский Владимир

24. Дужников Станислав

25. Коляда Николай

26. Костина Фаина

27. Лазарев Александр

28. Рачевская Нелли

29. Стычкин Евгений

30. Сайфуллин Геннадий

31. Спиваковский Даниил

32. Терехова Анна

33. Ломоносова Ольга

34. Муляр Дмитрий

35. Мизери Светлана

36. Сафонов Павел

37. Андровская Ольга

38. Марецкая Вера

39. Немоляева Светлана

40. Спепанова Ангелина

41. Терехова Маргарита

42. Ливитин Михаил

43. Ярёменко Валерий

44. Баталов Сергей

45. Кабо Ольга

46. Судзиловская Олеся

47. Фёдоров Сергей

48. Хмельницкая Алёна

49. Белый Анатолий

50. Виктюк Роман

51. Литвинова Ольга

52. Мищенко Василий

53. Райхельгауз Иосиф

54. Семчев Александр

55. Захарова Александра

56. Стеклова Агриппина

57. Кравченко Татьяна

58. Чиндяйкин Николай

59. Карташёва Ирина

60. Юшкевич Сергеей

61. Любимцев Павел

62. Олешко Александр

63. Шифрин Ефим

64. Кутепова Ксения

65. Пегова Ирина

66. Будина Ольга

67. Хомский Павел

68. Громушкина Наталья

69. Добровольская Евгения 1v2_2v2

70. Роговцева Ада

71. Смехова Алика

72. Гуськов Алексей

73. Дроздова Ольга

74. Шиловский Всеволод

75. Добрынин Николай

76. Тома Светлана

77. Бадалов Карэн

78. Басилашвили Олег

79. Богомолов Константин

80. Борисова Юлия

81. Голомазов Сергей

82. Колосов Сергей

83. Москвина Инна

84. Мысина Оксана

85. Редникова Екатерина

86. Соломин Юрий

87.1. Сухоруков Виктор_1v2

87.2. Сухоруков Виктор_2v2

88. Любимов Юрий

89. Янковский Олег

Семпл: http://multi-up.com/1059665
Качество видео: DVB
Формат видео: MPEG-PS
Видео: MPEG-2 Video, 720x576 (4:3), 25 fps, 3 424 Kbps, 0.33 bit/pixel
Аудио: Russian: MPEG Audio, 48 kHz, 2 ch, 192 kbps

MediaInfo

General
Complete name : C:\Роли исполняют 2 часть\Дубровская Анна.mpg
Format : MPEG-PS
File size : 776 MiB
Duration : 29mn 23s
Overall bit rate mode : Variable
Overall bit rate : 3 689 Kbps
Video
ID : 224 (0xE0)
Format : MPEG Video
Format version : Version 2
Format profile : Main@Main
Format settings, BVOP : Yes
Format settings, Matrix : Custom
Format settings, GOP : Variable
Format settings, picture structure : Frame
Duration : 29mn 23s
Bit rate mode : Variable
Bit rate : 3 424 Kbps
Maximum bit rate : 5 000 Kbps
Width : 720 pixels
Height : 576 pixels
Display aspect ratio : 4:3
Frame rate : 25.000 fps
Standard : PAL
Color space : YUV
Chroma subsampling : 4:2:0
Bit depth : 8 bits
Scan type : Interlaced
Scan order : Top Field First
Compression mode : Lossy
Bits/(Pixel*Frame) : 0.330
Time code of first frame : 00:00:00:00
Time code source : Group of pictures header
GOP, Open/Closed : Open
GOP, Open/Closed of first frame : Closed
Stream size : 720 MiB (93%)
Audio
ID : 192 (0xC0)
Format : MPEG Audio
Format version : Version 1
Format profile : Layer 2
Duration : 29mn 23s
Bit rate mode : Constant
Bit rate : 192 Kbps
Channel(s) : 2 channels
Sampling rate : 48.0 KHz
Compression mode : Lossy
Delay relative to video : 14ms
Stream size : 40.4 MiB (5%)

Скриншот с названием постановки

Скриншоты

Как правильно подключиться к раздаче ПОСЛЕ ОБНОВЛЕНИЯ торрента!

Внимание! Раздача ведётся путём добавления новых серий; при каждом добавлении создётся новый торрент. Чтобы начать докачку новой серии, пользователям необходимо сделать следующее:
(1) остановить скачивание,
(2) удалить старый торрент у себя из клиента (старые серии удалять не надо),
(3) скачать новый торрент и запустить его у себя в клиенте вместо старого, при этом указать клиенту путь в старую папку куда и должно происходить скачивание новых серий.
Ваш клиент при этом должен произвести хеширование (проверку) старой папки (если не производит сам - помогите ему сделать это), и будет докачивать только те серии которых у вас
ещё нет. Старые серии при этом не удаляются, а продолжают раздаваться!

<< Роли исполняют 1 часть >>

http://teatrix.ru/viewtopic.php?t=11055
[teatrix.ru].t21804.torrent 
Торрент: Зарегистрирован [ 2016-03-20 12:53 ] · 0D677E708C6C9577A1C86DDD17DE7FA32BA2DF02

Скачать .torrent

Скачать

254 KB

Статус: проверено
Скачан: 0 раз
Размер: 49.41 GB
terms.php



Быстрый ответ

Имя:

      
Для отправки сообщений необходимо включить JavaScript
Показать сообщения:    

Текущее время: 06-Дек 05:36

Часовой пояс: UTC + 3


Вы можете начинать темы
Вы можете отвечать на сообщения
Вы не можете редактировать свои сообщения
Вы не можете удалять свои сообщения
Вы не можете голосовать в опросах
Вы не можете прикреплять файлы к сообщениям
Вы можете скачивать файлы