[TR24][SA] Ludwig van Beethoven: Complete Symphonies - Osaka Philharmonic Orchestra, Takashi Asahina (朝比奈 隆) - 2008 (Classical)


Статистика раздачи [Обновить пиров]
Размер:  15.96 GB   |    Зарегистрирован:  8 месяцев 19 дней   |    Скачан:  1 раз

Полного источника не было: 7 месяцев 27 дней

 
   
 
 
 

[Цитировать]

Ludwig van Beethoven
Symphonies Nos. 1-9
Takashi Asahina · Osaka Philharmonic Orchestra
-Год издания: 2008 | Жанр: Classical
Издатель: Octavia Records | Exton
Продолжительность: 06:35:12 | Наличие сканов: Sleeve- -Osaka Philharmonic Orchestra
Takashi Asahina, conductor-Контейнер: FLAC (*.flac) | Тип рипа: tracks
Разрядность: 24bit / 192kHz | Количество каналов: 2.0-

Треклист
Ludwig van Beethoven (1770-1827)
CD 1
01:06:56

Symphony No.1 in C major Op.21
01. I. Adagio molto - Allegro con brio (10:39)
02. II. Andante cantabile con moto (9:32)
03. III. Menuetto Allegro molto e vivace (3:50)
04. IV. Adagio - Allegro molto e vivace (6:41)
Rec: 2000.07.23 Suntory Hall, Tokyo
Symphony No.2 in D major Op.36
05. I. Adagio molto - Allegro con brio (13:19)
06. II. Larghetto (12:21)
07. III. Scherzo. Allegro (3:53)
08. IV. Allegro molto (6:41)
Rec: 2000.03.10 Fesitval Hall, Osaka
CD 2
00:58:09

Symphony No.3 in E-flat major Op.55 'Eroica'
01. I. Allegro con brio (19:38)
02. II. Marcia funebre. Adagio assai (18:26)
03. III. Scherzo. Allegro vivace (6:09)
04. IV. Finale. Allegro molto (13:55)
Rec: 2000.07.23 Suntory Hall, Tokyo
CD 3
01:15:07

Symphony No.4 in B-flat major Op.60
01. I. Adagio - Allegro vivace (12:59)
02. II. Adagio (11:13)
03. III. Allegro vivace - Un poco meno allegro (6:16)
04. IV. Allegro ma non troppo (8:31)
Rec: 2000.05.03 ACROS Fukuoka, Symphony Hall
Symphony No.5 in C minor Op.67
05. I. Allegro con brio (8:42)
06. II. Andante con moto (10:12)
07. III. Allegro (5:32)
08. IV. Allegro (11:43)
Rec: 2000.05.10 The Symphony Hall, Osaka
CD 4
00:45:18

Symphony No.6 in F major Op.68 'Pastorale'
01. SI. Erwachen heiterer Gefuhle bei der Ankunft auf dem Lande Allegro ma non troppo (12:44)
02. II. Szene am Bach Andante molto mosso (12:44)
03. III. Lustiges Zusammensein der Landleute Allegro (5:24)
04. IV. Gewitter,Sturm - Allegro (4:02)
05. V. Hirtengesang-Frohe und dankbare Gefuhle nach dem Sturm Allegretto (10:24)
Rec: 2000.03.10 Festival Hall, Osaka
CD 5
01:16:08

Symphony No.7 in A major Op.92
01. I. Poco sostenuto - Vivace (15:33)
02. II. Allegretto (9:47)
03. III. Presto (12:03)
04. IV. Allegro con brio (9:42)
Symphony No.8 in F major Op.93
05. I. Allegro vivace e con brio (10:31)
06. II. Allegretto scherzando (4:10)
07. III. Tempo di menuetto (5:06)
08. IV. Allegro vivace (9:15)
Rec: 2000.09.24 The Symphony Hall, Osaka
CD 6
01:13:35

Symphony No. 9 in D minor Op.125 'Choral'
01. I. Allegro ma non troppo, un poco maestoso (17:33)
02. II. Molto vivace (15:02)
03. III. Adagio molto e cantabile (15:53)
04. IV. Presto Recitativo (6:23)
05. Presto - Allegro assai, Final Chorus from Schiller's An die Freude (18:45)
Emiko Suga, soprano / Naoko Ihara, alto / Kei Fukui, tenor / Michio Tatara, baritone
Osaka Philharmonic Chorus
Rec: 2000.12.29 Festival Hall, Osaka

О релизе


"Born on July 9, 1908 in Tokyo, Maestro Asahina taught himself the violin and played in the Kyoto University Law School Orchestra. He graduated at the Kyoto University in 1931 with a law degree because his family insisted on a legal career and he stuck with it for as long as he could. Before he became a professional conductor, he joined an Osaka law firm, worked as a sales clerk in a department store and for the Kankyu railway company. One of his favorite jokes was that he was probably the world's only conductor to have operated a train.
Maestro Asahina founded the Kansai Symphony Orchestra, now the Osaka Philharmonic, and remained as its musical director until he passed away on December 29, 2001 at the age of 93. He started his international career in 1956 which he gave a concert with the Berlin Philharmonic. Asahina met Furtwängler in the early 1950s. Furtwängler discussed his views on conducting Bruckner, and Bruckner became one of Asahina's specialties.
Though Asahina often chose to use slower tempi, he managed to get his orchestra to sustain the line over long phrases. Bar lines disappeared, he conducted in paragraphs, not sentences. His sonority was built from the bottom up, founded on the basses and cellos, and also built around a rich string sound. Although the music had force and power, it was never angular, never overly aggressive. It always had beauty, an inner beauty and even spirituality. --Martin Anderson"
Personnel:
Osaka Philharmonic Orchestra
Takashi Asahina, conductor

ОтчётыДинамический диапазон

CD 1
foobar2000 1.3.8 / Dynamic Range Meter 1.1.1
log date: 2015-07-22 18:07:00
--------------------------------------------------------------------------------
Analyzed: Takashi Asahina, Osaka Philharmonic Orchestra / Beethoven: Complete Symphonies
--------------------------------------------------------------------------------
DR Peak RMS Duration Track
--------------------------------------------------------------------------------
DR14 -2.37 dB -21.24 dB 10:39 01-Symphony No.1 in C major Op.21 - I. Adagio molto - Allegro con brio
DR15 -6.35 dB -26.54 dB 9:32 02-Symphony No.1 in C major Op.21 - II. Andante cantabile con moto
DR12 -5.02 dB -22.03 dB 3:50 03-Symphony No.1 in C major Op.21 - III. Menuetto Allegro molto e vivace
DR13 -2.16 dB -20.37 dB 6:41 04-Symphony No.1 in C major Op.21 - IV. Adagio - Allegro molto e vivace
DR14 -2.03 dB -20.69 dB 13:19 05-Symphony No.2 in D major Op.36 - I. Adagio molto - Allegro con brio
DR14 -4.61 dB -26.02 dB 12:21 06-Symphony No.2 in D major Op.36 - II. Larghetto
DR14 -3.97 dB -24.03 dB 3:53 07-Symphony No.2 in D major Op.36 - III. Scherzo. Allegro
DR13 -1.80 dB -20.92 dB 6:41 08-Symphony No.2 in D major Op.36 - IV. Allegro molto
--------------------------------------------------------------------------------
Number of tracks: 8
Official DR value: DR14
Samplerate: 192000 Hz
Channels: 2
Bits per sample: 24
Bitrate: 6018 kbps
Codec: FLAC
================================================================================
CD 2
foobar2000 1.3.8 / Dynamic Range Meter 1.1.1
log date: 2015-07-22 18:10:00
--------------------------------------------------------------------------------
Analyzed: Takashi Asahina, Osaka Philharmonic Orchestra / Beethoven: Complete Symphonies
--------------------------------------------------------------------------------
DR Peak RMS Duration Track
--------------------------------------------------------------------------------
DR14 -1.28 dB -20.62 dB 19:38 01-Symphony No.3 in E-flat major Op.55 'Eroica' - I. Allegro con brio
DR15 -1.42 dB -24.03 dB 18:26 02-Symphony No.3 in E-flat major Op.55 'Eroica' - II. Marcia funebre. Adagio assai
DR13 -2.50 dB -23.59 dB 6:09 03-Symphony No.3 in E-flat major Op.55 'Eroica' - III. Scherzo. Allegro vivace
DR14 -0.64 dB -19.59 dB 13:55 04-Symphony No.3 in E-flat major Op.55 'Eroica' - IV. Finale. Allegro molto
--------------------------------------------------------------------------------
Number of tracks: 4
Official DR value: DR14
Samplerate: 192000 Hz
Channels: 2
Bits per sample: 24
Bitrate: 5800 kbps
Codec: FLAC
================================================================================
CD 3
foobar2000 1.3.8 / Dynamic Range Meter 1.1.1
log date: 2015-07-22 18:14:13
--------------------------------------------------------------------------------
Analyzed: Takashi Asahina, Osaka Philharmonic Orchestra / Beethoven: Complete Symphonies
--------------------------------------------------------------------------------
DR Peak RMS Duration Track
--------------------------------------------------------------------------------
DR13 -2.52 dB -21.28 dB 12:59 01-Symphony No.4 in B-flat major Op.60 - I. Adagio - Allegro vivace
DR15 -3.16 dB -24.53 dB 11:13 02-Symphony No.4 in B-flat major Op.60 - II. Adagio
DR13 -3.71 dB -22.78 dB 6:16 03-Symphony No.4 in B-flat major Op.60 - III. Allegro vivace - Un poco meno allegro
DR14 -3.11 dB -21.71 dB 8:31 04-Symphony No.4 in B-flat major Op.60 - IV. Allegro ma non troppo
DR13 -1.93 dB -18.89 dB 8:42 05-Symphony No.5 in C minor Op.67 - I. Allegro con brio
DR13 -2.56 dB -22.34 dB 10:12 06-Symphony No.5 in C minor Op.67 - II. Andante con moto
DR13 -0.97 dB -22.09 dB 5:32 07-Symphony No.5 in C minor Op.67 - III. Allegro
DR12 -0.53 dB -17.01 dB 11:43 08-Symphony No.5 in C minor Op.67 - IV. Allegro
--------------------------------------------------------------------------------
Number of tracks: 8
Official DR value: DR13
Samplerate: 192000 Hz
Channels: 2
Bits per sample: 24
Bitrate: 5933 kbps
Codec: FLAC
================================================================================
CD 4
foobar2000 1.3.8 / Dynamic Range Meter 1.1.1
log date: 2015-07-22 18:16:30
--------------------------------------------------------------------------------
Analyzed: Takashi Asahina, Osaka Philharmonic Orchestra / Beethoven: Complete Symphonies
--------------------------------------------------------------------------------
DR Peak RMS Duration Track
--------------------------------------------------------------------------------
DR13 -4.23 dB -24.15 dB 12:44 01-Symphony No.6 in F major Op.68 'Pastorale' - I. Erwachen heiterer Gefuhle bei der Ankunft auf dem Lande Allegro ma non troppo
DR13 -7.93 dB -28.00 dB 12:44 02-Symphony No.6 in F major Op.68 'Pastorale' - II. Szene am Bach Andante molto mosso
DR12 -4.33 dB -21.99 dB 5:24 03-Symphony No.6 in F major Op.68 'Pastorale' - III. Lustiges Zusammensein der Landleute Allegro
DR13 -1.25 dB -20.79 dB 4:02 04-Symphony No.6 in F major Op.68 'Pastorale' - IV. Gewitter,Sturm - Allegro
DR13 -1.69 dB -21.22 dB 10:24 05-Symphony No.6 in F major Op.68 'Pastorale' - V. Hirtengesang-Frohe und dankbare Gefuhle nach dem Sturm Allegretto
--------------------------------------------------------------------------------
Number of tracks: 5
Official DR value: DR13
Samplerate: 192000 Hz
Channels: 2
Bits per sample: 24
Bitrate: 6034 kbps
Codec: FLAC
================================================================================
CD 5
foobar2000 1.3.8 / Dynamic Range Meter 1.1.1
log date: 2015-07-22 18:20:41
--------------------------------------------------------------------------------
Analyzed: Takashi Asahina, Osaka Philharmonic Orchestra / Beethoven: Complete Symphonies
--------------------------------------------------------------------------------
DR Peak RMS Duration Track
--------------------------------------------------------------------------------
DR13 -1.98 dB -20.01 dB 15:33 01-Symphony No.7 in A major Op.92 - I. Poco sostenuto - Vivace
DR14 -1.24 dB -23.93 dB 9:47 02-Symphony No.7 in A major Op.92 - II. Allegretto
DR13 -1.43 dB -20.98 dB 12:03 03-Symphony No.7 in A major Op.92 - III. Presto
DR12 -0.58 dB -16.97 dB 9:42 04-Symphony No.7 in A major Op.92 - IV. Allegro con brio
DR13 -1.97 dB -19.20 dB 10:31 05-Symphony No.8 in F major Op.93 - I. Allegro vivace e con brio
DR14 -5.88 dB -25.91 dB 4:10 06-Symphony No.8 in F major Op.93 - II. Allegretto scherzando
DR13 -3.39 dB -20.94 dB 5:06 07-Symphony No.8 in F major Op.93 - III. Tempo di menuetto
DR13 -1.93 dB -19.52 dB 9:15 08-Symphony No.8 in F major Op.93 - IV. Allegro vivace
--------------------------------------------------------------------------------
Number of tracks: 8
Official DR value: DR13
Samplerate: 192000 Hz
Channels: 2
Bits per sample: 24
Bitrate: 5752 kbps
Codec: FLAC
================================================================================
CD 6
foobar2000 1.3.8 / Dynamic Range Meter 1.1.1
log date: 2015-07-22 18:24:40
--------------------------------------------------------------------------------
Analyzed: Takashi Asahina, Osaka Philharmonic Orchestra / Beethoven: Complete Symphonies
--------------------------------------------------------------------------------
DR Peak RMS Duration Track
--------------------------------------------------------------------------------
DR14 -1.85 dB -21.82 dB 17:33 01-Symphony No. 9 in D minor Op.125 'Choral' - I. Allegro ma non troppo, un poco maestoso
DR16 -2.23 dB -24.56 dB 15:02 02-Symphony No. 9 in D minor Op.125 'Choral' - II. Molto vivace
DR17 -5.69 dB -28.56 dB 15:53 03-Symphony No. 9 in D minor Op.125 'Choral' - III. Adagio molto e cantabile
DR13 -1.02 dB -22.13 dB 6:23 04-Symphony No. 9 in D minor Op.125 'Choral' - IV. Presto Recitativo
DR14 -0.26 dB -19.11 dB 18:45 05-Symphony No. 9 in D minor Op.125 'Choral' - Presto - Allegro assai, Final Chorus from Schiller's An die Freude
--------------------------------------------------------------------------------
Number of tracks: 5
Official DR value: DR15
Samplerate: 192000 Hz
Channels: 2
Bits per sample: 24
Bitrate: 5788 kbps
Codec: FLAC
================================================================================

Скриншот спектра частот

Доп. информация

При скачивании, если необходимо, переименуйте папку, в которой будет находиться альбомБольшая просьба к скачавшим поддерживать раздачу! Помогайте другим, ведь вам тоже может понадобиться помощь!Не забываем говорить "Спасибо"!Комментарии приветствуются!
[teatrix.ru].t21805.torrent 
Торрент: Зарегистрирован [ 2016-03-20 12:53 ] · BB53A2A26E14014E28C064AF78339D15DD39CDFB

Скачать .torrent

Скачать

84 KB

Статус: проверено
Скачан: 1 раз
Размер: 15.96 GB
terms.php



Быстрый ответ

Имя:

      
Для отправки сообщений необходимо включить JavaScript
Показать сообщения:    

Текущее время: 09-Дек 08:52

Часовой пояс: UTC + 3


Вы можете начинать темы
Вы можете отвечать на сообщения
Вы не можете редактировать свои сообщения
Вы не можете удалять свои сообщения
Вы не можете голосовать в опросах
Вы не можете прикреплять файлы к сообщениям
Вы можете скачивать файлы