(Classical) Alexander Zemlinsky - Die Seejungfrau; Sinfonietta - Helsinki Philharmonic Orchestra, John Storgards - 2015, FLAC (image+.cue) lossless


 

[Цитировать]

Alexander Zemlinsky - Die Seejungfrau; Sinfonietta - Helsinki Philharmonic Orchestra, John Storgårds
Жанр: Classical
Страна-производитель диска: Finland
Год издания диска: 2015
Издатель (лейбл): Ondine
Номер по каталогу: ODE 1237-5
Дата записи: 2014
Аудиокодек: FLAC
Тип рипа: image+.cue
Битрейт аудио: lossless
Продолжительность: 69:25
Источник: собственный рип
Наличие сканов в содержимом раздачи: да
Треклист:
Alexander Zemlinsky (1871–1942)
[1]-[3] Die Seejungfrau (The Mermaid)
Fantasie in drei Sätzen für großes Orchester nach einem Märchen von Andersen
World premiere recording of the new critical version (2013) by Antony Beaumont (b. 1949)
[4]-[6] Sinfonietta, Op. 23
World premiere recording of version for Chamber Orchestra (2013) by Roland Freisitzer (b. 1973)
Исполнители:
Helsinki Philharmonic Orchestra
John Storgårds

Лог создания рипа

Exact Audio Copy V1.0 beta 3 from 29. August 2011
EAC extraction logfile from 21. July 2015, 22:55
Helsinki Philharmonic Orchestra, John Storgårds / Zemlinsky - Die Seejungfrau; Sinfonietta
Used drive : HL-DT-STDVDRAM GU70N Adapter: 0 ID: 0
Read mode : Secure
Utilize accurate stream : Yes
Defeat audio cache : Yes
Make use of C2 pointers : No
Read offset correction : 48
Overread into Lead-In and Lead-Out : No
Fill up missing offset samples with silence : Yes
Delete leading and trailing silent blocks : No
Null samples used in CRC calculations : Yes
Used interface : Native Win32 interface for Win NT & 2000
Used output format : User Defined Encoder
Selected bitrate : 128 kBit/s
Quality : High
Add ID3 tag : No
Command line compressor : C:\Program Files (x86)\Exact Audio Copy\Flac\flac.exe
Additional command line options : -V -8 -T "Date=%year%" -T "Genre=%genre%" %source%
TOC of the extracted CD
Track | Start | Length | Start sector | End sector
---------------------------------------------------------
1 | 0:00.00 | 15:48.23 | 0 | 71122
2 | 15:48.23 | 17:16.09 | 71123 | 148831
3 | 33:04.32 | 14:41.31 | 148832 | 214937
4 | 47:45.63 | 8:39.55 | 214938 | 253917
5 | 56:25.43 | 6:31.19 | 253918 | 283261
6 | 62:56.62 | 6:25.67 | 283262 | 312203
Range status and errors
Selected range
Filename C:\temp\Zemlinsky - Die Seejungfrau; Sinfonietta - Helsinki PO, Storgards\Zemlinsky - Die Seejungfrau; Sinfonietta.wav
Peak level 94.4 %
Extraction speed 2.2 X
Range quality 100.0 %
Test CRC 7997D5B2
Copy CRC 7997D5B2
Copy OK
No errors occurred
AccurateRip summary
Track 1 not present in database
Track 2 not present in database
Track 3 not present in database
Track 4 not present in database
Track 5 not present in database
Track 6 not present in database
None of the tracks are present in the AccurateRip database
End of status report
==== Log checksum 637345E2DBB251907B248F562026D03DC0C65E64066BD44E555E8A51721A25D2 ====



Показать сообщения:    

Текущее время: 03-Дек 12:33

Часовой пояс: UTC + 3


Вы не можете начинать темы
Вы не можете отвечать на сообщения
Вы не можете редактировать свои сообщения
Вы не можете удалять свои сообщения
Вы не можете голосовать в опросах
Вы не можете прикреплять файлы к сообщениям
Вы не можете скачивать файлы