(Classical) Johann Sebastian Bach · Bl!ndman Plays Bach: Partite diverse sopra BWV 766, BWV 767, BWV 770, BWV 768 (Bl!ndman Saxophone Quartet) · 2000, FLAC (tracks+.cue) lossless


 

[Цитировать]

Johann Sebastian Bach
>> Partite diverse sopra >

BWV 766 > “Christ, der du bist der helle Tag”
BWV 767 > “O Gott, du frommer Gott”
BWV 770 > “Ach, was soll ich Sünder machen”
BWV 768 > “Sei gegrüßet, Jesu gütig”
Жанр: classical
Страна-производитель диска: Germany
Год издания диска: 2000
Издатель: EmArcy
Номер по каталогу: 157675-2
Дата записи: ?
Аудиокодек: FLAC
Тип рипа: tracks+.cue
Битрейт аудио: lossless
Продолжительность: 01:03:46
Источник: скачано с what.cd
Сканов в содержимом раздачи нет
Исполнители: Bl!ndman Saxophone Quartet

Треклист

BWV 766 > “Christ, der du bist der helle Tag”
[alto saxophone]
01. Cantus Firmus (1:10)
02. Partita I – Choral (1:00)
03. Partita II (2:23)
04. Partita III (1:07)
05. Partita IV (1:03)
06. Partita V (1:22)
07. Partita VI (0:52)
08. Partita VII (1:45)
BWV 767 > “O Gott, du frommer Gott”
[tenor saxophone]
09. Cantus Firmus (1:13)
10. Partita I – Choral (1:12)
11. Partita II (2:07)
12. Partita III (1:12)
13. Partita IV (0:46)
14. Partita V (1:30)
15. Partita VI (1:05)
16. Partita VII (1:19)
17. Partita VIII (1:30)
18. Partita IX (2:58)
BWV 770 > “Ach, was soll ich Sünder machen”
[baritone saxophone]
19. Cantus Firmus (1:05)
20. Partita I – Choral (1:06)
21. Partita II (1:11)
22. Partita III (1:17)
23. Partita IV (0:58)
24. Partita V (0:43)
25. Partita VI (0:47)
26. Partita VII (0:47)
27. Partita VIII (0:51)
28. Partita IX (3:50)
29. Partita X (4:07)
BWV 768 > “Sei gegrüßet, Jesu gütig”
[soprano saxophone]
30. Cantus Firmus (1:14)
31. Choral (1:23)
32. Partita I (2:29)
33. Partita II (0:58)
34. Partita III (0:48)
35. Partita IV (0:59)
36. Partita V (1:01)
37. Partita VI (1:02)
38. Partita VII (2:02)
39. Partita VIII (1:21)
40. Partita IX (1:24)
41. Partita X (5:17)
42. Partita XI (1:29)

Лог создания рипа

X Lossless Decoder version 20141129 (148.1)
XLD extraction logfile from 2015-05-20 16:37:09 +0300
Bl!ndman Saxophone Quartet / Bl!ndman Plays Bach
Used drive : HL-DT-ST DVDRW GX40N (revision RQ00)
Media type : Pressed CD
Ripper mode : XLD Secure Ripper
Disable audio cache : OK for the drive with a cache less than 1375KiB
Make use of C2 pointers : NO
Read offset correction : 6
Max retry count : 20
Gap status : Analyzed, Appended (except HTOA)
TOC of the extracted CD
Track | Start | Length | Start sector | End sector
---------------------------------------------------------
1 | 00:00:00 | 01:10:18 | 0 | 5267
2 | 01:10:18 | 01:00:10 | 5268 | 9777
3 | 02:10:28 | 02:22:61 | 9778 | 20488
4 | 04:33:14 | 01:06:62 | 20489 | 25500
5 | 05:40:01 | 01:03:01 | 25501 | 30226
6 | 06:43:02 | 01:22:31 | 30227 | 36407
7 | 08:05:33 | 00:52:34 | 36408 | 40341
8 | 08:57:67 | 01:45:13 | 40342 | 48229
9 | 10:43:05 | 01:12:53 | 48230 | 53682
10 | 11:55:58 | 01:12:20 | 53683 | 59102
11 | 13:08:03 | 02:07:33 | 59103 | 68660
12 | 15:15:36 | 01:12:31 | 68661 | 74091
13 | 16:27:67 | 00:46:34 | 74092 | 77575
14 | 17:14:26 | 01:29:46 | 77576 | 84296
15 | 18:43:72 | 01:04:65 | 84297 | 89161
16 | 19:48:62 | 01:19:14 | 89162 | 95100
17 | 21:08:01 | 01:29:43 | 95101 | 101818
18 | 22:37:44 | 02:58:36 | 101819 | 115204
19 | 25:36:05 | 01:04:48 | 115205 | 120052
20 | 26:40:53 | 01:06:07 | 120053 | 125009
21 | 27:46:60 | 01:11:16 | 125010 | 130350
22 | 28:58:01 | 01:17:11 | 130351 | 136136
23 | 30:15:12 | 00:58:32 | 136137 | 140518
24 | 31:13:44 | 00:42:41 | 140519 | 143709
25 | 31:56:10 | 00:47:33 | 143710 | 147267
26 | 32:43:43 | 00:47:21 | 147268 | 150813
27 | 33:30:64 | 00:50:61 | 150814 | 154624
28 | 34:21:50 | 03:50:37 | 154625 | 171911
29 | 38:12:12 | 04:07:08 | 171912 | 190444
30 | 42:19:20 | 01:14:02 | 190445 | 195996
31 | 43:33:22 | 01:23:10 | 195997 | 202231
32 | 44:56:32 | 02:29:21 | 202232 | 213427
33 | 47:25:53 | 00:57:73 | 213428 | 217775
34 | 48:23:51 | 00:47:45 | 217776 | 221345
35 | 49:11:21 | 00:58:49 | 221346 | 225744
36 | 50:09:70 | 01:01:09 | 225745 | 230328
37 | 51:11:04 | 01:01:54 | 230329 | 234957
38 | 52:12:58 | 02:02:17 | 234958 | 244124
39 | 54:15:00 | 01:20:43 | 244125 | 250167
40 | 55:35:43 | 01:23:62 | 250168 | 256454
41 | 56:59:30 | 05:16:43 | 256455 | 280197
42 | 62:15:73 | 01:29:37 | 280198 | 286909
List of alternate offset correction values
# | Absolute | Relative | Confidence
------------------------------------------
1 | -679 | -685 | 2
AccurateRip Summary (DiscID: 00570eed-0a1611f3-5b0ef12a)
Track 01 : OK (v1+v2, confidence 7/9)
Track 02 : OK (v1+v2, confidence 7/9)
Track 03 : OK (v1+v2, confidence 7/9)
Track 04 : OK (v1+v2, confidence 7/9)
Track 05 : OK (v1+v2, confidence 7/9)
Track 06 : OK (v1+v2, confidence 7/9)
Track 07 : OK (v1+v2, confidence 7/9)
Track 08 : OK (v1+v2, confidence 7/9)
Track 09 : OK (v1+v2, confidence 7/9)
Track 10 : OK (v1+v2, confidence 7/9)
Track 11 : OK (v1+v2, confidence 7/9)
Track 12 : OK (v1+v2, confidence 7/9)
Track 13 : OK (v1+v2, confidence 7/9)
Track 14 : OK (v1+v2, confidence 7/9)
Track 15 : OK (v1+v2, confidence 7/9)
Track 16 : OK (v1+v2, confidence 7/9)
Track 17 : OK (v1+v2, confidence 7/9)
Track 18 : OK (v1+v2, confidence 7/9)
Track 19 : OK (v1+v2, confidence 7/9)
Track 20 : OK (v1+v2, confidence 7/9)
Track 21 : OK (v1+v2, confidence 7/9)
Track 22 : OK (v1+v2, confidence 7/9)
Track 23 : OK (v1+v2, confidence 7/9)
Track 24 : OK (v1+v2, confidence 7/9)
Track 25 : OK (v1+v2, confidence 7/9)
Track 26 : OK (v1+v2, confidence 7/9)
Track 27 : OK (v1+v2, confidence 7/9)
Track 28 : OK (v1+v2, confidence 7/9)
Track 29 : OK (v1+v2, confidence 7/9)
Track 30 : OK (v1+v2, confidence 7/9)
Track 31 : OK (v1+v2, confidence 7/9)
Track 32 : OK (v1+v2, confidence 7/9)
Track 33 : OK (v1+v2, confidence 7/9)
Track 34 : OK (v1+v2, confidence 7/9)
Track 35 : OK (v1+v2, confidence 7/9)
Track 36 : OK (v1+v2, confidence 7/9)
Track 37 : OK (v1+v2, confidence 7/9)
Track 38 : OK (v1+v2, confidence 7/9)
Track 39 : OK (v1+v2, confidence 7/9)
Track 40 : OK (v1+v2, confidence 7/9)
Track 41 : OK (v1+v2, confidence 7/9)
Track 42 : OK (v1+v2, confidence 7/9)
->All tracks accurately ripped.
All Tracks
Album gain : -3.17 dB
Peak : 0.934052
Statistics
Read error : 0
Jitter error (maybe fixed) : 0
Retry sector count : 0
Damaged sector count : 0
Track 01
Filename : /Users/kamadan/Desktop/temp/XLD/Bl!ndman Saxophone Quartet - 2000 - Bl!ndman Plays Bach [V0]/01 BWV 766, 'Christ, der du bist der helle Tag' - Cantus Firmus.mp3
/Users/kamadan/Desktop/temp/XLD/Bl!ndman Saxophone Quartet - 2000 - Bl!ndman Plays Bach [V2]/01 BWV 766, 'Christ, der du bist der helle Tag' - Cantus Firmus.mp3
/Users/kamadan/Desktop/temp/XLD/Bl!ndman Saxophone Quartet - 2000 - Bl!ndman Plays Bach [320]/01 BWV 766, 'Christ, der du bist der helle Tag' - Cantus Firmus.mp3
/Users/kamadan/Desktop/temp/XLD/Bl!ndman Saxophone Quartet - 2000 - Bl!ndman Plays Bach [FLAC]/01 BWV 766, 'Christ, der du bist der helle Tag' - Cantus Firmus.flac
Pre-gap length : 00:02:00
Track gain : 1.83 dB
Peak : 0.372040
CRC32 hash (test run) : 175C7A18
CRC32 hash : 175C7A18
CRC32 hash (skip zero) : 2D96A0C6
AccurateRip v1 signature : 6A3E502C
AccurateRip v2 signature : A8C36738
->Accurately ripped (v1+v2, confidence 2+5/9)
Statistics
Read error : 0
Jitter error (maybe fixed) : 0
Retry sector count : 0
Damaged sector count : 0
Track 02
Filename : /Users/kamadan/Desktop/temp/XLD/Bl!ndman Saxophone Quartet - 2000 - Bl!ndman Plays Bach [V0]/02 BWV 766, 'Christ, der du bist der helle Tag' - Partita I - Choral.mp3
/Users/kamadan/Desktop/temp/XLD/Bl!ndman Saxophone Quartet - 2000 - Bl!ndman Plays Bach [V2]/02 BWV 766, 'Christ, der du bist der helle Tag' - Partita I - Choral.mp3
/Users/kamadan/Desktop/temp/XLD/Bl!ndman Saxophone Quartet - 2000 - Bl!ndman Plays Bach [320]/02 BWV 766, 'Christ, der du bist der helle Tag' - Partita I - Choral.mp3
/Users/kamadan/Desktop/temp/XLD/Bl!ndman Saxophone Quartet - 2000 - Bl!ndman Plays Bach [FLAC]/02 BWV 766, 'Christ, der du bist der helle Tag' - Partita I - Choral.flac
Track gain : -2.98 dB
Peak : 0.659698
CRC32 hash (test run) : DCB35BB9
CRC32 hash : DCB35BB9
CRC32 hash (skip zero) : 5F02C228
AccurateRip v1 signature : EACF61EF
AccurateRip v2 signature : 9BDA19F6
->Accurately ripped (v1+v2, confidence 2+5/9)
Statistics
Read error : 0
Jitter error (maybe fixed) : 0
Retry sector count : 0
Damaged sector count : 0
Track 03
Filename : /Users/kamadan/Desktop/temp/XLD/Bl!ndman Saxophone Quartet - 2000 - Bl!ndman Plays Bach [V0]/03 BWV 766, 'Christ, der du bist der helle Tag' - Partita II.mp3
/Users/kamadan/Desktop/temp/XLD/Bl!ndman Saxophone Quartet - 2000 - Bl!ndman Plays Bach [V2]/03 BWV 766, 'Christ, der du bist der helle Tag' - Partita II.mp3
/Users/kamadan/Desktop/temp/XLD/Bl!ndman Saxophone Quartet - 2000 - Bl!ndman Plays Bach [320]/03 BWV 766, 'Christ, der du bist der helle Tag' - Partita II.mp3
/Users/kamadan/Desktop/temp/XLD/Bl!ndman Saxophone Quartet - 2000 - Bl!ndman Plays Bach [FLAC]/03 BWV 766, 'Christ, der du bist der helle Tag' - Partita II.flac
Track gain : -2.46 dB
Peak : 0.673615
CRC32 hash (test run) : 9A0AA1E8
CRC32 hash : 9A0AA1E8
CRC32 hash (skip zero) : C1B895AC
AccurateRip v1 signature : 2FFC7175
AccurateRip v2 signature : A891D851
->Accurately ripped (v1+v2, confidence 2+5/9)
Statistics
Read error : 0
Jitter error (maybe fixed) : 0
Retry sector count : 0
Damaged sector count : 0
Track 04
Filename : /Users/kamadan/Desktop/temp/XLD/Bl!ndman Saxophone Quartet - 2000 - Bl!ndman Plays Bach [V0]/04 BWV 766, 'Christ, der du bist der helle Tag' - Partita III.mp3
/Users/kamadan/Desktop/temp/XLD/Bl!ndman Saxophone Quartet - 2000 - Bl!ndman Plays Bach [V2]/04 BWV 766, 'Christ, der du bist der helle Tag' - Partita III.mp3
/Users/kamadan/Desktop/temp/XLD/Bl!ndman Saxophone Quartet - 2000 - Bl!ndman Plays Bach [320]/04 BWV 766, 'Christ, der du bist der helle Tag' - Partita III.mp3
/Users/kamadan/Desktop/temp/XLD/Bl!ndman Saxophone Quartet - 2000 - Bl!ndman Plays Bach [FLAC]/04 BWV 766, 'Christ, der du bist der helle Tag' - Partita III.flac
Track gain : -2.84 dB
Peak : 0.717865
CRC32 hash (test run) : 5C20B910
CRC32 hash : 5C20B910
CRC32 hash (skip zero) : C107D72D
AccurateRip v1 signature : B8D5EBA8
AccurateRip v2 signature : 42E71980
->Accurately ripped (v1+v2, confidence 2+5/9)
Statistics
Read error : 0
Jitter error (maybe fixed) : 0
Retry sector count : 0
Damaged sector count : 0
Track 05
Filename : /Users/kamadan/Desktop/temp/XLD/Bl!ndman Saxophone Quartet - 2000 - Bl!ndman Plays Bach [V0]/05 BWV 766, 'Christ, der du bist der helle Tag' - Partita IV.mp3
/Users/kamadan/Desktop/temp/XLD/Bl!ndman Saxophone Quartet - 2000 - Bl!ndman Plays Bach [V2]/05 BWV 766, 'Christ, der du bist der helle Tag' - Partita IV.mp3
/Users/kamadan/Desktop/temp/XLD/Bl!ndman Saxophone Quartet - 2000 - Bl!ndman Plays Bach [320]/05 BWV 766, 'Christ, der du bist der helle Tag' - Partita IV.mp3
/Users/kamadan/Desktop/temp/XLD/Bl!ndman Saxophone Quartet - 2000 - Bl!ndman Plays Bach [FLAC]/05 BWV 766, 'Christ, der du bist der helle Tag' - Partita IV.flac
Track gain : -1.13 dB
Peak : 0.555725
CRC32 hash (test run) : AF520D49
CRC32 hash : AF520D49
CRC32 hash (skip zero) : 53B0A348
AccurateRip v1 signature : D9495B80
AccurateRip v2 signature : 0741EFB6
->Accurately ripped (v1+v2, confidence 2+5/9)
Statistics
Read error : 0
Jitter error (maybe fixed) : 0
Retry sector count : 0
Damaged sector count : 0
Track 06
Filename : /Users/kamadan/Desktop/temp/XLD/Bl!ndman Saxophone Quartet - 2000 - Bl!ndman Plays Bach [V0]/06 BWV 766, 'Christ, der du bist der helle Tag' - Partita V.mp3
/Users/kamadan/Desktop/temp/XLD/Bl!ndman Saxophone Quartet - 2000 - Bl!ndman Plays Bach [V2]/06 BWV 766, 'Christ, der du bist der helle Tag' - Partita V.mp3
/Users/kamadan/Desktop/temp/XLD/Bl!ndman Saxophone Quartet - 2000 - Bl!ndman Plays Bach [320]/06 BWV 766, 'Christ, der du bist der helle Tag' - Partita V.mp3
/Users/kamadan/Desktop/temp/XLD/Bl!ndman Saxophone Quartet - 2000 - Bl!ndman Plays Bach [FLAC]/06 BWV 766, 'Christ, der du bist der helle Tag' - Partita V.flac
Track gain : -2.42 dB
Peak : 0.678436
CRC32 hash (test run) : 069C239B
CRC32 hash : 069C239B
CRC32 hash (skip zero) : 2EE0CF14
AccurateRip v1 signature : 11768E08
AccurateRip v2 signature : 1D8C8FC3
->Accurately ripped (v1+v2, confidence 2+5/9)
Statistics
Read error : 0
Jitter error (maybe fixed) : 0
Retry sector count : 0
Damaged sector count : 0
Track 07
Filename : /Users/kamadan/Desktop/temp/XLD/Bl!ndman Saxophone Quartet - 2000 - Bl!ndman Plays Bach [V0]/07 BWV 766, 'Christ, der du bist der helle Tag' - Partita VI.mp3
/Users/kamadan/Desktop/temp/XLD/Bl!ndman Saxophone Quartet - 2000 - Bl!ndman Plays Bach [V2]/07 BWV 766, 'Christ, der du bist der helle Tag' - Partita VI.mp3
/Users/kamadan/Desktop/temp/XLD/Bl!ndman Saxophone Quartet - 2000 - Bl!ndman Plays Bach [320]/07 BWV 766, 'Christ, der du bist der helle Tag' - Partita VI.mp3
/Users/kamadan/Desktop/temp/XLD/Bl!ndman Saxophone Quartet - 2000 - Bl!ndman Plays Bach [FLAC]/07 BWV 766, 'Christ, der du bist der helle Tag' - Partita VI.flac
Track gain : -2.44 dB
Peak : 0.648010
CRC32 hash (test run) : FF9A449D
CRC32 hash : FF9A449D
CRC32 hash (skip zero) : 09A8E8B4
AccurateRip v1 signature : 609A5920
AccurateRip v2 signature : CBC11BC0
->Accurately ripped (v1+v2, confidence 2+5/9)
Statistics
Read error : 0
Jitter error (maybe fixed) : 0
Retry sector count : 0
Damaged sector count : 0
Track 08
Filename : /Users/kamadan/Desktop/temp/XLD/Bl!ndman Saxophone Quartet - 2000 - Bl!ndman Plays Bach [V0]/08 BWV 766, 'Christ, der du bist der helle Tag' - Partita VII.mp3
/Users/kamadan/Desktop/temp/XLD/Bl!ndman Saxophone Quartet - 2000 - Bl!ndman Plays Bach [V2]/08 BWV 766, 'Christ, der du bist der helle Tag' - Partita VII.mp3
/Users/kamadan/Desktop/temp/XLD/Bl!ndman Saxophone Quartet - 2000 - Bl!ndman Plays Bach [320]/08 BWV 766, 'Christ, der du bist der helle Tag' - Partita VII.mp3
/Users/kamadan/Desktop/temp/XLD/Bl!ndman Saxophone Quartet - 2000 - Bl!ndman Plays Bach [FLAC]/08 BWV 766, 'Christ, der du bist der helle Tag' - Partita VII.flac
Track gain : -5.34 dB
Peak : 0.866730
CRC32 hash (test run) : CFAA10B5
CRC32 hash : CFAA10B5
CRC32 hash (skip zero) : 836390C5
AccurateRip v1 signature : FB02EE38
AccurateRip v2 signature : 502D7722
->Accurately ripped (v1+v2, confidence 2+5/9)
Statistics
Read error : 0
Jitter error (maybe fixed) : 0
Retry sector count : 0
Damaged sector count : 0
Track 09
Filename : /Users/kamadan/Desktop/temp/XLD/Bl!ndman Saxophone Quartet - 2000 - Bl!ndman Plays Bach [V0]/09 BWV 767, 'O Gott, du frommer Gott' - Cantus Firmus.mp3
/Users/kamadan/Desktop/temp/XLD/Bl!ndman Saxophone Quartet - 2000 - Bl!ndman Plays Bach [V2]/09 BWV 767, 'O Gott, du frommer Gott' - Cantus Firmus.mp3
/Users/kamadan/Desktop/temp/XLD/Bl!ndman Saxophone Quartet - 2000 - Bl!ndman Plays Bach [320]/09 BWV 767, 'O Gott, du frommer Gott' - Cantus Firmus.mp3
/Users/kamadan/Desktop/temp/XLD/Bl!ndman Saxophone Quartet - 2000 - Bl!ndman Plays Bach [FLAC]/09 BWV 767, 'O Gott, du frommer Gott' - Cantus Firmus.flac
Track gain : -0.20 dB
Peak : 0.404449
CRC32 hash (test run) : 68C42787
CRC32 hash : 68C42787
CRC32 hash (skip zero) : 75D161B4
AccurateRip v1 signature : C296CC25
AccurateRip v2 signature : E73738AB
->Accurately ripped (v1+v2, confidence 2+5/9)
Statistics
Read error : 0
Jitter error (maybe fixed) : 0
Retry sector count : 0
Damaged sector count : 0
Track 10
Filename : /Users/kamadan/Desktop/temp/XLD/Bl!ndman Saxophone Quartet - 2000 - Bl!ndman Plays Bach [V0]/10 BWV 767, 'O Gott, du frommer Gott' - Partita I - Choral.mp3
/Users/kamadan/Desktop/temp/XLD/Bl!ndman Saxophone Quartet - 2000 - Bl!ndman Plays Bach [V2]/10 BWV 767, 'O Gott, du frommer Gott' - Partita I - Choral.mp3
/Users/kamadan/Desktop/temp/XLD/Bl!ndman Saxophone Quartet - 2000 - Bl!ndman Plays Bach [320]/10 BWV 767, 'O Gott, du frommer Gott' - Partita I - Choral.mp3
/Users/kamadan/Desktop/temp/XLD/Bl!ndman Saxophone Quartet - 2000 - Bl!ndman Plays Bach [FLAC]/10 BWV 767, 'O Gott, du frommer Gott' - Partita I - Choral.flac
Track gain : -2.38 dB
Peak : 0.773834
CRC32 hash (test run) : E7667DE7
CRC32 hash : E7667DE7
CRC32 hash (skip zero) : 1DB68986
AccurateRip v1 signature : 7C1679EE
AccurateRip v2 signature : D4829561
->Accurately ripped (v1+v2, confidence 2+5/9)
Statistics
Read error : 0
Jitter error (maybe fixed) : 0
Retry sector count : 0
Damaged sector count : 0
Track 11
Filename : /Users/kamadan/Desktop/temp/XLD/Bl!ndman Saxophone Quartet - 2000 - Bl!ndman Plays Bach [V0]/11 BWV 767, 'O Gott, du frommer Gott' - Partita II.mp3
/Users/kamadan/Desktop/temp/XLD/Bl!ndman Saxophone Quartet - 2000 - Bl!ndman Plays Bach [V2]/11 BWV 767, 'O Gott, du frommer Gott' - Partita II.mp3
/Users/kamadan/Desktop/temp/XLD/Bl!ndman Saxophone Quartet - 2000 - Bl!ndman Plays Bach [320]/11 BWV 767, 'O Gott, du frommer Gott' - Partita II.mp3
/Users/kamadan/Desktop/temp/XLD/Bl!ndman Saxophone Quartet - 2000 - Bl!ndman Plays Bach [FLAC]/11 BWV 767, 'O Gott, du frommer Gott' - Partita II.flac
Track gain : -1.19 dB
Peak : 0.664307
CRC32 hash (test run) : 548AA557
CRC32 hash : 548AA557
CRC32 hash (skip zero) : E59E478F
AccurateRip v1 signature : 743B8514
AccurateRip v2 signature : 1C4510DF
->Accurately ripped (v1+v2, confidence 2+5/9)
Statistics
Read error : 0
Jitter error (maybe fixed) : 0
Retry sector count : 0
Damaged sector count : 0
Track 12
Filename : /Users/kamadan/Desktop/temp/XLD/Bl!ndman Saxophone Quartet - 2000 - Bl!ndman Plays Bach [V0]/12 BWV 767, 'O Gott, du frommer Gott' - Partita III.mp3
/Users/kamadan/Desktop/temp/XLD/Bl!ndman Saxophone Quartet - 2000 - Bl!ndman Plays Bach [V2]/12 BWV 767, 'O Gott, du frommer Gott' - Partita III.mp3
/Users/kamadan/Desktop/temp/XLD/Bl!ndman Saxophone Quartet - 2000 - Bl!ndman Plays Bach [320]/12 BWV 767, 'O Gott, du frommer Gott' - Partita III.mp3
/Users/kamadan/Desktop/temp/XLD/Bl!ndman Saxophone Quartet - 2000 - Bl!ndman Plays Bach [FLAC]/12 BWV 767, 'O Gott, du frommer Gott' - Partita III.flac
Track gain : -3.00 dB
Peak : 0.736816
CRC32 hash (test run) : 32336071
CRC32 hash : 32336071
CRC32 hash (skip zero) : 9897C3D9
AccurateRip v1 signature : A1F4B4BE
AccurateRip v2 signature : 7C7551EE
->Accurately ripped (v1+v2, confidence 2+5/9)
Statistics
Read error : 0
Jitter error (maybe fixed) : 0
Retry sector count : 0
Damaged sector count : 0
Track 13
Filename : /Users/kamadan/Desktop/temp/XLD/Bl!ndman Saxophone Quartet - 2000 - Bl!ndman Plays Bach [V0]/13 BWV 767, 'O Gott, du frommer Gott' - Partita IV.mp3
/Users/kamadan/Desktop/temp/XLD/Bl!ndman Saxophone Quartet - 2000 - Bl!ndman Plays Bach [V2]/13 BWV 767, 'O Gott, du frommer Gott' - Partita IV.mp3
/Users/kamadan/Desktop/temp/XLD/Bl!ndman Saxophone Quartet - 2000 - Bl!ndman Plays Bach [320]/13 BWV 767, 'O Gott, du frommer Gott' - Partita IV.mp3
/Users/kamadan/Desktop/temp/XLD/Bl!ndman Saxophone Quartet - 2000 - Bl!ndman Plays Bach [FLAC]/13 BWV 767, 'O Gott, du frommer Gott' - Partita IV.flac
Track gain : -1.67 dB
Peak : 0.689911
CRC32 hash (test run) : A711D7BC
CRC32 hash : A711D7BC
CRC32 hash (skip zero) : 7A8D31C3
AccurateRip v1 signature : 85237D23
AccurateRip v2 signature : 31E45104
->Accurately ripped (v1+v2, confidence 2+5/9)
Statistics
Read error : 0
Jitter error (maybe fixed) : 0
Retry sector count : 0
Damaged sector count : 0
Track 14
Filename : /Users/kamadan/Desktop/temp/XLD/Bl!ndman Saxophone Quartet - 2000 - Bl!ndman Plays Bach [V0]/14 BWV 767, 'O Gott, du frommer Gott' - Partita V.mp3
/Users/kamadan/Desktop/temp/XLD/Bl!ndman Saxophone Quartet - 2000 - Bl!ndman Plays Bach [V2]/14 BWV 767, 'O Gott, du frommer Gott' - Partita V.mp3
/Users/kamadan/Desktop/temp/XLD/Bl!ndman Saxophone Quartet - 2000 - Bl!ndman Plays Bach [320]/14 BWV 767, 'O Gott, du frommer Gott' - Partita V.mp3
/Users/kamadan/Desktop/temp/XLD/Bl!ndman Saxophone Quartet - 2000 - Bl!ndman Plays Bach [FLAC]/14 BWV 767, 'O Gott, du frommer Gott' - Partita V.flac
Track gain : -3.56 dB
Peak : 0.756592
CRC32 hash (test run) : 6A434E13
CRC32 hash : 6A434E13
CRC32 hash (skip zero) : 9DF4D74F
AccurateRip v1 signature : 88363A2E
AccurateRip v2 signature : BC9BEDA0
->Accurately ripped (v1+v2, confidence 2+5/9)
Statistics
Read error : 0
Jitter error (maybe fixed) : 0
Retry sector count : 0
Damaged sector count : 0
Track 15
Filename : /Users/kamadan/Desktop/temp/XLD/Bl!ndman Saxophone Quartet - 2000 - Bl!ndman Plays Bach [V0]/15 BWV 767, 'O Gott, du frommer Gott' - Partita VI.mp3
/Users/kamadan/Desktop/temp/XLD/Bl!ndman Saxophone Quartet - 2000 - Bl!ndman Plays Bach [V2]/15 BWV 767, 'O Gott, du frommer Gott' - Partita VI.mp3
/Users/kamadan/Desktop/temp/XLD/Bl!ndman Saxophone Quartet - 2000 - Bl!ndman Plays Bach [320]/15 BWV 767, 'O Gott, du frommer Gott' - Partita VI.mp3
/Users/kamadan/Desktop/temp/XLD/Bl!ndman Saxophone Quartet - 2000 - Bl!ndman Plays Bach [FLAC]/15 BWV 767, 'O Gott, du frommer Gott' - Partita VI.flac
Track gain : -2.86 dB
Peak : 0.745331
CRC32 hash (test run) : 95C89B9A
CRC32 hash : 95C89B9A
CRC32 hash (skip zero) : 565DD520
AccurateRip v1 signature : B6B77145
AccurateRip v2 signature : DD7810B9
->Accurately ripped (v1+v2, confidence 2+5/9)
Statistics
Read error : 0
Jitter error (maybe fixed) : 0
Retry sector count : 0
Damaged sector count : 0
Track 16
Filename : /Users/kamadan/Desktop/temp/XLD/Bl!ndman Saxophone Quartet - 2000 - Bl!ndman Plays Bach [V0]/16 BWV 767, 'O Gott, du frommer Gott' - Partita VII.mp3
/Users/kamadan/Desktop/temp/XLD/Bl!ndman Saxophone Quartet - 2000 - Bl!ndman Plays Bach [V2]/16 BWV 767, 'O Gott, du frommer Gott' - Partita VII.mp3
/Users/kamadan/Desktop/temp/XLD/Bl!ndman Saxophone Quartet - 2000 - Bl!ndman Plays Bach [320]/16 BWV 767, 'O Gott, du frommer Gott' - Partita VII.mp3
/Users/kamadan/Desktop/temp/XLD/Bl!ndman Saxophone Quartet - 2000 - Bl!ndman Plays Bach [FLAC]/16 BWV 767, 'O Gott, du frommer Gott' - Partita VII.flac
Track gain : -2.00 dB
Peak : 0.626160
CRC32 hash (test run) : 7FEDD44A
CRC32 hash : 7FEDD44A
CRC32 hash (skip zero) : 985FD1F3
AccurateRip v1 signature : 10DF3E93
AccurateRip v2 signature : ECB847D6
->Accurately ripped (v1+v2, confidence 2+5/9)
Statistics
Read error : 0
Jitter error (maybe fixed) : 0
Retry sector count : 0
Damaged sector count : 0
Track 17
Filename : /Users/kamadan/Desktop/temp/XLD/Bl!ndman Saxophone Quartet - 2000 - Bl!ndman Plays Bach [V0]/17 BWV 767, 'O Gott, du frommer Gott' - Partita VIII.mp3
/Users/kamadan/Desktop/temp/XLD/Bl!ndman Saxophone Quartet - 2000 - Bl!ndman Plays Bach [V2]/17 BWV 767, 'O Gott, du frommer Gott' - Partita VIII.mp3
/Users/kamadan/Desktop/temp/XLD/Bl!ndman Saxophone Quartet - 2000 - Bl!ndman Plays Bach [320]/17 BWV 767, 'O Gott, du frommer Gott' - Partita VIII.mp3
/Users/kamadan/Desktop/temp/XLD/Bl!ndman Saxophone Quartet - 2000 - Bl!ndman Plays Bach [FLAC]/17 BWV 767, 'O Gott, du frommer Gott' - Partita VIII.flac
Track gain : -2.36 dB
Peak : 0.682831
CRC32 hash (test run) : 69C7A83C
CRC32 hash : 69C7A83C
CRC32 hash (skip zero) : 08933A35
AccurateRip v1 signature : C517D98F
AccurateRip v2 signature : 89FCCB82
->Accurately ripped (v1+v2, confidence 2+5/9)
Statistics
Read error : 0
Jitter error (maybe fixed) : 0
Retry sector count : 0
Damaged sector count : 0
Track 18
Filename : /Users/kamadan/Desktop/temp/XLD/Bl!ndman Saxophone Quartet - 2000 - Bl!ndman Plays Bach [V0]/18 BWV 767, 'O Gott, du frommer Gott' - Partita IX.mp3
/Users/kamadan/Desktop/temp/XLD/Bl!ndman Saxophone Quartet - 2000 - Bl!ndman Plays Bach [V2]/18 BWV 767, 'O Gott, du frommer Gott' - Partita IX.mp3
/Users/kamadan/Desktop/temp/XLD/Bl!ndman Saxophone Quartet - 2000 - Bl!ndman Plays Bach [320]/18 BWV 767, 'O Gott, du frommer Gott' - Partita IX.mp3
/Users/kamadan/Desktop/temp/XLD/Bl!ndman Saxophone Quartet - 2000 - Bl!ndman Plays Bach [FLAC]/18 BWV 767, 'O Gott, du frommer Gott' - Partita IX.flac
Track gain : -5.05 dB
Peak : 0.897797
CRC32 hash (test run) : F52AC08B
CRC32 hash : F52AC08B
CRC32 hash (skip zero) : 3AEA1B8D
AccurateRip v1 signature : A5D504AE
AccurateRip v2 signature : CAF388D4
->Accurately ripped (v1+v2, confidence 2+5/9)
Statistics
Read error : 0
Jitter error (maybe fixed) : 0
Retry sector count : 0
Damaged sector count : 0
Track 19
Filename : /Users/kamadan/Desktop/temp/XLD/Bl!ndman Saxophone Quartet - 2000 - Bl!ndman Plays Bach [V0]/19 BWV 770, 'Ach, was soll ich Sünder machen' - Cantus Firmus.mp3
/Users/kamadan/Desktop/temp/XLD/Bl!ndman Saxophone Quartet - 2000 - Bl!ndman Plays Bach [V2]/19 BWV 770, 'Ach, was soll ich Sünder machen' - Cantus Firmus.mp3
/Users/kamadan/Desktop/temp/XLD/Bl!ndman Saxophone Quartet - 2000 - Bl!ndman Plays Bach [320]/19 BWV 770, 'Ach, was soll ich Sünder machen' - Cantus Firmus.mp3
/Users/kamadan/Desktop/temp/XLD/Bl!ndman Saxophone Quartet - 2000 - Bl!ndman Plays Bach [FLAC]/19 BWV 770, 'Ach, was soll ich Sünder machen' - Cantus Firmus.flac
Track gain : 2.47 dB
Peak : 0.393677
CRC32 hash (test run) : FE9E9B6E
CRC32 hash : FE9E9B6E
CRC32 hash (skip zero) : F47BCFA7
AccurateRip v1 signature : 0BE56228
AccurateRip v2 signature : D0E61B58
->Accurately ripped (v1+v2, confidence 2+5/9)
Statistics
Read error : 0
Jitter error (maybe fixed) : 0
Retry sector count : 0
Damaged sector count : 0
Track 20
Filename : /Users/kamadan/Desktop/temp/XLD/Bl!ndman Saxophone Quartet - 2000 - Bl!ndman Plays Bach [V0]/20 BWV 770, 'Ach, was soll ich Sünder machen' - Partita I - Choral.mp3
/Users/kamadan/Desktop/temp/XLD/Bl!ndman Saxophone Quartet - 2000 - Bl!ndman Plays Bach [V2]/20 BWV 770, 'Ach, was soll ich Sünder machen' - Partita I - Choral.mp3
/Users/kamadan/Desktop/temp/XLD/Bl!ndman Saxophone Quartet - 2000 - Bl!ndman Plays Bach [320]/20 BWV 770, 'Ach, was soll ich Sünder machen' - Partita I - Choral.mp3
/Users/kamadan/Desktop/temp/XLD/Bl!ndman Saxophone Quartet - 2000 - Bl!ndman Plays Bach [FLAC]/20 BWV 770, 'Ach, was soll ich Sünder machen' - Partita I - Choral.flac
Track gain : -4.67 dB
Peak : 0.810974
CRC32 hash (test run) : 6B75C74A
CRC32 hash : 6B75C74A
CRC32 hash (skip zero) : 9D4B1611
AccurateRip v1 signature : 63F6F710
AccurateRip v2 signature : 1237B8A6
->Accurately ripped (v1+v2, confidence 2+5/9)
Statistics
Read error : 0
Jitter error (maybe fixed) : 0
Retry sector count : 0
Damaged sector count : 0
Track 21
Filename : /Users/kamadan/Desktop/temp/XLD/Bl!ndman Saxophone Quartet - 2000 - Bl!ndman Plays Bach [V0]/21 BWV 770, 'Ach, was soll ich Sünder machen' - Partita II.mp3
/Users/kamadan/Desktop/temp/XLD/Bl!ndman Saxophone Quartet - 2000 - Bl!ndman Plays Bach [V2]/21 BWV 770, 'Ach, was soll ich Sünder machen' - Partita II.mp3
/Users/kamadan/Desktop/temp/XLD/Bl!ndman Saxophone Quartet - 2000 - Bl!ndman Plays Bach [320]/21 BWV 770, 'Ach, was soll ich Sünder machen' - Partita II.mp3
/Users/kamadan/Desktop/temp/XLD/Bl!ndman Saxophone Quartet - 2000 - Bl!ndman Plays Bach [FLAC]/21 BWV 770, 'Ach, was soll ich Sünder machen' - Partita II.flac
Track gain : 3.13 dB
Peak : 0.382965
CRC32 hash (test run) : 77C4F06B
CRC32 hash : 77C4F06B
CRC32 hash (skip zero) : 763041EC
AccurateRip v1 signature : 9AA5CF05
AccurateRip v2 signature : 3D9EEACF
->Accurately ripped (v1+v2, confidence 2+5/9)
Statistics
Read error : 0
Jitter error (maybe fixed) : 0
Retry sector count : 0
Damaged sector count : 0
Track 22
Filename : /Users/kamadan/Desktop/temp/XLD/Bl!ndman Saxophone Quartet - 2000 - Bl!ndman Plays Bach [V0]/22 BWV 770, 'Ach, was soll ich Sünder machen' - Partita III.mp3
/Users/kamadan/Desktop/temp/XLD/Bl!ndman Saxophone Quartet - 2000 - Bl!ndman Plays Bach [V2]/22 BWV 770, 'Ach, was soll ich Sünder machen' - Partita III.mp3
/Users/kamadan/Desktop/temp/XLD/Bl!ndman Saxophone Quartet - 2000 - Bl!ndman Plays Bach [320]/22 BWV 770, 'Ach, was soll ich Sünder machen' - Partita III.mp3
/Users/kamadan/Desktop/temp/XLD/Bl!ndman Saxophone Quartet - 2000 - Bl!ndman Plays Bach [FLAC]/22 BWV 770, 'Ach, was soll ich Sünder machen' - Partita III.flac
Track gain : -1.08 dB
Peak : 0.554443
CRC32 hash (test run) : 41C3C805
CRC32 hash : 41C3C805
CRC32 hash (skip zero) : 2DA1E384
AccurateRip v1 signature : A8E0A9C4
AccurateRip v2 signature : 7B378EF4
->Accurately ripped (v1+v2, confidence 2+5/9)
Statistics
Read error : 0
Jitter error (maybe fixed) : 0
Retry sector count : 0
Damaged sector count : 0
Track 23
Filename : /Users/kamadan/Desktop/temp/XLD/Bl!ndman Saxophone Quartet - 2000 - Bl!ndman Plays Bach [V0]/23 BWV 770, 'Ach, was soll ich Sünder machen' - Partita IV.mp3
/Users/kamadan/Desktop/temp/XLD/Bl!ndman Saxophone Quartet - 2000 - Bl!ndman Plays Bach [V2]/23 BWV 770, 'Ach, was soll ich Sünder machen' - Partita IV.mp3
/Users/kamadan/Desktop/temp/XLD/Bl!ndman Saxophone Quartet - 2000 - Bl!ndman Plays Bach [320]/23 BWV 770, 'Ach, was soll ich Sünder machen' - Partita IV.mp3
/Users/kamadan/Desktop/temp/XLD/Bl!ndman Saxophone Quartet - 2000 - Bl!ndman Plays Bach [FLAC]/23 BWV 770, 'Ach, was soll ich Sünder machen' - Partita IV.flac
Track gain : -1.43 dB
Peak : 0.623535
CRC32 hash (test run) : D324E429
CRC32 hash : D324E429
CRC32 hash (skip zero) : D31E402A
AccurateRip v1 signature : 4BECCF65
AccurateRip v2 signature : 8010A4F2
->Accurately ripped (v1+v2, confidence 2+5/9)
Statistics
Read error : 0
Jitter error (maybe fixed) : 0
Retry sector count : 0
Damaged sector count : 0
Track 24
Filename : /Users/kamadan/Desktop/temp/XLD/Bl!ndman Saxophone Quartet - 2000 - Bl!ndman Plays Bach [V0]/24 BWV 770, 'Ach, was soll ich Sünder machen' - Partita V.mp3
/Users/kamadan/Desktop/temp/XLD/Bl!ndman Saxophone Quartet - 2000 - Bl!ndman Plays Bach [V2]/24 BWV 770, 'Ach, was soll ich Sünder machen' - Partita V.mp3
/Users/kamadan/Desktop/temp/XLD/Bl!ndman Saxophone Quartet - 2000 - Bl!ndman Plays Bach [320]/24 BWV 770, 'Ach, was soll ich Sünder machen' - Partita V.mp3
/Users/kamadan/Desktop/temp/XLD/Bl!ndman Saxophone Quartet - 2000 - Bl!ndman Plays Bach [FLAC]/24 BWV 770, 'Ach, was soll ich Sünder machen' - Partita V.flac
Track gain : -1.70 dB
Peak : 0.597961
CRC32 hash (test run) : FF88B980
CRC32 hash : FF88B980
CRC32 hash (skip zero) : 45FC995B
AccurateRip v1 signature : 11D9B67E
AccurateRip v2 signature : 1BBB14C3
->Accurately ripped (v1+v2, confidence 2+5/9)
Statistics
Read error : 0
Jitter error (maybe fixed) : 0
Retry sector count : 0
Damaged sector count : 0
Track 25
Filename : /Users/kamadan/Desktop/temp/XLD/Bl!ndman Saxophone Quartet - 2000 - Bl!ndman Plays Bach [V0]/25 BWV 770, 'Ach, was soll ich Sünder machen' - Partita VI.mp3
/Users/kamadan/Desktop/temp/XLD/Bl!ndman Saxophone Quartet - 2000 - Bl!ndman Plays Bach [V2]/25 BWV 770, 'Ach, was soll ich Sünder machen' - Partita VI.mp3
/Users/kamadan/Desktop/temp/XLD/Bl!ndman Saxophone Quartet - 2000 - Bl!ndman Plays Bach [320]/25 BWV 770, 'Ach, was soll ich Sünder machen' - Partita VI.mp3
/Users/kamadan/Desktop/temp/XLD/Bl!ndman Saxophone Quartet - 2000 - Bl!ndman Plays Bach [FLAC]/25 BWV 770, 'Ach, was soll ich Sünder machen' - Partita VI.flac
Track gain : -0.86 dB
Peak : 0.583160
CRC32 hash (test run) : 6EA97781
CRC32 hash : 6EA97781
CRC32 hash (skip zero) : 8D5EAAAB
AccurateRip v1 signature : 7A7EE452
AccurateRip v2 signature : E20541C5
->Accurately ripped (v1+v2, confidence 2+5/9)
Statistics
Read error : 0
Jitter error (maybe fixed) : 0
Retry sector count : 0
Damaged sector count : 0
Track 26
Filename : /Users/kamadan/Desktop/temp/XLD/Bl!ndman Saxophone Quartet - 2000 - Bl!ndman Plays Bach [V0]/26 BWV 770, 'Ach, was soll ich Sünder machen' - Partita VII.mp3
/Users/kamadan/Desktop/temp/XLD/Bl!ndman Saxophone Quartet - 2000 - Bl!ndman Plays Bach [V2]/26 BWV 770, 'Ach, was soll ich Sünder machen' - Partita VII.mp3
/Users/kamadan/Desktop/temp/XLD/Bl!ndman Saxophone Quartet - 2000 - Bl!ndman Plays Bach [320]/26 BWV 770, 'Ach, was soll ich Sünder machen' - Partita VII.mp3
/Users/kamadan/Desktop/temp/XLD/Bl!ndman Saxophone Quartet - 2000 - Bl!ndman Plays Bach [FLAC]/26 BWV 770, 'Ach, was soll ich Sünder machen' - Partita VII.flac
Track gain : -4.37 dB
Peak : 0.803864
CRC32 hash (test run) : 3622AFB2
CRC32 hash : 3622AFB2
CRC32 hash (skip zero) : 0A530CEA
AccurateRip v1 signature : EDEE44DE
AccurateRip v2 signature : 92D8FBA7
->Accurately ripped (v1+v2, confidence 2+5/9)
Statistics
Read error : 0
Jitter error (maybe fixed) : 0
Retry sector count : 0
Damaged sector count : 0
Track 27
Filename : /Users/kamadan/Desktop/temp/XLD/Bl!ndman Saxophone Quartet - 2000 - Bl!ndman Plays Bach [V0]/27 BWV 770, 'Ach, was soll ich Sünder machen' - Partita VIII.mp3
/Users/kamadan/Desktop/temp/XLD/Bl!ndman Saxophone Quartet - 2000 - Bl!ndman Plays Bach [V2]/27 BWV 770, 'Ach, was soll ich Sünder machen' - Partita VIII.mp3
/Users/kamadan/Desktop/temp/XLD/Bl!ndman Saxophone Quartet - 2000 - Bl!ndman Plays Bach [320]/27 BWV 770, 'Ach, was soll ich Sünder machen' - Partita VIII.mp3
/Users/kamadan/Desktop/temp/XLD/Bl!ndman Saxophone Quartet - 2000 - Bl!ndman Plays Bach [FLAC]/27 BWV 770, 'Ach, was soll ich Sünder machen' - Partita VIII.flac
Track gain : 0.31 dB
Peak : 0.524323
CRC32 hash (test run) : 33807D1E
CRC32 hash : 33807D1E
CRC32 hash (skip zero) : 2C52B206
AccurateRip v1 signature : 5A6A768F
AccurateRip v2 signature : 0C20485E
->Accurately ripped (v1+v2, confidence 2+5/9)
Statistics
Read error : 0
Jitter error (maybe fixed) : 0
Retry sector count : 0
Damaged sector count : 0
Track 28
Filename : /Users/kamadan/Desktop/temp/XLD/Bl!ndman Saxophone Quartet - 2000 - Bl!ndman Plays Bach [V0]/28 BWV 770, 'Ach, was soll ich Sünder machen' - Partita IX.mp3
/Users/kamadan/Desktop/temp/XLD/Bl!ndman Saxophone Quartet - 2000 - Bl!ndman Plays Bach [V2]/28 BWV 770, 'Ach, was soll ich Sünder machen' - Partita IX.mp3
/Users/kamadan/Desktop/temp/XLD/Bl!ndman Saxophone Quartet - 2000 - Bl!ndman Plays Bach [320]/28 BWV 770, 'Ach, was soll ich Sünder machen' - Partita IX.mp3
/Users/kamadan/Desktop/temp/XLD/Bl!ndman Saxophone Quartet - 2000 - Bl!ndman Plays Bach [FLAC]/28 BWV 770, 'Ach, was soll ich Sünder machen' - Partita IX.flac
Track gain : -3.65 dB
Peak : 0.868683
CRC32 hash (test run) : F7522E99
CRC32 hash : F7522E99
CRC32 hash (skip zero) : 7391C99E
AccurateRip v1 signature : D1E76C38
AccurateRip v2 signature : 3433DE3F
->Accurately ripped (v1+v2, confidence 2+5/9)
Statistics
Read error : 0
Jitter error (maybe fixed) : 0
Retry sector count : 0
Damaged sector count : 0
Track 29
Filename : /Users/kamadan/Desktop/temp/XLD/Bl!ndman Saxophone Quartet - 2000 - Bl!ndman Plays Bach [V0]/29 BWV 770, 'Ach, was soll ich Sünder machen' - Partita X.mp3
/Users/kamadan/Desktop/temp/XLD/Bl!ndman Saxophone Quartet - 2000 - Bl!ndman Plays Bach [V2]/29 BWV 770, 'Ach, was soll ich Sünder machen' - Partita X.mp3
/Users/kamadan/Desktop/temp/XLD/Bl!ndman Saxophone Quartet - 2000 - Bl!ndman Plays Bach [320]/29 BWV 770, 'Ach, was soll ich Sünder machen' - Partita X.mp3
/Users/kamadan/Desktop/temp/XLD/Bl!ndman Saxophone Quartet - 2000 - Bl!ndman Plays Bach [FLAC]/29 BWV 770, 'Ach, was soll ich Sünder machen' - Partita X.flac
Track gain : -4.12 dB
Peak : 0.934052
CRC32 hash (test run) : 7958B1E5
CRC32 hash : 7958B1E5
CRC32 hash (skip zero) : A732363A
AccurateRip v1 signature : B6E65047
AccurateRip v2 signature : 889ACB91
->Accurately ripped (v1+v2, confidence 2+5/9)
Statistics
Read error : 0
Jitter error (maybe fixed) : 0
Retry sector count : 0
Damaged sector count : 0
Track 30
Filename : /Users/kamadan/Desktop/temp/XLD/Bl!ndman Saxophone Quartet - 2000 - Bl!ndman Plays Bach [V0]/30 BWV 768, 'Sei gegrüßet, Jesu gütig' - Cantus Firmus.mp3
/Users/kamadan/Desktop/temp/XLD/Bl!ndman Saxophone Quartet - 2000 - Bl!ndman Plays Bach [V2]/30 BWV 768, 'Sei gegrüßet, Jesu gütig' - Cantus Firmus.mp3
/Users/kamadan/Desktop/temp/XLD/Bl!ndman Saxophone Quartet - 2000 - Bl!ndman Plays Bach [320]/30 BWV 768, 'Sei gegrüßet, Jesu gütig' - Cantus Firmus.mp3
/Users/kamadan/Desktop/temp/XLD/Bl!ndman Saxophone Quartet - 2000 - Bl!ndman Plays Bach [FLAC]/30 BWV 768, 'Sei gegrüßet, Jesu gütig' - Cantus Firmus.flac
Track gain : -0.51 dB
Peak : 0.461609
CRC32 hash (test run) : 1B06C62C
CRC32 hash : 1B06C62C
CRC32 hash (skip zero) : F42A93A5
AccurateRip v1 signature : 5E0D74E1
AccurateRip v2 signature : 71BF4289
->Accurately ripped (v1+v2, confidence 2+5/9)
Statistics
Read error : 0
Jitter error (maybe fixed) : 0
Retry sector count : 0
Damaged sector count : 0
Track 31
Filename : /Users/kamadan/Desktop/temp/XLD/Bl!ndman Saxophone Quartet - 2000 - Bl!ndman Plays Bach [V0]/31 BWV 768, 'Sei gegrüßet, Jesu gütig' - Choral.mp3
/Users/kamadan/Desktop/temp/XLD/Bl!ndman Saxophone Quartet - 2000 - Bl!ndman Plays Bach [V2]/31 BWV 768, 'Sei gegrüßet, Jesu gütig' - Choral.mp3
/Users/kamadan/Desktop/temp/XLD/Bl!ndman Saxophone Quartet - 2000 - Bl!ndman Plays Bach [320]/31 BWV 768, 'Sei gegrüßet, Jesu gütig' - Choral.mp3
/Users/kamadan/Desktop/temp/XLD/Bl!ndman Saxophone Quartet - 2000 - Bl!ndman Plays Bach [FLAC]/31 BWV 768, 'Sei gegrüßet, Jesu gütig' - Choral.flac
Track gain : -3.10 dB
Peak : 0.656250
CRC32 hash (test run) : 25D4E403
CRC32 hash : 25D4E403
CRC32 hash (skip zero) : A2D8F22B
AccurateRip v1 signature : BF24F160
AccurateRip v2 signature : 0A6F9315
->Accurately ripped (v1+v2, confidence 2+5/9)
Statistics
Read error : 0
Jitter error (maybe fixed) : 0
Retry sector count : 0
Damaged sector count : 0
Track 32
Filename : /Users/kamadan/Desktop/temp/XLD/Bl!ndman Saxophone Quartet - 2000 - Bl!ndman Plays Bach [V0]/32 BWV 768, 'Sei gegrüßet, Jesu gütig' - Partita I.mp3
/Users/kamadan/Desktop/temp/XLD/Bl!ndman Saxophone Quartet - 2000 - Bl!ndman Plays Bach [V2]/32 BWV 768, 'Sei gegrüßet, Jesu gütig' - Partita I.mp3
/Users/kamadan/Desktop/temp/XLD/Bl!ndman Saxophone Quartet - 2000 - Bl!ndman Plays Bach [320]/32 BWV 768, 'Sei gegrüßet, Jesu gütig' - Partita I.mp3
/Users/kamadan/Desktop/temp/XLD/Bl!ndman Saxophone Quartet - 2000 - Bl!ndman Plays Bach [FLAC]/32 BWV 768, 'Sei gegrüßet, Jesu gütig' - Partita I.flac
Track gain : -0.43 dB
Peak : 0.635986
CRC32 hash (test run) : 30AB06D0
CRC32 hash : 30AB06D0
CRC32 hash (skip zero) : 0B5BDDD7
AccurateRip v1 signature : 02032C9A
AccurateRip v2 signature : F3BB3D34
->Accurately ripped (v1+v2, confidence 2+5/9)
Statistics
Read error : 0
Jitter error (maybe fixed) : 0
Retry sector count : 0
Damaged sector count : 0
Track 33
Filename : /Users/kamadan/Desktop/temp/XLD/Bl!ndman Saxophone Quartet - 2000 - Bl!ndman Plays Bach [V0]/33 BWV 768, 'Sei gegrüßet, Jesu gütig' - Partita II.mp3
/Users/kamadan/Desktop/temp/XLD/Bl!ndman Saxophone Quartet - 2000 - Bl!ndman Plays Bach [V2]/33 BWV 768, 'Sei gegrüßet, Jesu gütig' - Partita II.mp3
/Users/kamadan/Desktop/temp/XLD/Bl!ndman Saxophone Quartet - 2000 - Bl!ndman Plays Bach [320]/33 BWV 768, 'Sei gegrüßet, Jesu gütig' - Partita II.mp3
/Users/kamadan/Desktop/temp/XLD/Bl!ndman Saxophone Quartet - 2000 - Bl!ndman Plays Bach [FLAC]/33 BWV 768, 'Sei gegrüßet, Jesu gütig' - Partita II.flac
Track gain : -3.24 dB
Peak : 0.818756
CRC32 hash (test run) : 7EFE9F7B
CRC32 hash : 7EFE9F7B
CRC32 hash (skip zero) : 9222F5F1
AccurateRip v1 signature : A132EDC9
AccurateRip v2 signature : 6E893992
->Accurately ripped (v1+v2, confidence 2+5/9)
Statistics
Read error : 0
Jitter error (maybe fixed) : 0
Retry sector count : 0
Damaged sector count : 0
Track 34
Filename : /Users/kamadan/Desktop/temp/XLD/Bl!ndman Saxophone Quartet - 2000 - Bl!ndman Plays Bach [V0]/34 BWV 768, 'Sei gegrüßet, Jesu gütig' - Partita III.mp3
/Users/kamadan/Desktop/temp/XLD/Bl!ndman Saxophone Quartet - 2000 - Bl!ndman Plays Bach [V2]/34 BWV 768, 'Sei gegrüßet, Jesu gütig' - Partita III.mp3
/Users/kamadan/Desktop/temp/XLD/Bl!ndman Saxophone Quartet - 2000 - Bl!ndman Plays Bach [320]/34 BWV 768, 'Sei gegrüßet, Jesu gütig' - Partita III.mp3
/Users/kamadan/Desktop/temp/XLD/Bl!ndman Saxophone Quartet - 2000 - Bl!ndman Plays Bach [FLAC]/34 BWV 768, 'Sei gegrüßet, Jesu gütig' - Partita III.flac
Track gain : 0.15 dB
Peak : 0.546021
CRC32 hash (test run) : B03E8235
CRC32 hash : B03E8235
CRC32 hash (skip zero) : A4D514DA
AccurateRip v1 signature : 7DF0EA55
AccurateRip v2 signature : 809F0E05
->Accurately ripped (v1+v2, confidence 2+5/9)
Statistics
Read error : 0
Jitter error (maybe fixed) : 0
Retry sector count : 0
Damaged sector count : 0
Track 35
Filename : /Users/kamadan/Desktop/temp/XLD/Bl!ndman Saxophone Quartet - 2000 - Bl!ndman Plays Bach [V0]/35 BWV 768, 'Sei gegrüßet, Jesu gütig' - Partita IV.mp3
/Users/kamadan/Desktop/temp/XLD/Bl!ndman Saxophone Quartet - 2000 - Bl!ndman Plays Bach [V2]/35 BWV 768, 'Sei gegrüßet, Jesu gütig' - Partita IV.mp3
/Users/kamadan/Desktop/temp/XLD/Bl!ndman Saxophone Quartet - 2000 - Bl!ndman Plays Bach [320]/35 BWV 768, 'Sei gegrüßet, Jesu gütig' - Partita IV.mp3
/Users/kamadan/Desktop/temp/XLD/Bl!ndman Saxophone Quartet - 2000 - Bl!ndman Plays Bach [FLAC]/35 BWV 768, 'Sei gegrüßet, Jesu gütig' - Partita IV.flac
Track gain : -1.92 dB
Peak : 0.590393
CRC32 hash (test run) : D25679B2
CRC32 hash : D25679B2
CRC32 hash (skip zero) : BF31D70D
AccurateRip v1 signature : AB15B085
AccurateRip v2 signature : E60C217B
->Accurately ripped (v1+v2, confidence 2+5/9)
Statistics
Read error : 0
Jitter error (maybe fixed) : 0
Retry sector count : 0
Damaged sector count : 0
Track 36
Filename : /Users/kamadan/Desktop/temp/XLD/Bl!ndman Saxophone Quartet - 2000 - Bl!ndman Plays Bach [V0]/36 BWV 768, 'Sei gegrüßet, Jesu gütig' - Partita V.mp3
/Users/kamadan/Desktop/temp/XLD/Bl!ndman Saxophone Quartet - 2000 - Bl!ndman Plays Bach [V2]/36 BWV 768, 'Sei gegrüßet, Jesu gütig' - Partita V.mp3
/Users/kamadan/Desktop/temp/XLD/Bl!ndman Saxophone Quartet - 2000 - Bl!ndman Plays Bach [320]/36 BWV 768, 'Sei gegrüßet, Jesu gütig' - Partita V.mp3
/Users/kamadan/Desktop/temp/XLD/Bl!ndman Saxophone Quartet - 2000 - Bl!ndman Plays Bach [FLAC]/36 BWV 768, 'Sei gegrüßet, Jesu gütig' - Partita V.flac
Track gain : -3.79 dB
Peak : 0.933258
CRC32 hash (test run) : 620DC3D8
CRC32 hash : 620DC3D8
CRC32 hash (skip zero) : 9E9757F2
AccurateRip v1 signature : 8429B4F0
AccurateRip v2 signature : 9DCA6001
->Accurately ripped (v1+v2, confidence 2+5/9)
Statistics
Read error : 0
Jitter error (maybe fixed) : 0
Retry sector count : 0
Damaged sector count : 0
Track 37
Filename : /Users/kamadan/Desktop/temp/XLD/Bl!ndman Saxophone Quartet - 2000 - Bl!ndman Plays Bach [V0]/37 BWV 768, 'Sei gegrüßet, Jesu gütig' - Partita VI.mp3
/Users/kamadan/Desktop/temp/XLD/Bl!ndman Saxophone Quartet - 2000 - Bl!ndman Plays Bach [V2]/37 BWV 768, 'Sei gegrüßet, Jesu gütig' - Partita VI.mp3
/Users/kamadan/Desktop/temp/XLD/Bl!ndman Saxophone Quartet - 2000 - Bl!ndman Plays Bach [320]/37 BWV 768, 'Sei gegrüßet, Jesu gütig' - Partita VI.mp3
/Users/kamadan/Desktop/temp/XLD/Bl!ndman Saxophone Quartet - 2000 - Bl!ndman Plays Bach [FLAC]/37 BWV 768, 'Sei gegrüßet, Jesu gütig' - Partita VI.flac
Track gain : -4.81 dB
Peak : 0.844299
CRC32 hash (test run) : 6790D51C
CRC32 hash : 6790D51C
CRC32 hash (skip zero) : B91E2A35
AccurateRip v1 signature : D4FE6B91
AccurateRip v2 signature : 02C6E040
->Accurately ripped (v1+v2, confidence 2+5/9)
Statistics
Read error : 0
Jitter error (maybe fixed) : 0
Retry sector count : 0
Damaged sector count : 0
Track 38
Filename : /Users/kamadan/Desktop/temp/XLD/Bl!ndman Saxophone Quartet - 2000 - Bl!ndman Plays Bach [V0]/38 BWV 768, 'Sei gegrüßet, Jesu gütig' - Partita VII.mp3
/Users/kamadan/Desktop/temp/XLD/Bl!ndman Saxophone Quartet - 2000 - Bl!ndman Plays Bach [V2]/38 BWV 768, 'Sei gegrüßet, Jesu gütig' - Partita VII.mp3
/Users/kamadan/Desktop/temp/XLD/Bl!ndman Saxophone Quartet - 2000 - Bl!ndman Plays Bach [320]/38 BWV 768, 'Sei gegrüßet, Jesu gütig' - Partita VII.mp3
/Users/kamadan/Desktop/temp/XLD/Bl!ndman Saxophone Quartet - 2000 - Bl!ndman Plays Bach [FLAC]/38 BWV 768, 'Sei gegrüßet, Jesu gütig' - Partita VII.flac
Track gain : -1.04 dB
Peak : 0.590271
CRC32 hash (test run) : 45A048D7
CRC32 hash : 45A048D7
CRC32 hash (skip zero) : 622006EF
AccurateRip v1 signature : D44095E6
AccurateRip v2 signature : D29EF7F2
->Accurately ripped (v1+v2, confidence 2+5/9)
Statistics
Read error : 0
Jitter error (maybe fixed) : 0
Retry sector count : 0
Damaged sector count : 0
Track 39
Filename : /Users/kamadan/Desktop/temp/XLD/Bl!ndman Saxophone Quartet - 2000 - Bl!ndman Plays Bach [V0]/39 BWV 768, 'Sei gegrüßet, Jesu gütig' - Partita VIII.mp3
/Users/kamadan/Desktop/temp/XLD/Bl!ndman Saxophone Quartet - 2000 - Bl!ndman Plays Bach [V2]/39 BWV 768, 'Sei gegrüßet, Jesu gütig' - Partita VIII.mp3
/Users/kamadan/Desktop/temp/XLD/Bl!ndman Saxophone Quartet - 2000 - Bl!ndman Plays Bach [320]/39 BWV 768, 'Sei gegrüßet, Jesu gütig' - Partita VIII.mp3
/Users/kamadan/Desktop/temp/XLD/Bl!ndman Saxophone Quartet - 2000 - Bl!ndman Plays Bach [FLAC]/39 BWV 768, 'Sei gegrüßet, Jesu gütig' - Partita VIII.flac
Track gain : -4.38 dB
Peak : 0.929077
CRC32 hash (test run) : 1A04969A
CRC32 hash : 1A04969A
CRC32 hash (skip zero) : FA191F38
AccurateRip v1 signature : F595770D
AccurateRip v2 signature : 766E9A20
->Accurately ripped (v1+v2, confidence 2+5/9)
Statistics
Read error : 0
Jitter error (maybe fixed) : 0
Retry sector count : 0
Damaged sector count : 0
Track 40
Filename : /Users/kamadan/Desktop/temp/XLD/Bl!ndman Saxophone Quartet - 2000 - Bl!ndman Plays Bach [V0]/40 BWV 768, 'Sei gegrüßet, Jesu gütig' - Partita IX.mp3
/Users/kamadan/Desktop/temp/XLD/Bl!ndman Saxophone Quartet - 2000 - Bl!ndman Plays Bach [V2]/40 BWV 768, 'Sei gegrüßet, Jesu gütig' - Partita IX.mp3
/Users/kamadan/Desktop/temp/XLD/Bl!ndman Saxophone Quartet - 2000 - Bl!ndman Plays Bach [320]/40 BWV 768, 'Sei gegrüßet, Jesu gütig' - Partita IX.mp3
/Users/kamadan/Desktop/temp/XLD/Bl!ndman Saxophone Quartet - 2000 - Bl!ndman Plays Bach [FLAC]/40 BWV 768, 'Sei gegrüßet, Jesu gütig' - Partita IX.flac
Track gain : -1.20 dB
Peak : 0.595337
CRC32 hash (test run) : A5751A4C
CRC32 hash : A5751A4C
CRC32 hash (skip zero) : B9937DB1
AccurateRip v1 signature : B806EB84
AccurateRip v2 signature : 1A1F91C0
->Accurately ripped (v1+v2, confidence 2+5/9)
Statistics
Read error : 0
Jitter error (maybe fixed) : 0
Retry sector count : 0
Damaged sector count : 0
Track 41
Filename : /Users/kamadan/Desktop/temp/XLD/Bl!ndman Saxophone Quartet - 2000 - Bl!ndman Plays Bach [V0]/41 BWV 768, 'Sei gegrüßet, Jesu gütig' - Partita X.mp3
/Users/kamadan/Desktop/temp/XLD/Bl!ndman Saxophone Quartet - 2000 - Bl!ndman Plays Bach [V2]/41 BWV 768, 'Sei gegrüßet, Jesu gütig' - Partita X.mp3
/Users/kamadan/Desktop/temp/XLD/Bl!ndman Saxophone Quartet - 2000 - Bl!ndman Plays Bach [320]/41 BWV 768, 'Sei gegrüßet, Jesu gütig' - Partita X.mp3
/Users/kamadan/Desktop/temp/XLD/Bl!ndman Saxophone Quartet - 2000 - Bl!ndman Plays Bach [FLAC]/41 BWV 768, 'Sei gegrüßet, Jesu gütig' - Partita X.flac
Track gain : -0.48 dB
Peak : 0.554291
CRC32 hash (test run) : 912D66B9
CRC32 hash : 912D66B9
CRC32 hash (skip zero) : D8339265
AccurateRip v1 signature : C6F94A3F
AccurateRip v2 signature : 2347BB25
->Accurately ripped (v1+v2, confidence 2+5/9)
Statistics
Read error : 0
Jitter error (maybe fixed) : 0
Retry sector count : 0
Damaged sector count : 0
Track 42
Filename : /Users/kamadan/Desktop/temp/XLD/Bl!ndman Saxophone Quartet - 2000 - Bl!ndman Plays Bach [V0]/42 BWV 768, 'Sei gegrüßet, Jesu gütig' - Partita XI.mp3
/Users/kamadan/Desktop/temp/XLD/Bl!ndman Saxophone Quartet - 2000 - Bl!ndman Plays Bach [V2]/42 BWV 768, 'Sei gegrüßet, Jesu gütig' - Partita XI.mp3
/Users/kamadan/Desktop/temp/XLD/Bl!ndman Saxophone Quartet - 2000 - Bl!ndman Plays Bach [320]/42 BWV 768, 'Sei gegrüßet, Jesu gütig' - Partita XI.mp3
/Users/kamadan/Desktop/temp/XLD/Bl!ndman Saxophone Quartet - 2000 - Bl!ndman Plays Bach [FLAC]/42 BWV 768, 'Sei gegrüßet, Jesu gütig' - Partita XI.flac
Track gain : -1.34 dB
Peak : 0.528076
CRC32 hash (test run) : 8FACEDB8
CRC32 hash : 8FACEDB8
CRC32 hash (skip zero) : AC065340
AccurateRip v1 signature : E3D28281
AccurateRip v2 signature : 67C07809
->Accurately ripped (v1+v2, confidence 2+5/9)
Statistics
Read error : 0
Jitter error (maybe fixed) : 0
Retry sector count : 0
Damaged sector count : 0
No errors occurred
End of status report
-----BEGIN XLD SIGNATURE-----
9IqkKCUAGtgYMGPQNbdT_2dD14V8nyZZf_MXLfgcKHUIta8jZohC2JtKFRoqeCyTUBsxY71x5BjCJuYq15h9UyDjmx5AOGYqK46OYQy
-----END XLD SIGNATURE-----

Содержание индексной карты (.CUE)

TITLE "Bl!ndman Plays Bach"
PERFORMER "Bl!ndman Saxophone Quartet"
REM DATE "2000"
REM DISCID 5B0EF12A
REM REPLAYGAIN_ALBUM_GAIN -3.17 dB
REM REPLAYGAIN_ALBUM_PEAK 0.934052
FILE "01. Cantus Firmus.flac" WAVE
TRACK 01 AUDIO
TITLE "Cantus Firmus"
PERFORMER "Bl!ndman Saxophone Quartet"
ISRC BEQ010000024
REM COMMENT "alto saxophone"
REM REPLAYGAIN_TRACK_GAIN 1.83 dB
REM REPLAYGAIN_TRACK_PEAK 0.372040
INDEX 01 00:00:00
FILE "02. Partita I – Choral.flac" WAVE
TRACK 02 AUDIO
TITLE "Partita I – Choral"
PERFORMER "Bl!ndman Saxophone Quartet"
ISRC BEQ010000025
REM COMMENT "alto saxophone"
REM REPLAYGAIN_TRACK_GAIN -2.98 dB
REM REPLAYGAIN_TRACK_PEAK 0.659698
INDEX 01 00:00:00
FILE "03. Partita II.flac" WAVE
TRACK 03 AUDIO
TITLE "Partita II"
PERFORMER "Bl!ndman Saxophone Quartet"
ISRC BEQ010000026
REM COMMENT "alto saxophone"
REM REPLAYGAIN_TRACK_GAIN -2.46 dB
REM REPLAYGAIN_TRACK_PEAK 0.673615
INDEX 01 00:00:00
FILE "04. Partita III.flac" WAVE
TRACK 04 AUDIO
TITLE "Partita III"
PERFORMER "Bl!ndman Saxophone Quartet"
ISRC BEQ010000027
REM COMMENT "alto saxophone"
REM REPLAYGAIN_TRACK_GAIN -2.84 dB
REM REPLAYGAIN_TRACK_PEAK 0.717865
INDEX 01 00:00:00
FILE "05. Partita IV.flac" WAVE
TRACK 05 AUDIO
TITLE "Partita IV"
PERFORMER "Bl!ndman Saxophone Quartet"
ISRC BEQ010000028
REM COMMENT "alto saxophone"
REM REPLAYGAIN_TRACK_GAIN -1.13 dB
REM REPLAYGAIN_TRACK_PEAK 0.555725
INDEX 01 00:00:00
FILE "06. Partita V.flac" WAVE
TRACK 06 AUDIO
TITLE "Partita V"
PERFORMER "Bl!ndman Saxophone Quartet"
ISRC BEQ010000029
REM COMMENT "alto saxophone"
REM REPLAYGAIN_TRACK_GAIN -2.42 dB
REM REPLAYGAIN_TRACK_PEAK 0.678436
INDEX 01 00:00:00
FILE "07. Partita VI.flac" WAVE
TRACK 07 AUDIO
TITLE "Partita VI"
PERFORMER "Bl!ndman Saxophone Quartet"
ISRC BEQ010000030
REM COMMENT "alto saxophone"
REM REPLAYGAIN_TRACK_GAIN -2.44 dB
REM REPLAYGAIN_TRACK_PEAK 0.648010
INDEX 01 00:00:00
FILE "08. Partita VII.flac" WAVE
TRACK 08 AUDIO
TITLE "Partita VII"
PERFORMER "Bl!ndman Saxophone Quartet"
ISRC BEQ010000031
REM COMMENT "alto saxophone"
REM REPLAYGAIN_TRACK_GAIN -5.34 dB
REM REPLAYGAIN_TRACK_PEAK 0.866730
INDEX 01 00:00:00
FILE "09. Cantus Firmus.flac" WAVE
TRACK 09 AUDIO
TITLE "Cantus Firmus"
PERFORMER "Bl!ndman Saxophone Quartet"
ISRC BEQ010000032
REM COMMENT "tenor saxophone"
REM REPLAYGAIN_TRACK_GAIN -0.20 dB
REM REPLAYGAIN_TRACK_PEAK 0.404449
INDEX 01 00:00:00
FILE "10. Partita I – Choral.flac" WAVE
TRACK 10 AUDIO
TITLE "Partita I – Choral"
PERFORMER "Bl!ndman Saxophone Quartet"
ISRC BEQ010000033
REM COMMENT "tenor saxophone"
REM REPLAYGAIN_TRACK_GAIN -2.38 dB
REM REPLAYGAIN_TRACK_PEAK 0.773834
INDEX 01 00:00:00
FILE "11. Partita II.flac" WAVE
TRACK 11 AUDIO
TITLE "Partita II"
PERFORMER "Bl!ndman Saxophone Quartet"
ISRC BEQ010000054
REM COMMENT "tenor saxophone"
REM REPLAYGAIN_TRACK_GAIN -1.19 dB
REM REPLAYGAIN_TRACK_PEAK 0.664307
INDEX 01 00:00:00
FILE "12. Partita III.flac" WAVE
TRACK 12 AUDIO
TITLE "Partita III"
PERFORMER "Bl!ndman Saxophone Quartet"
ISRC BEQ010000034
REM COMMENT "tenor saxophone"
REM REPLAYGAIN_TRACK_GAIN -3.00 dB
REM REPLAYGAIN_TRACK_PEAK 0.736816
INDEX 01 00:00:00
FILE "13. Partita IV.flac" WAVE
TRACK 13 AUDIO
TITLE "Partita IV"
PERFORMER "Bl!ndman Saxophone Quartet"
ISRC BEQ010000035
REM COMMENT "tenor saxophone"
REM REPLAYGAIN_TRACK_GAIN -1.67 dB
REM REPLAYGAIN_TRACK_PEAK 0.689911
INDEX 01 00:00:00
FILE "14. Partita V.flac" WAVE
TRACK 14 AUDIO
TITLE "Partita V"
PERFORMER "Bl!ndman Saxophone Quartet"
ISRC BEQ010000036
REM COMMENT "tenor saxophone"
REM REPLAYGAIN_TRACK_GAIN -3.56 dB
REM REPLAYGAIN_TRACK_PEAK 0.756592
INDEX 01 00:00:00
FILE "15. Partita VI.flac" WAVE
TRACK 15 AUDIO
TITLE "Partita VI"
PERFORMER "Bl!ndman Saxophone Quartet"
ISRC BEQ010000037
REM COMMENT "tenor saxophone"
REM REPLAYGAIN_TRACK_GAIN -2.86 dB
REM REPLAYGAIN_TRACK_PEAK 0.745331
INDEX 01 00:00:00
FILE "16. Partita VII.flac" WAVE
TRACK 16 AUDIO
TITLE "Partita VII"
PERFORMER "Bl!ndman Saxophone Quartet"
ISRC BEQ010000038
REM COMMENT "tenor saxophone"
REM REPLAYGAIN_TRACK_GAIN -2.00 dB
REM REPLAYGAIN_TRACK_PEAK 0.626160
INDEX 01 00:00:00
FILE "17. Partita VIII.flac" WAVE
TRACK 17 AUDIO
TITLE "Partita VIII"
PERFORMER "Bl!ndman Saxophone Quartet"
ISRC BEQ010000039
REM COMMENT "tenor saxophone"
REM REPLAYGAIN_TRACK_GAIN -2.36 dB
REM REPLAYGAIN_TRACK_PEAK 0.682831
INDEX 01 00:00:00
FILE "18. Partita IX.flac" WAVE
TRACK 18 AUDIO
TITLE "Partita IX"
PERFORMER "Bl!ndman Saxophone Quartet"
ISRC BEQ010000040
REM COMMENT "tenor saxophone"
REM REPLAYGAIN_TRACK_GAIN -5.05 dB
REM REPLAYGAIN_TRACK_PEAK 0.897797
INDEX 01 00:00:00
FILE "19. Cantus Firmus.flac" WAVE
TRACK 19 AUDIO
TITLE "Cantus Firmus"
PERFORMER "Bl!ndman Saxophone Quartet"
ISRC BEQ010000013
REM COMMENT "baritone saxophone"
REM REPLAYGAIN_TRACK_GAIN 2.47 dB
REM REPLAYGAIN_TRACK_PEAK 0.393677
INDEX 01 00:00:00
FILE "20. Partita I – Choral.flac" WAVE
TRACK 20 AUDIO
TITLE "Partita I – Choral"
PERFORMER "Bl!ndman Saxophone Quartet"
ISRC BEQ010000014
REM COMMENT "baritone saxophone"
REM REPLAYGAIN_TRACK_GAIN -4.67 dB
REM REPLAYGAIN_TRACK_PEAK 0.810974
INDEX 01 00:00:00
FILE "21. Partita II.flac" WAVE
TRACK 21 AUDIO
TITLE "Partita II"
PERFORMER "Bl!ndman Saxophone Quartet"
ISRC BEQ010000015
REM COMMENT "baritone saxophone"
REM REPLAYGAIN_TRACK_GAIN 3.13 dB
REM REPLAYGAIN_TRACK_PEAK 0.382965
INDEX 01 00:00:00
FILE "22. Partita III.flac" WAVE
TRACK 22 AUDIO
TITLE "Partita III"
PERFORMER "Bl!ndman Saxophone Quartet"
ISRC BEQ010000016
REM COMMENT "baritone saxophone"
REM REPLAYGAIN_TRACK_GAIN -1.08 dB
REM REPLAYGAIN_TRACK_PEAK 0.554443
INDEX 01 00:00:00
FILE "23. Partita IV.flac" WAVE
TRACK 23 AUDIO
TITLE "Partita IV"
PERFORMER "Bl!ndman Saxophone Quartet"
ISRC BEQ010000017
REM COMMENT "baritone saxophone"
REM REPLAYGAIN_TRACK_GAIN -1.43 dB
REM REPLAYGAIN_TRACK_PEAK 0.623535
INDEX 01 00:00:00
FILE "24. Partita V.flac" WAVE
TRACK 24 AUDIO
TITLE "Partita V"
PERFORMER "Bl!ndman Saxophone Quartet"
ISRC BEQ010000018
REM COMMENT "baritone saxophone"
REM REPLAYGAIN_TRACK_GAIN -1.70 dB
REM REPLAYGAIN_TRACK_PEAK 0.597961
INDEX 01 00:00:00
FILE "25. Partita VI.flac" WAVE
TRACK 25 AUDIO
TITLE "Partita VI"
PERFORMER "Bl!ndman Saxophone Quartet"
ISRC BEQ010000019
REM COMMENT "baritone saxophone"
REM REPLAYGAIN_TRACK_GAIN -0.86 dB
REM REPLAYGAIN_TRACK_PEAK 0.583160
INDEX 01 00:00:00
FILE "26. Partita VII.flac" WAVE
TRACK 26 AUDIO
TITLE "Partita VII"
PERFORMER "Bl!ndman Saxophone Quartet"
ISRC BEQ010000020
REM COMMENT "baritone saxophone"
REM REPLAYGAIN_TRACK_GAIN -4.37 dB
REM REPLAYGAIN_TRACK_PEAK 0.803864
INDEX 01 00:00:00
FILE "27. Partita VIII.flac" WAVE
TRACK 27 AUDIO
TITLE "Partita VIII"
PERFORMER "Bl!ndman Saxophone Quartet"
ISRC BEQ010000021
REM COMMENT "baritone saxophone"
REM REPLAYGAIN_TRACK_GAIN 0.31 dB
REM REPLAYGAIN_TRACK_PEAK 0.524323
INDEX 01 00:00:00
FILE "28. Partita IX.flac" WAVE
TRACK 28 AUDIO
TITLE "Partita IX"
PERFORMER "Bl!ndman Saxophone Quartet"
ISRC BEQ010000022
REM COMMENT "baritone saxophone"
REM REPLAYGAIN_TRACK_GAIN -3.65 dB
REM REPLAYGAIN_TRACK_PEAK 0.868683
INDEX 01 00:00:00
FILE "29. Partita X.flac" WAVE
TRACK 29 AUDIO
TITLE "Partita X"
PERFORMER "Bl!ndman Saxophone Quartet"
ISRC BEQ010000023
REM COMMENT "baritone saxophone"
REM REPLAYGAIN_TRACK_GAIN -4.12 dB
REM REPLAYGAIN_TRACK_PEAK 0.934052
INDEX 01 00:00:00
FILE "30. Cantus Firmus.flac" WAVE
TRACK 30 AUDIO
TITLE "Cantus Firmus"
PERFORMER "Bl!ndman Saxophone Quartet"
ISRC BEQ010000041
REM COMMENT "soprano saxophone"
REM REPLAYGAIN_TRACK_GAIN -0.51 dB
REM REPLAYGAIN_TRACK_PEAK 0.461609
INDEX 01 00:00:00
FILE "31. Choral.flac" WAVE
TRACK 31 AUDIO
TITLE "Choral"
PERFORMER "Bl!ndman Saxophone Quartet"
ISRC BEQ010000042
REM COMMENT "soprano saxophone"
REM REPLAYGAIN_TRACK_GAIN -3.10 dB
REM REPLAYGAIN_TRACK_PEAK 0.656250
INDEX 01 00:00:00
FILE "32. Partita I.flac" WAVE
TRACK 32 AUDIO
TITLE "Partita I"
PERFORMER "Bl!ndman Saxophone Quartet"
ISRC BEQ010000055
REM COMMENT "soprano saxophone"
REM REPLAYGAIN_TRACK_GAIN -0.43 dB
REM REPLAYGAIN_TRACK_PEAK 0.635986
INDEX 01 00:00:00
FILE "33. Partita II.flac" WAVE
TRACK 33 AUDIO
TITLE "Partita II"
PERFORMER "Bl!ndman Saxophone Quartet"
ISRC BEQ010000043
REM COMMENT "soprano saxophone"
REM REPLAYGAIN_TRACK_GAIN -3.24 dB
REM REPLAYGAIN_TRACK_PEAK 0.818756
INDEX 01 00:00:00
FILE "34. Partita III.flac" WAVE
TRACK 34 AUDIO
TITLE "Partita III"
PERFORMER "Bl!ndman Saxophone Quartet"
ISRC BEQ010000044
REM COMMENT "soprano saxophone"
REM REPLAYGAIN_TRACK_GAIN 0.15 dB
REM REPLAYGAIN_TRACK_PEAK 0.546021
INDEX 01 00:00:00
FILE "35. Partita IV.flac" WAVE
TRACK 35 AUDIO
TITLE "Partita IV"
PERFORMER "Bl!ndman Saxophone Quartet"
ISRC BEQ010000045
REM COMMENT "soprano saxophone"
REM REPLAYGAIN_TRACK_GAIN -1.92 dB
REM REPLAYGAIN_TRACK_PEAK 0.590393
INDEX 01 00:00:00
FILE "36. Partita V.flac" WAVE
TRACK 36 AUDIO
TITLE "Partita V"
PERFORMER "Bl!ndman Saxophone Quartet"
ISRC BEQ010000046
REM COMMENT "soprano saxophone"
REM REPLAYGAIN_TRACK_GAIN -3.79 dB
REM REPLAYGAIN_TRACK_PEAK 0.933258
INDEX 01 00:00:00
FILE "37. Partita VI.flac" WAVE
TRACK 37 AUDIO
TITLE "Partita VI"
PERFORMER "Bl!ndman Saxophone Quartet"
ISRC BEQ010000047
REM COMMENT "soprano saxophone"
REM REPLAYGAIN_TRACK_GAIN -4.81 dB
REM REPLAYGAIN_TRACK_PEAK 0.844299
INDEX 01 00:00:00
FILE "38. Partita VII.flac" WAVE
TRACK 38 AUDIO
TITLE "Partita VII"
PERFORMER "Bl!ndman Saxophone Quartet"
ISRC BEQ010000048
REM COMMENT "soprano saxophone"
REM REPLAYGAIN_TRACK_GAIN -1.04 dB
REM REPLAYGAIN_TRACK_PEAK 0.590271
INDEX 01 00:00:00
FILE "39. Partita VIII.flac" WAVE
TRACK 39 AUDIO
TITLE "Partita VIII"
PERFORMER "Bl!ndman Saxophone Quartet"
ISRC BEQ010000049
REM COMMENT "soprano saxophone"
REM REPLAYGAIN_TRACK_GAIN -4.38 dB
REM REPLAYGAIN_TRACK_PEAK 0.929077
INDEX 01 00:00:00
FILE "40. Partita IX.flac" WAVE
TRACK 40 AUDIO
TITLE "Partita IX"
PERFORMER "Bl!ndman Saxophone Quartet"
ISRC BEQ010000050
REM COMMENT "soprano saxophone"
REM REPLAYGAIN_TRACK_GAIN -1.20 dB
REM REPLAYGAIN_TRACK_PEAK 0.595337
INDEX 01 00:00:00
FILE "41. Partita X.flac" WAVE
TRACK 41 AUDIO
TITLE "Partita X"
PERFORMER "Bl!ndman Saxophone Quartet"
ISRC BEQ010000051
REM COMMENT "soprano saxophone"
REM REPLAYGAIN_TRACK_GAIN -0.48 dB
REM REPLAYGAIN_TRACK_PEAK 0.554291
INDEX 01 00:00:00
FILE "42. Partita XI.flac" WAVE
TRACK 42 AUDIO
TITLE "Partita XI"
PERFORMER "Bl!ndman Saxophone Quartet"
ISRC BEQ010000052
REM COMMENT "soprano saxophone"
REM REPLAYGAIN_TRACK_GAIN -1.34 dB
REM REPLAYGAIN_TRACK_PEAK 0.528076
INDEX 01 00:00:00



Показать сообщения:    

Текущее время: 07-Дек 19:25

Часовой пояс: UTC + 3


Вы не можете начинать темы
Вы не можете отвечать на сообщения
Вы не можете редактировать свои сообщения
Вы не можете удалять свои сообщения
Вы не можете голосовать в опросах
Вы не можете прикреплять файлы к сообщениям
Вы не можете скачивать файлы