(Opera) Zandonai - I Cavalieri di Ekebu (Berling, Cossotto, Fiordaliso, Luperi, Ferrari – Orchestra Sinfonica e Coro di Milano della Radiotelevisione Italiana, Gavazzeni) - 1994, APE (image+.cue) lossless


 

[Цитировать]

Riccardo Zandonai - I Cavalieri di Ekebu
Жанр: Opera
Страна-производитель диска: Italy
Год издания диска: 1994
Издатель (лейбл): Fonit Cetra
Номер по каталогу: CDC 93
Дата записи: 1983
Аудиокодек: APE
Тип рипа: image+.cue
Битрейт аудио: lossless
Продолжительность: 68'04+47'13
Источник: скачано с
Наличие сканов в содержимом раздачи: да
Треклист:

CD1

1. Oè! Dell' acquavite! Ostessa!
2. Giosta!
3. Iddio d'azzurro veste
4. Mille diavoli! Marmotta!
5. Bro: la chiesetta triste
6. No. Sei un fanciulo
7. Vecchia terra di Ekebù
8. Oè! Oè! La neve sfiocca in cieblo!
9. Rüster: solenne bevitor di ponce
10. Non piangere...non piangere...
11. Notte serena! Notte d'argento!
12. Inferno! Inferno!

CD2

1. Bevo al Natale!
2. Natale! Natale! Natale!
3. Lasciatemi, lasciatemi andar via!
4. Compari, riveerenza!
5. Briachi, sconci! Sudicia canaglia!
6. Andrò. Ma non per te
7. Cavalieri della morte!
8. Giusto Signore, se ho peccato, colpiscimi!
9. Anna! Pregavi?
10. Ragazzi! Mille diavoli! Marmotte!
11. Alla fucina!
Исполнители:
Riccardo Zandonai - I Cavalieri di Ekebu
Lando Bartolini – Giosta Berling
Fiorenza Cossotto – La Comandante
Gina Longobardo Fiordaliso – Anna
Mario Luperi – Sintram
Roberto Ferrari – Cristiano Acciaioli
Aldo Reggioli – Samzelius
Dino Di Domenico – Liecrona
Licia Cacciatori – Un' ostessa
Alessandra Ruffini – Una fanciulla
Orchestra Sinfonica e Coro di Milano della Radiotelevisione Italiana
conducted by Gianandrea Gavazzeni

Лог создания рипа

CD1

Exact Audio Copy V1.0 beta 6 from 9. April 2015
EAC extraction logfile from 26. June 2015, 18:28
Zandonai / I cavalieri di Ekebù CD1
Used drive : TSSTcorpCDDVDW SE-208AB Adapter: 1 ID: 2
Read mode : Secure
Utilize accurate stream : Yes
Defeat audio cache : Yes
Make use of C2 pointers : No
Read offset correction : 6
Overread into Lead-In and Lead-Out : No
Fill up missing offset samples with silence : Yes
Delete leading and trailing silent blocks : No
Null samples used in CRC calculations : Yes
Used interface : Native Win32 interface for Win NT & 2000
Used output format : Monkey's Audio Lossless Encoder
Selected bitrate : High Lossless Compression
Quality : High
Add ID3 tag : Yes
Command line compressor : C:\Program Files (x86)\Exact Audio Copy\MAC\MAC.exe
TOC of the extracted CD
Track | Start | Length | Start sector | End sector
---------------------------------------------------------
1 | 0:00.00 | 4:49.00 | 0 | 21674
2 | 4:49.00 | 4:43.42 | 21675 | 42941
3 | 9:32.42 | 6:26.28 | 42942 | 71919
4 | 15:58.70 | 4:43.12 | 71920 | 93156
5 | 20:42.07 | 5:24.03 | 93157 | 117459
6 | 26:06.10 | 6:27.07 | 117460 | 146491
7 | 32:33.17 | 4:00.33 | 146492 | 164524
8 | 36:33.50 | 6:40.55 | 164525 | 194579
9 | 43:14.30 | 3:05.52 | 194580 | 208506
10 | 46:20.07 | 6:56.23 | 208507 | 239729
11 | 53:16.30 | 9:06.02 | 239730 | 280681
12 | 62:22.32 | 5:43.18 | 280682 | 306424
Range status and errors
Selected range
Filename D:\EAC\Zandonai - I cavalieri di Ekebù CD1.wav
Peak level 100.0 %
Extraction speed 5.1 X
Range quality 100.0 %
Test CRC 257DFFBB
Copy CRC 257DFFBB
Copy OK
No errors occurred
AccurateRip summary
Track 1 not present in database
Track 2 not present in database
Track 3 not present in database
Track 4 not present in database
Track 5 not present in database
Track 6 not present in database
Track 7 not present in database
Track 8 not present in database
Track 9 not present in database
Track 10 not present in database
Track 11 not present in database
Track 12 not present in database
None of the tracks are present in the AccurateRip database
End of status report
---- CUETools DB Plugin V2.1.6
[CTDB TOCID: .iBWP6eCli6lh_VgT.lJaJUMdkE-] disk not present in database
Submit result: .iBWP6eCli6lh_VgT.lJaJUMdkE- has been uploaded
==== Log checksum 5EDB60F6E7D347C5693B4B8D47784763724639B5857E4E3FCAABE0045D2845AA ====

CD2

Exact Audio Copy V1.0 beta 6 from 9. April 2015
EAC extraction logfile from 26. June 2015, 18:53
Zandonai / I cavalieri di Ekebù CD2
Used drive : TSSTcorpCDDVDW SE-208AB Adapter: 1 ID: 2
Read mode : Secure
Utilize accurate stream : Yes
Defeat audio cache : Yes
Make use of C2 pointers : No
Read offset correction : 6
Overread into Lead-In and Lead-Out : No
Fill up missing offset samples with silence : Yes
Delete leading and trailing silent blocks : No
Null samples used in CRC calculations : Yes
Used interface : Native Win32 interface for Win NT & 2000
Used output format : Monkey's Audio Lossless Encoder
Selected bitrate : High Lossless Compression
Quality : High
Add ID3 tag : Yes
Command line compressor : C:\Program Files (x86)\Exact Audio Copy\MAC\MAC.exe
TOC of the extracted CD
Track | Start | Length | Start sector | End sector
---------------------------------------------------------
1 | 0:00.00 | 2:19.57 | 0 | 10481
2 | 2:19.57 | 3:59.48 | 10482 | 28454
3 | 6:19.30 | 3:16.50 | 28455 | 43204
4 | 9:36.05 | 3:30.25 | 43205 | 58979
5 | 13:06.30 | 2:35.55 | 58980 | 70659
6 | 15:42.10 | 4:53.27 | 70660 | 92661
7 | 20:35.37 | 4:27.65 | 92662 | 112751
8 | 25:03.27 | 5:38.10 | 112752 | 138111
9 | 30:41.37 | 6:45.03 | 138112 | 168489
10 | 37:26.40 | 5:28.67 | 168490 | 193156
11 | 42:55.32 | 4:19.43 | 193157 | 212624
Range status and errors
Selected range
Filename D:\EAC\Zandonai - I cavalieri di Ekebù CD2.wav
Peak level 97.7 %
Extraction speed 4.7 X
Range quality 100.0 %
Test CRC F5A5F725
Copy CRC F5A5F725
Copy OK
No errors occurred
AccurateRip summary
Track 1 not present in database
Track 2 not present in database
Track 3 not present in database
Track 4 not present in database
Track 5 not present in database
Track 6 not present in database
Track 7 not present in database
Track 8 not present in database
Track 9 not present in database
Track 10 not present in database
Track 11 not present in database
None of the tracks are present in the AccurateRip database
End of status report
---- CUETools DB Plugin V2.1.6
[CTDB TOCID: ic1OVLHw2D3ZtrQ8XO.SsqjlKDw-] disk not present in database
Submit result: ic1OVLHw2D3ZtrQ8XO.SsqjlKDw- has been uploaded
==== Log checksum 2E342D6495B5B1B7F58C349E8787446F0CFDA5178428D509831CB8F3B33FEA70 ====

Содержание индексной карты (.CUE)

CD1

REM GENRE Opera
REM DATE 1983
REM DISCID C10FF50C
REM COMMENT "ExactAudioCopy v1.0b6"
PERFORMER "Zandonai"
TITLE "I cavalieri di Ekebù CD1"
FILE "Zandonai - I cavalieri di Ekebù CD1.ape" WAVE
TRACK 01 AUDIO
TITLE "Oè! Dell' acquavite! Ostessa!"
PERFORMER "Orchestra Sinfonica e Coro di Milano della Radiotelevisione Italiana, Gavazzeni"
INDEX 01 00:00:00
TRACK 02 AUDIO
TITLE "Giosta!"
PERFORMER "Orchestra Sinfonica e Coro di Milano della Radiotelevisione Italiana, Gavazzeni"
INDEX 01 04:49:00
TRACK 03 AUDIO
TITLE "Iddio d'azzurro veste"
PERFORMER "ZandonaiOrchestra Sinfonica e Coro di Milano della Radiotelevisione Italiana,..."
INDEX 01 09:32:42
TRACK 04 AUDIO
TITLE "Mille diavoli! Marmotta!"
PERFORMER "Orchestra Sinfonica e Coro di Milano della Radiotelevisione Italiana, Gavazzeni"
INDEX 01 15:58:70
TRACK 05 AUDIO
TITLE "Bro: la chiesetta triste"
PERFORMER "Orchestra Sinfonica e Coro di Milano della Radiotelevisione Italiana, Gavazzeni"
INDEX 01 20:42:07
TRACK 06 AUDIO
TITLE "No. Sei un fanciulo"
PERFORMER "Orchestra Sinfonica e Coro di Milano della Radiotelevisione Italiana, Gavazzeni"
INDEX 01 26:06:10
TRACK 07 AUDIO
TITLE "Vecchia terra di Ekebù"
PERFORMER "Orchestra Sinfonica e Coro di Milano della Radiotelevisione Italiana, Gavazzeni"
INDEX 01 32:33:17
TRACK 08 AUDIO
TITLE "Oè! Oè! La neve sfiocca in cieblo!"
PERFORMER "Orchestra Sinfonica e Coro di Milano della Radiotelevisione Italiana, Gavazzeni"
INDEX 01 36:33:50
TRACK 09 AUDIO
TITLE "Rüster: solenne bevitor di ponce"
PERFORMER "Orchestra Sinfonica e Coro di Milano della Radiotelevisione Italiana, Gavazzeni"
INDEX 01 43:14:30
TRACK 10 AUDIO
TITLE "Non piangere...non piangere..."
PERFORMER "Orchestra Sinfonica e Coro di Milano della Radiotelevisione Italiana, Gavazzeni"
INDEX 01 46:20:07
TRACK 11 AUDIO
TITLE "Notte serena! Notte d'argento!"
PERFORMER "Orchestra Sinfonica e Coro di Milano della Radiotelevisione Italiana, Gavazzeni"
INDEX 01 53:16:30
TRACK 12 AUDIO
TITLE "Inferno! Inferno!"
PERFORMER "Orchestra Sinfonica e Coro di Milano della Radiotelevisione Italiana, Gavazzeni"
INDEX 01 62:22:32

CD2

REM GENRE Opera
REM DATE 1983
REM DISCID 9D0B130B
REM COMMENT "ExactAudioCopy v1.0b6"
PERFORMER "Zandonai"
TITLE "I cavalieri di Ekebù CD2"
FILE "Zandonai - I cavalieri di Ekebù CD2.ape" WAVE
TRACK 01 AUDIO
TITLE "Bevo al Natale!"
PERFORMER "Orchestra Sinfonica e Coro di Milano della Radiotelevisione Italiana, Gavazzeni"
INDEX 01 00:00:00
TRACK 02 AUDIO
TITLE "Natale! Natale! Natale!"
PERFORMER "Orchestra Sinfonica e Coro di Milano della Radiotelevisione Italiana, Gavazzeni"
INDEX 01 02:19:57
TRACK 03 AUDIO
TITLE "Lasciatemi, lasciatemi andar via!"
PERFORMER "Orchestra Sinfonica e Coro di Milano della Radiotelevisione Italiana, Gavazzeni"
INDEX 01 06:19:30
TRACK 04 AUDIO
TITLE "Compari, riverenza!"
PERFORMER "Orchestra Sinfonica e Coro di Milano della Radiotelevisione Italiana, Gavazzeni"
INDEX 01 09:36:05
TRACK 05 AUDIO
TITLE "Briachi, sconci! Sudicia canaglia!"
PERFORMER "Orchestra Sinfonica e Coro di Milano della Radiotelevisione Italiana, Gavazzeni"
INDEX 01 13:06:30
TRACK 06 AUDIO
TITLE "Andrò. Ma non per te"
PERFORMER "Orchestra Sinfonica e Coro di Milano della Radiotelevisione Italiana, Gavazzeni"
INDEX 01 15:42:10
TRACK 07 AUDIO
TITLE "Cavalieri della morte!"
PERFORMER "Orchestra Sinfonica e Coro di Milano della Radiotelevisione Italiana, Gavazzeni"
INDEX 01 20:35:37
TRACK 08 AUDIO
TITLE "Giusto Signore, se ho peccato, colpiscimi"
PERFORMER "Orchestra Sinfonica e Coro di Milano della Radiotelevisione Italiana, Gavazzeni"
INDEX 01 25:03:27
TRACK 09 AUDIO
TITLE "Anna! Pregavi?"
PERFORMER "Orchestra Sinfonica e Coro di Milano della Radiotelevisione Italiana, Gavazzeni"
INDEX 01 30:41:37
TRACK 10 AUDIO
TITLE "Ragazzi! Mille diavoli! Marmotte!"
PERFORMER "Orchestra Sinfonica e Coro di Milano della Radiotelevisione Italiana, Gavazzeni"
INDEX 01 37:26:40
TRACK 11 AUDIO
TITLE "Alla fucina!"
PERFORMER "Orchestra Sinfonica e Coro di Milano della Radiotelevisione Italiana, Gavazzeni"
INDEX 01 42:55:32
Доп. информация:
Доп. информация:
It's easy to poke fun at ''verismo'' opera, the slice-of-life approach to operatic storytelling.
The aim of the Italian verismo composers at the turn of the 20th century was to write emotionally raw operas with realistic depictions of everyday people.
The movement gave us a small repertory of enduring operas by Puccini, Mascagni and others.
But what about all the hyper-charged and hammy melodramas that were also churned out?
That many of these were actually well-crafted musical dramas is the view of Teatro Grattacielo, which presents yearly concert performances of forgotten verismo operas.
Such as the 1925 work by Riccardo Zandonai that has, at the least, shot to the top of the list of favorite opera titles: ''I Cavalieri di Ekebu.''
''Ekebu,'' let's call it for short, is a convoluted but oddly compelling work.
The performance served as a reminder that from today's perspective the verismo movement was an enviable period when opera composers could hardly keep pace with the popular demand for new works.
Zandonai is best known for ''Francesca da Rimini.''
He was 42 when ''Ekebu,'' his eighth opera, was given its La Scala premiere, conducted by Toscanini.
Enthralled with Nordic culture, Zandonai turned for a subject to an 1891 Swedish novel, ''Gosta Berlings Saga,'' by Selma Lagerlof, who in 1909 became the first woman to win the Nobel Prize in literature.
A Swedish silent movie based on the novel was released in 1924, starring Greta Garbo.
The operatic version of the novel, with a libretto by Arturo Rossato, makes a baffling tale of love and salvation set in 19th-century rural Sweden.
Gosta, here called Giosta Berling, is a defrocked Lutheran minister, sick at heart and alcoholic.
Still, he is loved by Anna, the kindly daughter of the fearsome Sintram, who seems to have Mephistophelean powers over people.
Giosta is rescued by an old woman, La Comandante, who leads a band of misfits who live at her mansion, Ekeby Manor, and work in her iron mine.
These men, the ''Cavalieri di Ekebu,'' are certainly a carousing bunch of good-for-nothings.
But Giosta joins them, and through various plot contrivances everyone is redeemed by curtain time.
''Ekebu'' is a typically lush and impassioned verismo opera, Zandonai tried to break free of verismo practice here.
There is an exotic Nordic quality to the music, as in the strange scene in which the knights present a play at the manor while Giosta and Anna engage in a lovers' quarrel.
The play is depicted through grotesque band music charged with dissonant parallel intervals and slightly ''off'' harmonies.
Though lacking a strong melodic gift, Zandonai writes soaring narratives for his characters in place of set-piece arias.
In the final scene, when the abandoned iron works goes back into operation, Zandonai's clanking, driving music created a raucously exuberant din in the hall.



Показать сообщения:    

Текущее время: 05-Дек 01:18

Часовой пояс: UTC + 3


Вы не можете начинать темы
Вы не можете отвечать на сообщения
Вы не можете редактировать свои сообщения
Вы не можете удалять свои сообщения
Вы не можете голосовать в опросах
Вы не можете прикреплять файлы к сообщениям
Вы не можете скачивать файлы