Атлантик-Сити / Atlantic City (Луи Маль / Louis Malle) [1980, Канада, Франция, драма, мелодрама, криминал, WEB-DLRip] DVO (Екатеринбург Арт)


Статистика раздачи [Обновить пиров]
Размер:  1.42 GB   |    Зарегистрирован:  8 месяцев 18 дней   |    Скачан:  0 раз

Полного источника не было: Никогда

 
   
 
 
 

[Цитировать]

Атлантик-Сити / Atlantic City-Город, где сбываются мечты.
Пять номинаций на премию "Оскар".
"Золотой Лев" - Гран-при международного кинофестиваля в Венеции.
- Год выпуска: 1980
Страна: Канада, Франция
Жанр: драма, мелодрама, криминал
Продолжительность: 01:43:42
Перевод: Профессиональный (двухголосый закадровый) - Екатеринбург Арт
Cубтитры: нет
Режиссер: Луи Маль / Louis Malle
В ролях: Берт Ланкастер (Lou), Сьюзен Сарандон (Sally), Кейт Рид (Grace), Мишель Пикколи (Joseph), Холлис МаКларен (Chrissie), Роберт Джой (Dave), Эл Уоксмен (Alfie), Робер Гуле (Singer), Моузес Знеймер (Felix), Энгус МакИннес (Vinnie)-Мировая премьера: 2 сентября 1980-Описание: Гангстер Лу ушел на покой и живет в Атлантик-Сити, такой же, как и Лас-Вегас, столице американского игорного бизнеса. Но жизнь Лу круто меняется, когда он знакомится с молодым жуликом Дэйвом, укравшем наркотики у мафии, и его бывшей женой Сэлли, работающей в одном из казино Атлантик-Сити. Мафиози настигают и убивают Дэйва, а Лу и Сэлли попадают в самый центр событий, в которых смешалось все — любовь и деньги, наркотики и смерть…--Данный перевод на трекере появляется впервые.
На русский язык фильм подготовлен к показу студией "Ракурс" по заказу компании Екатеринбург Арт Home Video.
Текст читают Александр Рахленко и Наталья Гурзо.-Рейтинг

MPAA: R - Лицам до 17 лет обязательно присутствие взрослого.-Качество видео: WEB-DLRip
Формат видео: AVI -> //SAMPLE//
Видео: XviD, 720x400 (16:9), 23.976 fps, 1761 kbps avg
Аудио:
1 - 48 khz, AC3 Dolby Digital, 2/0 (L,R) ch, ~192 kbps [Екатеринбург Арт] VHSRip

MediaInfo

General
Complete name : E:\Торрент Файлы\Будущие Релизы на Трекере\1.35 - 1.46 и более гб\Атлантик-Сити (Екатеринбург Арт).avi
Format : AVI
Format/Info : Audio Video Interleave
File size : 1.42 GiB
Duration : 1h 43mn
Overall bit rate : 1 962 Kbps
Writing application : VirtualDubMod 1.5.10.3 | www.virtualdub-fr.org || (build 2550/release)
Writing library : VirtualDubMod build 2550/release
Video
ID : 0
Format : MPEG-4 Visual
Format profile : Advanced Simple@L5
Format settings, BVOP : 1
Format settings, QPel : No
Format settings, GMC : No warppoints
Format settings, Matrix : Custom
Codec ID : XVID
Codec ID/Hint : XviD
Duration : 1h 43mn
Bit rate : 1 761 Kbps
Width : 720 pixels
Height : 400 pixels
Display aspect ratio : 16:9
Frame rate : 23.976 fps
Color space : YUV
Chroma subsampling : 4:2:0
Bit depth : 8 bits
Scan type : Progressive
Compression mode : Lossy
Bits/(Pixel*Frame) : 0.255
Stream size : 1.28 GiB (90%)
Writing library : XviD 1.2.1 (UTC 2008-12-04)
Audio
ID : 1
Format : AC-3
Format/Info : Audio Coding 3
Mode extension : CM (complete main)
Format settings, Endianness : Big
Codec ID : 2000
Duration : 1h 43mn
Bit rate mode : Constant
Bit rate : 192 Kbps
Channel(s) : 2 channels
Channel positions : Front: L R
Sampling rate : 48.0 KHz
Compression mode : Lossy
Stream size : 142 MiB (10%)
Alignment : Split accross interleaves
Interleave, duration : 42 ms (1.00 video frame)
Interleave, preload duratio : 500 ms

Скриншот c названием фильма

Скриншоты

[teatrix.ru].t21809.torrent 
Торрент: Зарегистрирован [ 2016-03-20 12:53 ] · 71391581211151B54D535026B7BECCA3B3091A8A

Скачать .torrent

Скачать

15 KB

Статус: проверено
Скачан: 0 раз
Размер: 1.42 GB
terms.php



Быстрый ответ

Имя:

      
Для отправки сообщений необходимо включить JavaScript
Показать сообщения:    

Текущее время: 07-Дек 13:31

Часовой пояс: UTC + 3


Вы можете начинать темы
Вы можете отвечать на сообщения
Вы не можете редактировать свои сообщения
Вы не можете удалять свои сообщения
Вы не можете голосовать в опросах
Вы не можете прикреплять файлы к сообщениям
Вы можете скачивать файлы