Глория Виктория / Gloria Victoria (Теодор Ушев / Theodore Ushev) [2012, Канада, авторская анимация, WEBRip-AVC]


 

[Цитировать]

Глория Виктория / Gloria Victoria
Страна: Канада
Жанр: авторская анимация
Год выпуска: 2012
Продолжительность: 00:06:58
Перевод: не требуется
Cубтитры: нет
Режиссёр: Теодор Ушев / Theodore Ushev
Описание: Кубизм, плакатная графика и образы с картин Пикассо, оживающие под звуки Седьмой симфонии Шостаковича...
Антивоенный фильм, рисующий обобщённый образ войны, как безжалостной стихии.
Доп. информация: Приз кинокритики на фестивале "Annecy" (2013)
Сэмпл: http://sendfile.su/1140037
Качество видео: WEBRip-AVC
Формат видео: MP4
Видео: 2472 kbps, 1280х720 (16:9), 24.000 fps, AVC (High@L3.1)
Аудио: 192 kbps, 44.1 kHz, 2 channels, AAC (LC)

MediaInfo

General
Complete name : Gloria Victoria (2012).mp4
Format : MPEG-4
Format profile : Base Media / Version 2
Codec ID : mp42
File size : 133 MiB
Duration : 6mn 58s
Overall bit rate mode : Variable
Overall bit rate : 2 667 Kbps
Encoded date : UTC 2015-07-09 13:13:19
Tagged date : UTC 2015-07-09 13:13:19
gsst : 0
gstd : 418561
gssd : BADC29444MM1437567123030054
gshh : r4---sn-n8v7zner.googlevideo.com
Video
ID : 1
Format : AVC
Format/Info : Advanced Video Codec
Format profile : High@L3.1
Format settings, CABAC : Yes
Format settings, ReFrames : 1 frame
Format settings, GOP : M=1, N=60
Codec ID : avc1
Codec ID/Info : Advanced Video Coding
Duration : 6mn 58s
Bit rate : 2 472 Kbps
Maximum bit rate : 5 153 Kbps
Width : 1 280 pixels
Height : 720 pixels
Display aspect ratio : 16:9
Frame rate mode : Constant
Frame rate : 24.000 fps
Color space : YUV
Chroma subsampling : 4:2:0
Bit depth : 8 bits
Scan type : Progressive
Bits/(Pixel*Frame) : 0.112
Stream size : 123 MiB (93%)
Tagged date : UTC 2015-07-09 13:13:21
Audio
ID : 2
Format : AAC
Format/Info : Advanced Audio Codec
Format profile : LC
Codec ID : 40
Duration : 6mn 58s
Bit rate mode : Variable
Bit rate : 192 Kbps
Maximum bit rate : 201 Kbps
Channel(s) : 2 channels
Channel positions : Front: L R
Sampling rate : 44.1 KHz
Compression mode : Lossy
Stream size : 9.58 MiB (7%)
Title : IsoMedia File Produced by Google, 5-11-2011
Encoded date : UTC 2015-07-09 13:13:21
Tagged date : UTC 2015-07-09 13:13:21

Скриншот c названием фильма

Скриншоты




Показать сообщения:    

Текущее время: 10-Дек 19:44

Часовой пояс: UTC + 3


Вы не можете начинать темы
Вы не можете отвечать на сообщения
Вы не можете редактировать свои сообщения
Вы не можете удалять свои сообщения
Вы не можете голосовать в опросах
Вы не можете прикреплять файлы к сообщениям
Вы не можете скачивать файлы