(Classical / Symphony) Antonin Dvorak - Symfonie c.9 «Z Noveho sveta» (Aus der Neuen Welt / From the New World) / Антонин Дворжак - Симфония № 9 «Из Нового Света» (Cleveland Orchestra, Christoph von Dohnanyi, 1984) - 1986, FLAC (tracks+.cue) lossless


 

[Цитировать]

Antonín Dvořák | Антонин Дворжак
(1841–1904)



Symfonie č. 9 «Z Nového světa»
Симфония № 9 «Из Нового Света»


Cleveland Orchestra
Christoph von Dohnányi conductor


Жанр: Classical / Symphony
Дата и место записи: Masonic Auditorium, Cleveland, Ohio, USA, October 1984
Формат записи: DDD, Stereo
Год издания диска: 1986
Издатель (лейбл): Decca
Номер по каталогу: 414 421-2
Аудиокодек: FLAC
Тип рипа: tracks+.cue
Битрейт аудио: lossless
Продолжительность: 40:49
Наличие сканов в содержимом раздачи: да
Источник: What.CD
Релизёр: persistentglow


Tracklist / Треклист
Symfonie č. 9 e moll «Z Nového světa», op. 95 - 40:49
I. Adagio. — Allegro molto - 9:22
  • II. Largo - 11:51
  • III. Molto vivace - 7:52
  • IV. Allegro con fuoco - 11:44

    -

    EAC log / Отчёт EAC

    Exact Audio Copy V0.99 prebeta 5 from 4. May 2009
    EAC extraction logfile from 21. June 2009, 18:52
    Antonín Dvorák / Symphony No. 9 'From the New World' - Cleveland Orchestra, Dohnányi (London 1986)
    Used drive : HL-DT-STRW/DVD GCC-4480B Adapter: 0 ID: 0
    Read mode : Secure
    Utilize accurate stream : Yes
    Defeat audio cache : Yes
    Make use of C2 pointers : No
    Read offset correction : 6
    Overread into Lead-In and Lead-Out : No
    Fill up missing offset samples with silence : Yes
    Delete leading and trailing silent blocks : No
    Null samples used in CRC calculations : Yes
    Used interface : Installed external ASPI interface
    Gap handling : Appended to previous track
    Used output format : User Defined Encoder
    Selected bitrate : 320 kBit/s
    Quality : High
    Add ID3 tag : No
    Command line compressor : C:\Program Files\Exact Audio Copy\Flac\flac.exe
    Additional command line options : -V -8 -T "artist=%a" -T "title=%t" -T "album=%g" -T "date=%y" -T "tracknumber=%n" -T "genre=%m" %s -S 3s
    TOC of the extracted CD
    Track | Start | Length | Start sector | End sector
    ---------------------------------------------------------
    1 | 0:00.32 | 9:21.65 | 32 | 42171
    2 | 9:22.22 | 11:50.43 | 42172 | 95464
    3 | 21:12.65 | 7:52.02 | 95465 | 130866
    4 | 29:04.67 | 11:44.15 | 130867 | 183681
    Track 1
    Filename Z:\home\user\Music\Classical\Antonín Dvorák - Symphony No. 9 'From the New World' - Cleveland Orchestra, Dohnányi (London 1986) (1986) [FLAC]\01 - Symphony No. 9 in E minor, Op. 95 - I Adagio - Allegro molto.wav
    Pre-gap length 0:00:02.32
    Peak level 99.8 %
    Track quality 99.9 %
    Test CRC 8F455710
    Copy CRC 8F455710
    Accurately ripped (confidence 20) [2BF7020A]
    Copy OK
    Track 2
    Filename Z:\home\user\Music\Classical\Antonín Dvorák - Symphony No. 9 'From the New World' - Cleveland Orchestra, Dohnányi (London 1986) (1986) [FLAC]\02 - Symphony No. 9 in E minor, Op. 95 - II Largo.wav
    Pre-gap length 0:00:02.72
    Peak level 97.1 %
    Track quality 100.0 %
    Test CRC 28424FF4
    Copy CRC 28424FF4
    Accurately ripped (confidence 20) [D86738C5]
    Copy OK
    Track 3
    Filename Z:\home\user\Music\Classical\Antonín Dvorák - Symphony No. 9 'From the New World' - Cleveland Orchestra, Dohnányi (London 1986) (1986) [FLAC]\03 - Symphony No. 9 in E minor, Op. 95 - III Scherzo- Molto vivace.wav
    Pre-gap length 0:00:02.10
    Peak level 97.2 %
    Track quality 100.0 %
    Test CRC 38E82BD6
    Copy CRC 38E82BD6
    Accurately ripped (confidence 20) [EEBC44D4]
    Copy OK
    Track 4
    Filename Z:\home\user\Music\Classical\Antonín Dvorák - Symphony No. 9 'From the New World' - Cleveland Orchestra, Dohnányi (London 1986) (1986) [FLAC]\04 - Symphony No. 9 in E minor, Op. 95 - IV Allegro con fuoco.wav
    Peak level 98.5 %
    Track quality 100.0 %
    Test CRC 5B0CFF8D
    Copy CRC 5B0CFF8D
    Accurately ripped (confidence 20) [880DAF47]
    Copy OK
    All tracks accurately ripped
    No errors occurred
    End of status report

    auCDtect Task Manager log / Отчёт auCDtect Task Manager

    -----------------------
    DON'T MODIFY THIS FILE
    -----------------------
    PERFORMER: auCDtect Task Manager, ver. 1.5.1RC3 build 1.5.1.4
    Copyright (c) 2008-2010 y-soft. All rights reserved
    ANALYZER: auCDtect: CD records authenticity detector, version 0.8.2
    Copyright (c) 2004 Oleg Berngardt. All rights reserved.
    Copyright (c) 2004 Alexander Djourik. All rights reserved.
    FILE: 03 - Symfonie c. 9 e-moll ''Z Noveho sveta'', Op. 95 - III. Molto vivace.flac
    Size: 37407077 Hash: 9ED40CF58E97933387D8060CF4C50995 Accuracy: -m0
    Conclusion: CDDA 100%
    Signature: C6233A1E84F8A342D2DE3AF1C7FA08DC083A1431
    FILE: 02 - Symfonie c. 9 e-moll ''Z Noveho sveta'', Op. 95 - II. Largo.flac
    Size: 44921793 Hash: 78E623845A32E0D8875D9DB95D194F06 Accuracy: -m0
    Conclusion: CDDA 100%
    Signature: 80C62842FE11B3A621DE275879CE4670A0A842CC
    FILE: 01 - Symfonie c. 9 e-moll ''Z Noveho sveta'', Op. 95 - I. Adagio. - Allegro molto.flac
    Size: 45601409 Hash: 2CC3F344F385221E2DAC9C5BDFB93424 Accuracy: -m0
    Conclusion: CDDA 100%
    Signature: C34CA55F28F58FEC67200296B81B37B1A3FAB754
    FILE: 04 - Symfonie c. 9 e-moll ''Z Noveho sveta'', Op. 95 - IV. Allegro con fuoco.flac
    Size: 59283831 Hash: F5CC603F2A1214B042840AEA28B6187D Accuracy: -m0
    Conclusion: CDDA 100%
    Signature: 9902BC21D2C684EC72F4C5DD4A960D59B99967FF

    CUETools log / Отчёт CUETools

    [CUETools log; Date: 23.07.2015 16:43:38; Version: 2.1.4]
    Pregap length 00:00:32.
    [AccurateRip ID: 0006e67a-001ba8a9-31099104] found.
    Track [ CRC | V2 ] Status
    01 [2bf7020a|68f680a1] (043+050/123) Accurately ripped
    02 [d86738c5|ce7e984d] (043+050/123) Accurately ripped
    03 [eebc44d4|e68c3ee9] (043+050/122) Accurately ripped
    04 [880daf47|c580a6ec] (043+051/123) Accurately ripped
    Offsetted by -669:
    01 [f64f6e54] (002/123) Accurately ripped
    02 [3083b388] (002/123) Accurately ripped
    03 [1893bce9] (002/122) Accurately ripped
    04 [3c700ef6] (002/123) Accurately ripped
    Offsetted by 1358:
    01 [2c668e14] (013/123) Accurately ripped
    02 [500f9500] (012/123) Accurately ripped
    03 [33deeb3d] (012/122) Accurately ripped
    04 [c3fbd253] (012/123) Accurately ripped
    Offsetted by -1145:
    01 [512cf131] (000/123) No match (V2 was not tested)
    02 [18a19fec] (000/123) No match (V2 was not tested)
    03 [ba688ec0] (000/122) No match (V2 was not tested)
    04 [d1216f5e] (000/123) No match (V2 was not tested)
    Offsetted by 163:
    01 [11c5859e] (000/123) No match (V2 was not tested)
    02 [7c8b0d27] (000/123) No match (V2 was not tested)
    03 [bfbf42fa] (000/122) No match (V2 was not tested)
    04 [4d3f22c4] (000/123) No match (V2 was not tested)
    Track Peak [ CRC32 ] [W/O NULL] [ LOG ]
    -- 99,8 [F16ABA18] [06527C29]
    01 99,8 [8F455710] [B7897692] CRC32
    02 97,1 [28424FF4] [87B39BEB] CRC32
    03 97,2 [38E82BD6] [3C18CB57] CRC32
    04 98,5 [5B0CFF8D] [185E2D34] CRC32

    CUE sheet

    TITLE "Antonín Dvořák: Symfonie č. 9 «Z Nového světa»"
    PERFORMER "Christoph von Dohnányi"
    REM GENRE Classical
    REM DISCID 31099104
    REM COMMENT "ExactAudioCopy v0.99pb5"
    FILE "01 - Symfonie c. 9 e-moll ''Z Noveho sveta'', Op. 95 - I. Adagio. - Allegro molto.flac" WAVE
    TRACK 01 AUDIO
    TITLE "Symfonie č. 9 e-moll «Z Nového světa», Op. 95: I. Adagio. — Allegro molto"
    PERFORMER "Cleveland Orchestra. Christoph von Dohnányi, conductor"
    REM DATE 1984
    PREGAP 00:00:32
    INDEX 01 00:00:00
    TRACK 02 AUDIO
    TITLE "Symfonie č. 9 e-moll «Z Nového světa», Op. 95: II. Largo"
    PERFORMER "Cleveland Orchestra. Christoph von Dohnányi, conductor"
    REM DATE 1984
    INDEX 00 09:18:68
    FILE "02 - Symfonie c. 9 e-moll ''Z Noveho sveta'', Op. 95 - II. Largo.flac" WAVE
    INDEX 01 00:00:00
    TRACK 03 AUDIO
    TITLE "Symfonie č. 9 e-moll «Z Nového světa», Op. 95: III. Molto vivace"
    PERFORMER "Cleveland Orchestra. Christoph von Dohnányi, conductor"
    REM DATE 1984
    INDEX 00 11:48:33
    FILE "03 - Symfonie c. 9 e-moll ''Z Noveho sveta'', Op. 95 - III. Molto vivace.flac" WAVE
    INDEX 01 00:00:00
    FILE "04 - Symfonie c. 9 e-moll ''Z Noveho sveta'', Op. 95 - IV. Allegro con fuoco.flac" WAVE
    TRACK 04 AUDIO
    TITLE "Symfonie č. 9 e-moll «Z Nového světa», Op. 95: IV. Allegro con fuoco"
    PERFORMER "Cleveland Orchestra. Christoph von Dohnányi, conductor"
    REM DATE 1984
    INDEX 01 00:00:00
    -



  • Показать сообщения:    

    Текущее время: 06-Дек 11:15

    Часовой пояс: UTC + 3


    Вы не можете начинать темы
    Вы не можете отвечать на сообщения
    Вы не можете редактировать свои сообщения
    Вы не можете удалять свои сообщения
    Вы не можете голосовать в опросах
    Вы не можете прикреплять файлы к сообщениям
    Вы не можете скачивать файлы