[TR24][SA] Johannes Brahms: Symphony No. 1; Hungarian Dances - Yomiuri Nippon Symphony Orchestra, Ken-Ichiro Kobayashi (小林 研一郎) - 2014 (Classical)


Статистика раздачи [Обновить пиров]
Размер:  3.09 GB   |    Зарегистрирован:  8 месяцев 14 дней   |    Скачан:  1 раз

Полного источника не было: 21 день

 
   
 
 
 

[Цитировать]

Johannes Brahms
Symphony No. 1 | Hungarian Dances
Ken-Ichiro Kobayashi
Yomiuri Nippon Symphony Orchestra
-Год издания: 2014 | Жанр: Classical
Издатель: Octavia Records | Exton
Продолжительность: 01:08:51 | Наличие сканов: Sleeve- -Yomiuri Nippon Symphony Orchestra
Ken-Ichiro Kobayashi, conductor-Контейнер: FLAC (*.flac) | Тип рипа: tracks
Разрядность: 24bit / 192kHz | Количество каналов: 2.0-

Треклист
Johannes Brahms (1833-1897)
Symphony No. 1 in C Minor Op. 68
01.I. Un poco sostenuto - Allegro - Meno allegro (15:05)
02. II. Andante sostenuto (9:45)
03. III. Un poco allegretto e grazioso (5:00)
04. IV. Adagio - Piu andante - Allegro non troppo, ma con brio - Piu allegro (17:52)
Hungarian Dances WoO.1
05. No. 1 in G minor (3:38)
06. No. 3 in F major (2:35)
07. No. 4 in F-sharp minor (5:38)
08. No. 5 in G minor (3:23)
09. No. 6 in D major (4:07)
10. No. 10 in F major (1:48)

О релизе


Ken-Ichiro Kobayashi (小林 研一郎 , born April 9, 1940) is a Japanese conductor and composer. Born in Iwaki, Fukushima, Kobayashi's father was a high school music teacher, and mother was a primary school teacher. Kobayashi started composing music at the age of 11, studied composition and conducting under Mareo Ishiketa (composition), Kazuo Yamada (conducting), and Akeo Watanabe (conducting) at Tokyo University of the Arts.
Kobayashi won the 1st prize and the special award at the International Conductors Competition on Hungarian television in 1974. He has led orchestras in Germany, Austria, Britain, and Netherlands. Kobayashi has been resident conductor of the Tokyo Metropolitan Symphony Orchestra and Kyoto Symphony Orchestra. Kobayashi was appointed to the principal conductor of Japan Philharmonic Orchestra (1988–1990), chief conductor (1990–1994, 1997–2004), music director (2004–2007) and conductor laureate since 2010. Kobayashi served the principal guest conductor of Kansai Philharmonic Orchestra and Kyusyu Symphony Orchestra. He was general music director of Nagoya Philharmonic Orchestra from 1998 to 2001, music director from 2001 to 2003, is now appointed to the conductor laureate since 2003. Kobayashi was appointed to the special guest conductor of Yomiuri Nippon Symphony Orchestra in August 2011, appointed to the music director of Tokyo Bunka Kaikan in June 2012.
In Europe, Kobayashi served the principal conductor of Hungarian State Symphony (now Hungarian National Philharmonic) from 1987 to 1997, and is now conductor laureate of the orchestra. Kobayashi was the first Asian conductor who had conducted Czech Philharmonic at the Prague Spring International Music Festival in 2002. He has held the regular guest conductorship with Czech Philharmonic. He was one of three conductors who primarily led the orchestra after the resignation of Gerd Albrecht from the chief conductorship orchestra in 1996 and before advent of Vladimir Ashkenazy in 1998. In 2006, he became vaste dirigent ('permanent conductor') of Het Gelders Orkest of Arnhem, Netherlands.
Kobayashi was a former music professor of Tokyo University of the Arts(now holds the emeritus professorship), the emeritus professor of Tokyo College of Music and Franz Liszt Academy of Music.
His compositions include his Passacaglia for orchestra, in honour of the 400th anniversary of relations between Japan and the Netherlands in the year 2000. Kobayashi directed the premiere with the Netherlands Philharmonic Orchestra in 1999.
Kobayashi's daughter Ayano Kobayashi is a pianist. His sister, Yuko Ichinose, is a soprano.
Kobayashi received the Liszt Memorial Decoration (1986), the Hungarian Order of Culture (1990), and the Middle Cross with the Star of the Order of the Republic of Hungary decoration (the highest civilian honour) from the Hungarian government in 1994. In 2000 he was awarded the Hanno R. Ellenbogen Citizenship Award by the Prague Society for International Cooperation. --wikipedia
Personnel:
Yomiuri Nippon Symphony Orchestra
Ken-Ichiro Kobayashi, conductor
Recorded: Tokyo Metropolitan Art Centre on April 22-23, 2014 (DSD Recording)

ОтчётыДинамический диапазон

foobar2000 1.3.8 / Dynamic Range Meter 1.1.1
log date: 2015-07-23 17:29:33
--------------------------------------------------------------------------------
Analyzed: Ken-Ichiro Kobayashi, Yomiuri Nippon Symphony Orchestra / Brahms: Symphony No. 1; Hungarian Dances
--------------------------------------------------------------------------------
DR Peak RMS Duration Track
--------------------------------------------------------------------------------
DR13 -0.24 dB -18.82 dB 15:05 01-Symphony No. 1 in C Minor Op. 68 - I. Un poco sostenuto - Allegro - Meno allegro
DR14 -5.86 dB -25.74 dB 9:45 02-Symphony No. 1 in C Minor Op. 68 - II. Andante sostenuto
DR13 -2.18 dB -22.63 dB 5:00 03-Symphony No. 1 in C Minor Op. 68 - III. Un poco allegretto e grazioso
DR13 -0.25 dB -18.02 dB 17:52 04-Symphony No. 1 in C Minor Op. 68 - IV. Adagio - Piu andante - Allegro non troppo, ma con brio - Piu allegro
DR14 -0.30 dB -17.60 dB 3:38 05-Hungarian Dances WoO.1 - No. 1 in G minor
DR13 -0.28 dB -20.25 dB 2:35 06-Hungarian Dances WoO.1 - No. 3 in F major
DR12 -0.83 dB -17.29 dB 5:38 07-Hungarian Dances WoO.1 - No. 4 in F-sharp minor
DR14 -0.29 dB -18.32 dB 3:23 08-Hungarian Dances WoO.1 - No. 5 in G minor
DR13 -0.28 dB -18.20 dB 4:07 09-Hungarian Dances WoO.1 - No. 6 in D major
DR13 -0.28 dB -17.74 dB 1:48 10-Hungarian Dances WoO.1 - No. 10 in F major
--------------------------------------------------------------------------------
Number of tracks: 10
Official DR value: DR13
Samplerate: 192000 Hz
Channels: 2
Bits per sample: 24
Bitrate: 6430 kbps
Codec: FLAC
================================================================================

Скриншот спектра частот

Доп. информация

При скачивании, если необходимо, переименуйте папку, в которой будет находиться альбомБольшая просьба к скачавшим поддерживать раздачу! Помогайте другим, ведь вам тоже может понадобиться помощь!Не забываем говорить "Спасибо"!Комментарии приветствуются!
[teatrix.ru].t21813.torrent 
Торрент: Зарегистрирован [ 2016-03-20 12:52 ] · 352762CE22A8EF2C0FBE362ECE68AF6170E3AD02

Скачать .torrent

Скачать

17 KB

Статус: проверено
Скачан: 1 раз
Размер: 3.09 GB
terms.php



Быстрый ответ

Имя:

      
Для отправки сообщений необходимо включить JavaScript
Показать сообщения:    

Текущее время: 04-Дек 09:09

Часовой пояс: UTC + 3


Вы можете начинать темы
Вы можете отвечать на сообщения
Вы не можете редактировать свои сообщения
Вы не можете удалять свои сообщения
Вы не можете голосовать в опросах
Вы не можете прикреплять файлы к сообщениям
Вы можете скачивать файлы