(Opera) Umberto Giordano - La Cena delle Beffe / Умберто Джордано - Ужин шуток (Gian Paolo Sanzogno; Fabio Armiliato, Marco Chingari, Rita Lantieri), 1988 - live from Teatro Giordano di Foggia / 1989, FLAC (tracks+.cue), lossless


 

[Цитировать]

Umberto Giordano - La Cena delle Beffe / Умберто Джордано - Ужин шуток (Gian Paolo Sanzogno; Fabio Armiliato, Marco Chingari, Rita Lantieri)
Жанр: Opera
Страна-производитель диска: Италия
Год издания диска: 1989
Издатель (лейбл): Bongiovanni
Дата записи: 1988
Аудиокодек: FLAC
Тип рипа: tracks+.cue
Битрейт аудио: lossless
Продолжительность: 88:23
Источник: релизер (Guillermo)
Исполнители:
Fabio Armiliato - Giannetto Malespini,
Marco Chingari - Neri Chiaramantesi,
Rita Lantieri - Ginevra,
Franceso Piccoli - Gabriello Chiaramantesi,
Enrico Marini - Tornaquinci,
Giovanna Manci - Lisabetta,
Alberto Carusi - Fazio,
Gabriele de Julis - Trinca.
Gian Paolo Sanzogno, Conductor
Orchestra Sinfonico di Piacenza
Recorded live on December 14, 1988, at Teatro Giordano di Foggia.

Лог создания рипаЛог создания рипа CD 1

Exact Audio Copy V1.0 beta 3 from 29. August 2011
EAC extraction logfile from 31. May 2015, 8:54
Artista desconocido / Título desconocido
Used drive : HL-DT-STDVDRAM GH24NSC0 Adapter: 3 ID: 0
Read mode : Secure
Utilize accurate stream : Yes
Defeat audio cache : Yes
Make use of C2 pointers : No
Read offset correction : 6
Overread into Lead-In and Lead-Out : No
Fill up missing offset samples with silence : Yes
Delete leading and trailing silent blocks : No
Null samples used in CRC calculations : Yes
Used interface : Native Win32 interface for Win NT & 2000
Gap handling : Appended to previous track
Used output format : User Defined Encoder
Selected bitrate : 768 kBit/s
Quality : High
Add ID3 tag : No
Command line compressor : C:\Program Files (x86)\Exact Audio Copy\FLAC\FLAC.EXE
Additional command line options : -8 -V -T "ARTIST=%artist%" -T "TITLE=%title%" -T "ALBUM=%albumtitle%" -T "DATE=%year%" -T "TRACKNUMBER=%tracknr%" -T "GENRE=%genre%" -T "PERFORMER=%albuminterpret%" -T "COMPOSER=%composer%" %haslyrics%--tag-from-file=LYRICS="%lyricsfile%"%haslyrics% -T "ALBUMARTIST=%albumartist%" -T "DISCNUMBER=%cdnumber%" -T "TOTALDISCS=%totalcds%" -T "TOTALTRACKS=%numtracks%" -T "COMMENT=%comment%" %source% -o %dest%
TOC of the extracted CD
Track | Start | Length | Start sector | End sector
---------------------------------------------------------
1 | 0:00.33 | 3:19.32 | 33 | 14989
2 | 3:19.65 | 10:32.05 | 14990 | 62394
3 | 13:51.70 | 8:01.20 | 62395 | 98489
4 | 21:53.15 | 4:33.00 | 98490 | 118964
5 | 26:26.15 | 14:14.18 | 118965 | 183032
Track 1
Filename f:\Users\Guillermo\Desktop\EAC convertidos\01 Pista01.wav
Pre-gap length 0:00:02.44
Peak level 62.2 %
Extraction speed 1.4 X
Track quality 100.0 %
Test CRC 5F78D805
Copy CRC 5F78D805
Copy OK
Track 2
Filename f:\Users\Guillermo\Desktop\EAC convertidos\02 Pista02.wav
Peak level 100.0 %
Extraction speed 1.9 X
Track quality 100.0 %
Test CRC C4C45F7C
Copy CRC C4C45F7C
Copy OK
Track 3
Filename f:\Users\Guillermo\Desktop\EAC convertidos\03 Pista03.wav
Peak level 79.9 %
Extraction speed 2.2 X
Track quality 100.0 %
Test CRC 84810589
Copy CRC 84810589
Copy OK
Track 4
Filename f:\Users\Guillermo\Desktop\EAC convertidos\04 Pista04.wav
Peak level 67.4 %
Extraction speed 2.3 X
Track quality 100.0 %
Test CRC F82DDAE6
Copy CRC F82DDAE6
Copy OK
Track 5
Filename f:\Users\Guillermo\Desktop\EAC convertidos\05 Pista05.wav
Peak level 83.2 %
Extraction speed 2.9 X
Track quality 100.0 %
Test CRC C29DA4AB
Copy CRC C29DA4AB
Copy OK
No errors occurred
End of status report
==== Log checksum DF23ACDE82ADA7C7C53BD1535DDEB865DDE713226135C3ACDD09E47CCFDFFB88 ====

Лог создания рипа CD 2

Exact Audio Copy V1.0 beta 3 from 29. August 2011
EAC extraction logfile from 1. June 2015, 6:46
Giordano / La cena delle beffe - 2
Used drive : HL-DT-STDVDRAM GH24NSC0 Adapter: 3 ID: 0
Read mode : Secure
Utilize accurate stream : Yes
Defeat audio cache : Yes
Make use of C2 pointers : No
Read offset correction : 6
Overread into Lead-In and Lead-Out : No
Fill up missing offset samples with silence : Yes
Delete leading and trailing silent blocks : No
Null samples used in CRC calculations : Yes
Used interface : Native Win32 interface for Win NT & 2000
Gap handling : Appended to previous track
Used output format : User Defined Encoder
Selected bitrate : 768 kBit/s
Quality : High
Add ID3 tag : No
Command line compressor : C:\Program Files (x86)\Exact Audio Copy\FLAC\FLAC.EXE
Additional command line options : -8 -V -T "ARTIST=%artist%" -T "TITLE=%title%" -T "ALBUM=%albumtitle%" -T "DATE=%year%" -T "TRACKNUMBER=%tracknr%" -T "GENRE=%genre%" -T "PERFORMER=%albuminterpret%" -T "COMPOSER=%composer%" %haslyrics%--tag-from-file=LYRICS="%lyricsfile%"%haslyrics% -T "ALBUMARTIST=%albumartist%" -T "DISCNUMBER=%cdnumber%" -T "TOTALDISCS=%totalcds%" -T "TOTALTRACKS=%numtracks%" -T "COMMENT=%comment%" %source% -o %dest%
TOC of the extracted CD
Track | Start | Length | Start sector | End sector
---------------------------------------------------------
1 | 0:00.33 | 6:45.40 | 33 | 30447
2 | 6:45.73 | 8:16.02 | 30448 | 67649
3 | 15:02.00 | 12:19.58 | 67650 | 123132
4 | 27:21.58 | 6:17.37 | 123133 | 151444
5 | 33:39.20 | 6:49.13 | 151445 | 182132
6 | 40:28.33 | 7:19.00 | 182133 | 215057
Track 1
Filename f:\Users\Guillermo\Desktop\EAC convertidos\01 Umberto Giordano - La cena delle beffe - atto 3.wav
Pre-gap length 0:00:02.44
Peak level 64.3 %
Extraction speed 1.6 X
Track quality 100.0 %
Test CRC 7C5F307C
Copy CRC 7C5F307C
Copy OK
Track 2
Filename f:\Users\Guillermo\Desktop\EAC convertidos\02 Umberto Giordano - La cena delle beffe - atto 3.wav
Peak level 74.9 %
Extraction speed 2.0 X
Track quality 100.0 %
Test CRC 3E7BA590
Copy CRC 3E7BA590
Copy OK
Track 3
Filename f:\Users\Guillermo\Desktop\EAC convertidos\03 Umberto Giordano - La cena delle beffe - atto 3.wav
Peak level 100.0 %
Extraction speed 2.4 X
Track quality 100.0 %
Test CRC 0E9A7497
Copy CRC 0E9A7497
Copy OK
Track 4
Filename f:\Users\Guillermo\Desktop\EAC convertidos\04 Umberto Giordano - La cena delle beffe - atto 4.wav
Peak level 43.6 %
Extraction speed 2.6 X
Track quality 100.0 %
Test CRC 810B5A35
Copy CRC 810B5A35
Copy OK
Track 5
Filename f:\Users\Guillermo\Desktop\EAC convertidos\05 Umberto Giordano - La cena delle beffe - atto 4.wav
Peak level 96.9 %
Extraction speed 2.5 X
Track quality 99.9 %
Test CRC 59B60499
Copy CRC 59B60499
Copy OK
Track 6
Filename f:\Users\Guillermo\Desktop\EAC convertidos\06 Umberto Giordano - La cena delle beffe - atto 4.wav
Peak level 92.5 %
Extraction speed 3.0 X
Track quality 100.0 %
Test CRC 34B9E908
Copy CRC 34B9E908
Copy OK
No errors occurred
End of status report
==== Log checksum EE3581163A0AB06FD935A22F99A9D61421C79CA37D62A4CAE3577C8025ED65D7 ====

Содержание индексной карты (.CUE)Содержание индексной карты (.CUE) CD 1

REM DISCID 33098805
REM COMMENT "ExactAudioCopy v1.0b3"
FILE "01 Pista01.wav" WAVE
TRACK 01 AUDIO
PREGAP 00:00:33
INDEX 01 00:00:00
FILE "02 Pista02.wav" WAVE
TRACK 02 AUDIO
INDEX 01 00:00:00
FILE "03 Pista03.wav" WAVE
TRACK 03 AUDIO
INDEX 01 00:00:00
FILE "04 Pista04.wav" WAVE
TRACK 04 AUDIO
INDEX 01 00:00:00
FILE "05 Pista05.wav" WAVE
TRACK 05 AUDIO
INDEX 01 00:00:00

Содержание индексной карты (.CUE) CD 2

REM GENRE Opera
REM DISCID 360B3306
REM COMMENT "ExactAudioCopy v1.0b3"
FILE "01 Umberto Giordano - La cena delle beffe - atto 3.wav" WAVE
TRACK 01 AUDIO
PREGAP 00:00:33
INDEX 01 00:00:00
FILE "02 Umberto Giordano - La cena delle beffe - atto 3.wav" WAVE
TRACK 02 AUDIO
INDEX 01 00:00:00
FILE "03 Umberto Giordano - La cena delle beffe - atto 3.wav" WAVE
TRACK 03 AUDIO
INDEX 01 00:00:00
FILE "04 Umberto Giordano - La cena delle beffe - atto 4.wav" WAVE
TRACK 04 AUDIO
INDEX 01 00:00:00
FILE "05 Umberto Giordano - La cena delle beffe - atto 4.wav" WAVE
TRACK 05 AUDIO
INDEX 01 00:00:00
FILE "06 Umberto Giordano - La cena delle beffe - atto 4.wav" WAVE
TRACK 06 AUDIO
INDEX 01 00:00:00

Треклист

Disc 1:
1. Act I
2. Calato in Arno e pugnalato poi!
3. La mente delle donne
4. Act 2
5. Povero Neri
Disc 2:
1. Act 3
2. Vedi, come son fatto!
3. Mi chiamo Lisabetta
4. Act 4
5. Ascolta, ascolta
6. Canzone di maggio



Показать сообщения:    

Текущее время: 10-Дек 09:56

Часовой пояс: UTC + 3


Вы не можете начинать темы
Вы не можете отвечать на сообщения
Вы не можете редактировать свои сообщения
Вы не можете удалять свои сообщения
Вы не можете голосовать в опросах
Вы не можете прикреплять файлы к сообщениям
Вы не можете скачивать файлы