Потерянные песни Анатолии / Anadolu'nun kayip sarkilari / Anadalu'nun Kayıp Şarkıları (Незих Унен / Nezih Ünen) [2010 г., Documentary, Ethnic, DVDRip]


Статистика раздачи [Обновить пиров]
Размер:  702 MB   |    Зарегистрирован:  8 месяцев 14 дней   |    Скачан:  1 раз

Полного источника не было: 8 дней

 
   
 
 
 

[Цитировать]

Потерянные песни Анатолии / Anadolu'nun kayip sarkilari / Anadalu'nun Kayıp Şarkıları
Год выпуска: 2010 г.
Страна: Турция
Жанр: Документальный, этническая музыка
Продолжительность: 01:42:23
Перевод: Субтитры
Доп. информация о переводе: uzayli
Русские субтитры: есть
Оригинальная аудиодорожка: турецкий
Режиссер: Незих Унен / Nezih Ünen
Производство: Plato Film Production
Описание: Документальный фильм турецкого композитора, продюсера и аранжировщика Незиха Унена (Nezih Ünen), представляющий зрителю богатство культуры и традиций Анатолии, нетронутых влиянием современной цивилизации и поп-культуры. Незих Унен вместе с группой операторов и помощников отправился в путешествие по Анатолии, не подозревая, какая огромная работа ждет его впереди. Тогда их целью было собрать народные песни со всей Турции, чтобы, записав их в современной обработке, выпустить документальный фильм и альбом. Результат работы превзошел ожидания авторов. Все персонажи фильма, съемки которого длились 7 лет, – реальные люди, все сцены сняты без предварительных репетиций. В фильме представлены обряды, песни и танцы разных народов, проживающих испокон веков в Анатолии — турок, лазов, курдов, черкесов, армян, грузин, греков, иранцев и многих других.
Качество: DVDRip
Контейнер: AVI
Видео кодек: DivX
Аудио кодек: AC3
Видео: 720 x 404 (1.782), (16:9), 550 kbps, 25.000 fps
Аудио: AC-3, 448 kbps, 48,0 kHz, 6 ch

MediaInfo

Общее
Полное имя : D:\video\films\Потерянные песни Анатолии\Потерянные песни Анатолии.avi
Формат : AVI
Формат/Информация : Audio Video Interleave
Размер файла : 702 Мбайт
Продолжительность : 1 ч. 37 м.
Общий поток : 1009 Кбит/сек
Название фильма : AnadoluSarkilari.Title1.DVDRip
Программа кодирования : Lavf52.33.0
Формат оригинала/Имя : AnadoluSarkilari
Видео
Идентификатор : 0
Формат : MPEG-4 Visual
Профиль формата : Simple@L3
Параметр BVOP формата : Нет
Параметр QPel формата : Нет
Параметр GMC формата : Без точки перехода
Параметр матрицы формата : Default (H.263)
Идентификатор кодека : DX50
Идентификатор кодека/Подсказка : DivX 5
Продолжительность : 1 ч. 37 м.
Битрейт : 550 Кбит/сек
Ширина : 720 пикселей
Высота : 404 пикселя
Соотношение сторон : 16:9
Частота кадров : 25,000 кадров/сек
Цветовое пространство : YUV
Субдискретизация насыщенности : 4:2:0
Битовая глубина : 8 бит
Тип развёртки : Прогрессивная
Метод сжатия : С потерями
Бит/(Пиксели*Кадры) : 0.076
Размер потока : 383 Мбайт (55%)
Библиотека кодирования : XviD 1.2.1 (UTC 2008-12-04)
Аудио
Идентификатор : 1
Формат : AC-3
Формат/Информация : Audio Coding 3
Расширение режима : CM (complete main)
Параметр Endianness формата : Big
Идентификатор кодека : 2000
Продолжительность : 1 ч. 37 м.
Вид битрейта : Постоянный
Битрейт : 448 Кбит/сек
Каналы : 6 каналов
Расположение каналов : Front: L C R, Side: L R, LFE
Частота : 48,0 КГц
Метод сжатия : С потерями
Размер потока : 312 Мбайт (44%)
Выравнивание : Соединение по промежуткам
Продолжительность промежутка : 32 мс. (0,80 видеокадр)

Скриншоты






[teatrix.ru].t21817.torrent 
Торрент: Зарегистрирован [ 2016-03-20 12:52 ] · 6D6169374F76454CDA6370BD8EAEA84EB46A6B5E

Скачать .torrent

Скачать

14 KB

Статус: проверено
Скачан: 1 раз
Размер: 702 MB
terms.php



Быстрый ответ

Имя:

      
Для отправки сообщений необходимо включить JavaScript
Показать сообщения:    

Текущее время: 04-Дек 11:09

Часовой пояс: UTC + 3


Вы можете начинать темы
Вы можете отвечать на сообщения
Вы не можете редактировать свои сообщения
Вы не можете удалять свои сообщения
Вы не можете голосовать в опросах
Вы не можете прикреплять файлы к сообщениям
Вы можете скачивать файлы