(Classical) Босси М.Э. – Фортепианные трио / Marco Enrico Bossi – Piano trios Opp. 107 & 123 (Hungarian Piano Trio: Gabriella Szentpeteri, Jozsef Modrian, Ildiko Radi) - 2005, FLAC (image+.cue) lossless


 

[Цитировать]

Босси М.Э. – Фортепианные трио / Marco Enrico Bossi – Piano trios Opp. 107 & 123 (Hungarian Piano Trio: Gabriella Szentpéteri, József Modrián, Ildikó Rádi)
Жанр: Classical
Страна-производитель диска: Австрия
Год издания диска: 2005
Издатель (лейбл): Hungaroton
Номер по каталогу: HCD 32293
Дата записи: 3 — 8 мая 2004 г., Будапешт.
Аудиокодек: FLAC
Тип рипа: image+.cue
Битрейт аудио: lossless
Продолжительность: 01:07:03
Источник: odeonmusic
Наличие сканов в содержимом раздачи: да
Треклист:-Марко Энрико Босси (1861 — 1925).-Трио d-moll для фортепиано, скрипки и виолончели, op. 107 (опубл. 1896).
01. I. Allegro moderato [08:11].
02. II. Dialogo. Larghetto [07:12].
03. III. Scherzo. Vivace. — Poco meno. — Tempo I. — [05:19].
04. IV. Finale. Festoso [05:12].
«Симфоническое» трио D-dur для фортепиано, скрипки и виолончели, op. 123 (опубл. 1901?).
05. I. Moderato. — Energico con vita [11:17].
06. II. In memoriam. Adagio [09:37].
07. III. Novelletta. Allegretto. — Tranquillo. — Tempo I [11:26].
08. IV. Finale. Allegro energico [08:25].-Исполнители:
Hungarian Piano Trio:
Gabriella Szentpéteri (фортепиано),
József Modrián (скрипка),
Ildikó Rádi (виолончель).-

Лог создания рипа

Exact Audio Copy V1.0 beta 4 from 7. December 2014
EAC extraction logfile from 25. February 2015, 22:22
Hungarian Piano Trio / M. Enrico Bossi - Piano Trios - Hungarian Piano Trio
Used drive : PLDS DVD-RW DA8A5SH Adapter: 1 ID: 0
Read mode : Secure
Utilize accurate stream : Yes
Defeat audio cache : Yes
Make use of C2 pointers : Yes
Read offset correction : 6
Overread into Lead-In and Lead-Out : No
Fill up missing offset samples with silence : Yes
Delete leading and trailing silent blocks : No
Null samples used in CRC calculations : Yes
Used interface : Native Win32 interface for Win NT & 2000
Used output format : User Defined Encoder
Selected bitrate : 896 kBit/s
Quality : High
Add ID3 tag : No
Command line compressor : J:\EAC\Exact Audio Copy\Flac\flac.exe
Additional command line options : -8 -V -T "TITLE=%title%" -T "ARTIST=%artist%" -T "ALBUMARTIST=%albumartist%" -T "ALBUM=%albumtitle%" -T "DATE=%year%" -T "TRACKNUMBER=%tracknr%" -T "TRACKTOTAL=%numtracks%" -T "GENRE=%genre%" -T "COMMENT=%comment%" -T "PERFORMER=%albuminterpret%" -T "COMPOSER=%composer%" %source% -o %dest%
TOC of the extracted CD
Track | Start | Length | Start sector | End sector
---------------------------------------------------------
1 | 0:00.00 | 8:14.67 | 0 | 37116
2 | 8:14.67 | 7:14.60 | 37117 | 69726
3 | 15:29.52 | 5:18.56 | 69727 | 93632
4 | 20:48.33 | 5:18.11 | 93633 | 117493
5 | 26:06.44 | 11:20.36 | 117494 | 168529
6 | 37:27.05 | 9:41.65 | 168530 | 212169
7 | 47:08.70 | 11:28.71 | 212170 | 263840
8 | 58:37.66 | 8:25.06 | 263841 | 301721
Range status and errors
Selected range
Filename K:\Ripped\[7562] M. Enrico Bossi – Piano Trios – Hungarian Piano Trio\M. Enrico Bossi - Piano Trios - Hungarian Piano Trio.wav
Peak level 98.1 %
Extraction speed 3.0 X
Range quality 100.0 %
Test CRC 8CEE52DF
Copy CRC 8CEE52DF
Copy OK
No errors occurred
AccurateRip summary
Track 1 not present in database
Track 2 not present in database
Track 3 not present in database
Track 4 not present in database
Track 5 not present in database
Track 6 not present in database
Track 7 not present in database
Track 8 not present in database
None of the tracks are present in the AccurateRip database
End of status report
==== Log checksum BCC93075400C96C5CA53D701576A88C825ED04C873D309FD8ED9719D76685D2D ====

Содержание индексной карты (.CUE)

REM GENRE Classical
REM DATE 2004
REM DISCID 6E0FB608
REM COMMENT "ExactAudioCopy v1.0b4"
PERFORMER "Hungarian Piano Trio"
TITLE "Bossi M.E. – Piano trios – Hungarian Piano Trio"
FILE "Bossi M.E. – Piano trios – Hungarian Piano Trio.flac" WAVE
TRACK 01 AUDIO
TITLE "Piano Trio in D minor, Op. 107 - I. Allegro moderato"
PERFORMER "Hungarian Piano Trio"
INDEX 01 00:00:00
TRACK 02 AUDIO
TITLE "Piano Trio in D minor, Op. 107 - II. Dialogo. Larghetto"
PERFORMER "Hungarian Piano Trio"
INDEX 00 08:10:74
INDEX 01 08:14:67
TRACK 03 AUDIO
TITLE "Piano Trio in D minor, Op. 107 - III. Scherzo. Vivace -"
PERFORMER "Hungarian Piano Trio"
INDEX 00 15:26:60
INDEX 01 15:29:52
TRACK 04 AUDIO
TITLE "Piano Trio in D minor, Op. 107 - IV. Finale. Festoso"
PERFORMER "Hungarian Piano Trio"
INDEX 01 20:48:33
TRACK 05 AUDIO
TITLE "Trio sinfonico in D major, Op. 123 - I. Moderato - Energico con vita"
PERFORMER "Hungarian Piano Trio"
INDEX 00 26:00:27
INDEX 01 26:06:44
TRACK 06 AUDIO
TITLE "Trio sinfonico in D major, Op. 123 - II. In memoriam. Adagio"
PERFORMER "Hungarian Piano Trio"
INDEX 00 37:23:15
INDEX 01 37:27:05
TRACK 07 AUDIO
TITLE "Trio sinfonico in D major, Op. 123 - III. Novelletta. Allegretto
PERFORMER "Hungarian Piano Trio"
INDEX 00 47:04:12
INDEX 01 47:08:70
TRACK 08 AUDIO
TITLE "Trio sinfonico in D major, Op. 123 - IV. Finale. Allegro energico"
PERFORMER "Hungarian Piano Trio"
INDEX 00 58:34:67
INDEX 01 58:37:66



Показать сообщения:    

Текущее время: 11-Дек 05:20

Часовой пояс: UTC + 3


Вы не можете начинать темы
Вы не можете отвечать на сообщения
Вы не можете редактировать свои сообщения
Вы не можете удалять свои сообщения
Вы не можете голосовать в опросах
Вы не можете прикреплять файлы к сообщениям
Вы не можете скачивать файлы