(Classical / Symphony) Antonin Dvorak - Symfonie c. 7 a 8 / Антонин Дворжак - Симфонии №№ 7 и 8 (Cleveland Orchestra, Christoph von Dohnanyi, 1984, 1985) - 1992, FLAC (tracks+.cue) lossless


 

[Цитировать]

Antonín Dvořák | Антонин Дворжак
(1841–1904)



Symfonie č. 7 a 8
Симфонии №№ 7 и 8


Cleveland Orchestra
Christoph von Dohnányi conductor


Жанр: Classical / Symphony
Даты записи: 1984, 1985
Формат записи: DDD, Stereo
Год издания диска: 1992
Издатель (лейбл): Decca
Номер по каталогу: 430 728-2
Аудиокодек: FLAC
Тип рипа: tracks+.cue
Битрейт аудио: lossless
Продолжительность: 1:13:09
Наличие сканов в содержимом раздачи: нет
Источник: What.CD
Релизёр: nibelune


Tracklist / Треклист
Symfonie č. 7 d moll, op. 70 - 36:40
I. Allegro maestoso - 10:40
  • II. Poco Adagio - 9:39
  • III. Scherzo: Vivace - 7:21
  • IV. Finale: Allegro - 9:01
    Recorded: Masonic Auditorium, Cleveland, Ohio, USA, October 1985
    Symfonie č. 8 G dur, op. 88 - 36:29
    I. Allegro con brio - 10:15
  • II. Adagio - 10:39
  • III. Allegretto grazioso - 6:12
  • IV. Allegro ma non troppo - 9:24
    Recorded: Masonic Auditorium, Cleveland, Ohio, USA, October 1984

    -

    EAC log / Отчёт EAC

    Exact Audio Copy V1.0 beta 4 from 7. December 2014
    EAC extraction logfile from 28. March 2015, 19:43
    Antonín Dvorák / Dvorak Symphonies 7 & 8
    Used drive : HL-DT-STRW/DVD GCC-4242N Adapter: 1 ID: 0
    Read mode : Secure
    Utilize accurate stream : Yes
    Defeat audio cache : Yes
    Make use of C2 pointers : No
    Read offset correction : 102
    Overread into Lead-In and Lead-Out : No
    Fill up missing offset samples with silence : Yes
    Delete leading and trailing silent blocks : No
    Null samples used in CRC calculations : Yes
    Used interface : Native Win32 interface for Win NT & 2000
    Gap handling : Appended to previous track
    Used output format : User Defined Encoder
    Selected bitrate : 1024 kBit/s
    Quality : High
    Add ID3 tag : No
    Command line compressor : C:\Program Files\Exact Audio Copy\FLAC\FLAC.EXE
    Additional command line options : -8 -V -T "ARTIST=%artist%" -T "TITLE=%title%" -T "ALBUM=%albumtitle%" -T "DATE=%year%" -T "TRACKNUMBER=%tracknr%" -T "GENRE=%genre%" -T "PERFORMER=%albuminterpret%" -T "COMPOSER=%composer%" %haslyrics%--tag-from-file=LYRICS="%lyricsfile%"%haslyrics% -T "ALBUMARTIST=%albumartist%" -T "DISCNUMBER=%cdnumber%" -T "TOTALDISCS=%totalcds%" -T "TOTALTRACKS=%numtracks%" -T "COMMENT=%comment%" %source% -o %dest%
    TOC of the extracted CD
    Track | Start | Length | Start sector | End sector
    ---------------------------------------------------------
    1 | 0:00.32 | 10:39.45 | 32 | 48001
    2 | 10:40.02 | 9:39.18 | 48002 | 91444
    3 | 20:19.20 | 7:20.47 | 91445 | 124491
    4 | 27:39.67 | 9:00.58 | 124492 | 165049
    5 | 36:40.50 | 10:14.42 | 165050 | 211141
    6 | 46:55.17 | 10:38.38 | 211142 | 259029
    7 | 57:33.55 | 6:11.40 | 259030 | 286894
    8 | 63:45.20 | 9:23.70 | 286895 | 329189
    Track 1
    Filename C:\EAC\01 - Symphony 7 in D minor, op. 70 - I. Allegro maestoso.wav
    Pre-gap length 0:00:02.42
    Peak level 85.8 %
    Extraction speed 2.3 X
    Track quality 100.0 %
    Test CRC 2A691294
    Copy CRC 2A691294
    Accurately ripped (confidence 23) [E2868BD6] (AR v2)
    Copy OK
    Track 2
    Filename C:\EAC\02 - Symphony 7 in D minor, op. 70 - II. Poco adagio.wav
    Pre-gap length 0:00:01.69
    Peak level 74.4 %
    Extraction speed 2.7 X
    Track quality 100.0 %
    Test CRC AB12F066
    Copy CRC AB12F066
    Accurately ripped (confidence 22) [57A815B8] (AR v2)
    Copy OK
    Track 3
    Filename C:\EAC\03 - Symphony 7 in D minor, op. 70 - III. Scherzo. Vivace.wav
    Peak level 77.9 %
    Extraction speed 3.0 X
    Track quality 100.0 %
    Test CRC 8F562693
    Copy CRC 8F562693
    Accurately ripped (confidence 22) [72E1EE2F] (AR v2)
    Copy OK
    Track 4
    Filename C:\EAC\04 - Symphony 7 in D minor, op. 70 - IV. Finale. Allegro.wav
    Peak level 76.6 %
    Extraction speed 3.3 X
    Track quality 100.0 %
    Test CRC 8B42CB85
    Copy CRC 8B42CB85
    Accurately ripped (confidence 22) [2DF039A5] (AR v2)
    Copy OK
    Track 5
    Filename C:\EAC\05 - Symphony 8 in G major, op. 88 - I. Allegro con brio.wav
    Pre-gap length 0:00:10.37
    Peak level 97.9 %
    Extraction speed 3.5 X
    Track quality 100.0 %
    Test CRC 57B8FE50
    Copy CRC 57B8FE50
    Accurately ripped (confidence 22) [6C11E31F] (AR v2)
    Copy OK
    Track 6
    Filename C:\EAC\06 - Symphony 8 in G major, op. 88 - II. Adagio.wav
    Pre-gap length 0:00:01.16
    Peak level 97.5 %
    Extraction speed 3.8 X
    Track quality 100.0 %
    Test CRC 5103299A
    Copy CRC 5103299A
    Accurately ripped (confidence 22) [F536EABC] (AR v2)
    Copy OK
    Track 7
    Filename C:\EAC\07 - Symphony 8 in G major, op. 88 - III. Allegretto grazioso.wav
    Pre-gap length 0:00:00.46
    Peak level 93.2 %
    Extraction speed 3.6 X
    Track quality 99.9 %
    Test CRC 51A6BCDF
    Copy CRC 51A6BCDF
    Accurately ripped (confidence 22) [2903CC18] (AR v2)
    Copy OK
    Track 8
    Filename C:\EAC\08 - Symphony 8 in G major, op. 88 - IV. Allegro, ma non troppo.wav
    Pre-gap length 0:00:00.90
    Peak level 98.2 %
    Extraction speed 4.2 X
    Track quality 100.0 %
    Test CRC FE6659BB
    Copy CRC FE6659BB
    Accurately ripped (confidence 21) [833094C6] (AR v2)
    Copy OK
    All tracks accurately ripped
    No errors occurred
    End of status report
    ---- CUETools DB Plugin V2.1.4
    [CTDB TOCID: JR5iTPsC7ja14YLXt71.8iEfeqI-] found
    Submit result: JR5iTPsC7ja14YLXt71.8iEfeqI- has been confirmed
    Track | CTDB Status
    1 | ( 7/12) Accurately ripped
    2 | ( 7/12) Accurately ripped
    3 | ( 7/12) Accurately ripped
    4 | ( 7/12) Accurately ripped
    5 | ( 7/12) Accurately ripped
    6 | ( 7/12) Accurately ripped
    7 | ( 7/12) Accurately ripped
    8 | ( 7/12) Accurately ripped
    ==== Log checksum 3ADCC4B08F248BBB19DC46DADD9735B0464288B87B5A7FA54515942731762949 ====

    auCDtect Task Manager log / Отчёт auCDtect Task Manager

    -----------------------
    DON'T MODIFY THIS FILE
    -----------------------
    PERFORMER: auCDtect Task Manager, ver. 1.5.1RC3 build 1.5.1.4
    Copyright (c) 2008-2010 y-soft. All rights reserved
    ANALYZER: auCDtect: CD records authenticity detector, version 0.8.2
    Copyright (c) 2004 Oleg Berngardt. All rights reserved.
    Copyright (c) 2004 Alexander Djourik. All rights reserved.
    FILE: 06 - Symfonie c. 8 G dur, op. 88 - II. Adagio.flac
    Size: 44650400 Hash: 7B8E0288461FBFF67F0543309D0D7B9E Accuracy: -m0
    Conclusion: CDDA 99%
    Signature: CC4A2892B44D43E143D4921C123C80DB601B62B7
    FILE: 05 - Symfonie c. 8 G dur, op. 88 - I. Allegro con brio.flac
    Size: 50133204 Hash: AA2FBF0DB372FDA7BBCEBF13F89850E0 Accuracy: -m0
    Conclusion: CDDA 99%
    Signature: 73CE2367443AF6791AF17EF232AA6BB70200C6B3
    FILE: 04 - Symfonie c. 7 d moll, op. 70 - IV. Finale. Allegro.flac
    Size: 41703101 Hash: D4307AEA28973C5ACB553801FC8A4D0E Accuracy: -m0
    Conclusion: CDDA 99%
    Signature: D14347C9A08D5A2E8ADE46824061D0EFC3269E3D
    FILE: 03 - Symfonie c. 7 d moll, op. 70 - III. Scherzo. Vivace.flac
    Size: 31559506 Hash: 8FDD866EF9928FA8B2392CD9B0757D01 Accuracy: -m0
    Conclusion: CDDA 100%
    Signature: 4891FE33BA5A8717EED38456F69644C34F0286B2
    FILE: 02 - Symfonie c. 7 d moll, op. 70 - II. Poco Adagio.flac
    Size: 36758173 Hash: 8D19F3269178760DD1FE28D188D5EBC0 Accuracy: -m0
    Conclusion: CDDA 100%
    Signature: 9408314216BBB78ADEF6739229710A957519281F
    FILE: 01 - Symfonie c. 7 d moll, op. 70 - I. Allegro maestoso.flac
    Size: 45400158 Hash: AEFC7AE31ED4945B3BF84D827829C50B Accuracy: -m0
    Conclusion: CDDA 100%
    Signature: 772BD67FB911A5771D9E0F6D5F989D1064E5ED40
    FILE: 08 - Symfonie c. 8 G dur, op. 88 - IV. Allegro ma non troppo.flac
    Size: 45876633 Hash: 5209741F24CA1630AF8C890BE0478E60 Accuracy: -m0
    Conclusion: CDDA 100%
    Signature: 23380EED5E0955E1D682281066604A2D7D882137
    FILE: 07 - Symfonie c. 8 G dur, op. 88 - III. Allegretto grazioso.flac
    Size: 30272019 Hash: 0498171B75FD4ADD87414B6C1C74F030 Accuracy: -m0
    Conclusion: CDDA 100%
    Signature: 997580B8E2E900AA1B387EDFA37E08BC6EB96F87

    CUETools log / Отчёт CUETools

    [CUETools log; Date: 24.07.2015 10:57:47; Version: 2.1.4]
    Pregap length 00:00:32.
    [AccurateRip ID: 00171f0e-009911a1-5f112508] found.
    Track [ CRC | V2 ] Status
    01 [7c9cc15f|e2868bd6] (12+23/85) Accurately ripped
    02 [1e22da7c|57a815b8] (12+22/85) Accurately ripped
    03 [bd11e3d4|72e1ee2f] (12+22/84) Accurately ripped
    04 [fb28e11e|2df039a5] (12+22/84) Accurately ripped
    05 [5ec9a33d|6c11e31f] (12+22/84) Accurately ripped
    06 [13552dcc|f536eabc] (12+22/84) Accurately ripped
    07 [412cbe00|2903cc18] (12+22/86) Accurately ripped
    08 [1599df4c|833094c6] (12+21/84) Accurately ripped
    Offsetted by -817:
    01 [af3e2a46] (06/85) Accurately ripped
    02 [667e5a45] (06/85) Accurately ripped
    03 [3fd15ea1] (06/84) Accurately ripped
    04 [ac293bc9] (06/84) Accurately ripped
    05 [13ea1189] (06/84) Accurately ripped
    06 [02505122] (06/84) Accurately ripped
    07 [6c3a5fc3] (05/86) Accurately ripped
    08 [36c23627] (06/84) Accurately ripped
    Offsetted by -1957:
    01 [072e0575] (00/85) No match (V2 was not tested)
    02 [927c4a1d] (00/85) No match (V2 was not tested)
    03 [fefc2252] (00/84) No match (V2 was not tested)
    04 [eaade4ea] (00/84) No match (V2 was not tested)
    05 [706d66ec] (00/84) No match (V2 was not tested)
    06 [f989db56] (00/84) No match (V2 was not tested)
    07 [d8ca42d4] (00/86) No match (V2 was not tested)
    08 [6c85774f] (00/84) No match (V2 was not tested)
    Track Peak [ CRC32 ] [W/O NULL] [ LOG ]
    -- 98,2 [336D861A] [59B4C8D1]
    01 85,8 [2A691294] [AC597CE4] CRC32
    02 74,4 [AB12F066] [BB1FDC5A] CRC32
    03 77,9 [8F562693] [BBBB1B1F] CRC32
    04 76,6 [8B42CB85] [CC62E7CF] CRC32
    05 97,9 [57B8FE50] [D20D48BA] CRC32
    06 97,5 [5103299A] [F535D9FB] CRC32
    07 93,2 [51A6BCDF] [8CC2C5B8] CRC32
    08 98,2 [FE6659BB] [C6E2E5F7] CRC32

    CUE sheet

    TITLE "Antonín Dvořák: Symfonie č. 7 a 8"
    PERFORMER "Christoph von Dohnányi"
    REM GENRE Classical
    REM DISCID 5F112508
    REM COMMENT "ExactAudioCopy v1.0b4"
    CATALOG 0028942108325
    FILE "01 - Symfonie c. 7 d moll, op. 70 - I. Allegro maestoso.flac" WAVE
    TRACK 01 AUDIO
    TITLE "Symfonie č. 7 d moll, op. 70: I. Allegro maestoso"
    PERFORMER "Cleveland Orchestra. Christoph von Dohnányi, conductor"
    REM DATE 1985
    PREGAP 00:00:32
    INDEX 01 00:00:00
    TRACK 02 AUDIO
    TITLE "Symfonie č. 7 d moll, op. 70: II. Poco Adagio"
    PERFORMER "Cleveland Orchestra. Christoph von Dohnányi, conductor"
    REM DATE 1985
    INDEX 00 10:37:68
    FILE "02 - Symfonie c. 7 d moll, op. 70 - II. Poco Adagio.flac" WAVE
    INDEX 01 00:00:00
    FILE "03 - Symfonie c. 7 d moll, op. 70 - III. Scherzo. Vivace.flac" WAVE
    TRACK 03 AUDIO
    TITLE "Symfonie č. 7 d moll, op. 70: III. Scherzo: Vivace"
    PERFORMER "Cleveland Orchestra. Christoph von Dohnányi, conductor"
    REM DATE 1985
    INDEX 01 00:00:00
    FILE "04 - Symfonie c. 7 d moll, op. 70 - IV. Finale. Allegro.flac" WAVE
    TRACK 04 AUDIO
    TITLE "Symfonie č. 7 d moll, op. 70: IV. Finale: Allegro"
    PERFORMER "Cleveland Orchestra. Christoph von Dohnányi, conductor"
    REM DATE 1985
    INDEX 01 00:00:00
    TRACK 05 AUDIO
    TITLE "Symfonie č. 8 G dur, op. 88: I. Allegro con brio"
    PERFORMER "Cleveland Orchestra. Christoph von Dohnányi, conductor"
    REM DATE 1984
    INDEX 00 08:50:30
    FILE "05 - Symfonie c. 8 G dur, op. 88 - I. Allegro con brio.flac" WAVE
    INDEX 01 00:00:00
    TRACK 06 AUDIO
    TITLE "Symfonie č. 8 G dur, op. 88: II. Adagio"
    PERFORMER "Cleveland Orchestra. Christoph von Dohnányi, conductor"
    REM DATE 1984
    INDEX 00 10:13:30
    FILE "06 - Symfonie c. 8 G dur, op. 88 - II. Adagio.flac" WAVE
    INDEX 01 00:00:00
    TRACK 07 AUDIO
    TITLE "Symfonie č. 8 G dur, op. 88: III. Allegretto grazioso"
    PERFORMER "Cleveland Orchestra. Christoph von Dohnányi, conductor"
    REM DATE 1984
    INDEX 00 10:38:03
    FILE "07 - Symfonie c. 8 G dur, op. 88 - III. Allegretto grazioso.flac" WAVE
    INDEX 01 00:00:00
    TRACK 08 AUDIO
    TITLE "Symfonie č. 8 G dur, op. 88: IV. Allegro ma non troppo"
    PERFORMER "Cleveland Orchestra. Christoph von Dohnányi, conductor"
    REM DATE 1984
    INDEX 00 06:10:47
    FILE "08 - Symfonie c. 8 G dur, op. 88 - IV. Allegro ma non troppo.flac" WAVE
    INDEX 01 00:00:00
    -



  • Показать сообщения:    

    Текущее время: 10-Дек 11:57

    Часовой пояс: UTC + 3


    Вы не можете начинать темы
    Вы не можете отвечать на сообщения
    Вы не можете редактировать свои сообщения
    Вы не можете удалять свои сообщения
    Вы не можете голосовать в опросах
    Вы не можете прикреплять файлы к сообщениям
    Вы не можете скачивать файлы