Солино / Solino (Фатих Акин / Fatih Akin) [2002, Германия, Италия, драма, мелодрама, DVDRip] VO (Project Web Money)


Статистика раздачи [Обновить пиров]
Размер:  1.46 GB   |    Зарегистрирован:  8 месяцев 20 дней   |    Скачан:  0 раз

Полного источника не было: Никогда

 
   
 
 
 

[Цитировать]

Солино / Solino
Страна: Германия, Италия
Жанр: драма, мелодрама
Год выпуска: 2002
Продолжительность: 01:59:47
Перевод: Одноголосый закадровый Project_Web_Money по переводу Mask
Cубтитры: нет
Оригинальная аудиодорожка: нет
Режиссер: Фатих Акин / Fatih Akin
В ролях: Барнеби Мечурат, Мориц Бляйбтрой, Тициана Лодато, Антонелла Аттили, Анника Шмитц, Кристиан Таше
Описание: Италия, 60-е годы. Братья Джиджи и Джанкарло вынуждены покинуть со своими родителями родной солнечный городок Солино и переехать в Германию. Обосновавшись в рурском городке, семья начинает собственный бизнес открытием первой в Рурской области пиццерии. В то время как глава семейства Романо энергично расширяет свое дело, а его жена годами мучается ностальгией по родине и не может найти себя в новой жизни, Джиджи и Джанкарло наслаждаются первым опытом свободы, возможностью выбора музыкальных cимпатий и безнаказанностью курения марихуаны. При этом они все больше превращаются друг для друга в соперников — в поисках любви, успеха и ответа на непростой вопрос о самом главном в жизни.
Один из фильмов, который обязателен к просмотру, для тех кто действительно любит КИНО. И если Вам пришелся по душе фильм "Новый кинотеатр «Парадизо»" (Nuovo cinema Paradiso), то обязательно обратите внимание на этот фильм, Вы не пожалеете!!!

Доп. информация: Огромная благодарность за перевод Mask и tеko за прекрасно сделанный рип!!!

Сэмпл: http://multi-up.com/1059870
Качество видео: DVDRip
Формат видео: AVI
Видео: 688x384 (1.79:1), 25 fps, XviD build 73 ~1285 kbps avg, 0.19 bit/pixel
Аудио: 48 kHz, AC3 Dolby Digital, 3/2 (L,C,R,l,r) + LFE ch, ~448 kbps VO Project_Web_Money

MediaInfo

Солино_2002_VO_Project_Web_Money.avi
Формат : AVI
Формат/Информация : Audio Video Interleave
Размер файла : 1,46 Гбайт
Продолжительность : 1 ч. 59 м.
Общий поток : 1743 Кбит/сек
Программа кодирования : VirtualDubMod 1.5.10.2 (build 2540/release)
Библиотека кодирования : VirtualDubMod build 2540/release
Видео
Идентификатор : 0
Формат : MPEG-4 Visual
Профиль формата : Advanced Simple@L5
Параметр BVOP формата : 1
Параметр QPel формата : Нет
Параметр GMC формата : Без точки перехода
Параметр матрицы формата : Выборочная
Идентификатор кодека : XVID
Идентификатор кодека/Подсказка : XviD
Продолжительность : 1 ч. 59 м.
Битрейт : 1286 Кбит/сек
Ширина : 688 пикс.
Высота : 384 пикс.
Соотношение сторон : 16:9
Частота кадров : 25,000 кадр/сек
Цветовое пространство : YUV
Подвыборка цветности : 4:2:0
Битовая глубина : 8 бит
Тип развёртки : Прогрессивная
Метод сжатия : С потерями
Бит/(Пиксели*Кадры) : 0.195
Размер потока : 1,08 Гбайт (74%)
Библиотека кодирования : XviD 73
Аудио
Идентификатор : 1
Формат : AC-3
Формат/Информация : Audio Coding 3
Расширение режима : CM (complete main)
Идентификатор кодека : 2000
Продолжительность : 1 ч. 59 м.
Вид битрейта : Постоянный
Битрейт : 448 Кбит/сек
Каналы : 6 каналов
Расположение каналов : Front: L C R, Side: L R, LFE
Частота : 48,0 КГц
Битовая глубина : 16 бит
Метод сжатия : С потерями
Размер потока : 384 Мбайт (26%)
Выравнивание : Разделение по промежуткам
Продолжительность промежутка : 40 мс. (1,00 видеокадр)
Время предзагрузки промежутка : 500 ms

Скриншот c названием фильма

Скриншоты

[teatrix.ru].t21822.torrent 
Торрент: Зарегистрирован [ 2016-03-20 12:52 ] · C8659A8E03F312C2EEFECCC50219CD9608DA4F1D

Скачать .torrent

Скачать

15 KB

Статус: проверено
Скачан: 0 раз
Размер: 1.46 GB
terms.php



Быстрый ответ

Имя:

      
Для отправки сообщений необходимо включить JavaScript
Показать сообщения:    

Текущее время: 10-Дек 00:21

Часовой пояс: UTC + 3


Вы можете начинать темы
Вы можете отвечать на сообщения
Вы не можете редактировать свои сообщения
Вы не можете удалять свои сообщения
Вы не можете голосовать в опросах
Вы не можете прикреплять файлы к сообщениям
Вы можете скачивать файлы