(Opera) Giuseppe Verdi - Aida / Джузеппе Верди - Аида (John Fiore; Sharon Sweet, Dolora Zajick, Juan Pons, Michael Sylvester, Paul Plishka), 1994 - live from the Metropolitan Opera / 1994, FLAC (tracks+.cue), lossless


 

[Цитировать]

Giuseppe Verdi - Aida / Джузеппе Верди - Аида (John Fiore; Sharon Sweet, Dolora Zajick, Juan Pons, Michael Sylvester, Paul Plishka)
Жанр: Opera
Страна-производитель диска: Италия
Год издания диска: 1994
Издатель (лейбл): Serenissima
Дата записи: 1994
Аудиокодек: FLAC
Тип рипа: tracks+.cue
Битрейт аудио: lossless
Продолжительность: 167:39
Источник: релизер (Guillermo)
Исполнители:
Aida - Sharon Sweet,
Amneris - Dolora Zajick,
Amonasro - Juan (Joan) Pons,
Radamès - Michael Sylvester,
Ramphis - Paul Plishka,
Il Re di Egitto - Hao Jiang Tian,
Una Sacerdotessa - Camellia Johnson,
Un Messaggero - John Horton Murray.
Conductor - John Fiore,
Orchestra and Chorus of the Metropolitan Opera.
Recorded live at the Metropolitan Opera, February 05, 1994.

Лог создания рипаЛог создания рипа CD 1

Exact Audio Copy V1.0 beta 3 from 29. August 2011
EAC extraction logfile from 22. July 2015, 9:33
Artista desconocido / Título desconocido
Used drive : HL-DT-STDVDRAM GH24NSC0 Adapter: 3 ID: 0
Read mode : Secure
Utilize accurate stream : Yes
Defeat audio cache : Yes
Make use of C2 pointers : No
Read offset correction : 6
Overread into Lead-In and Lead-Out : No
Fill up missing offset samples with silence : Yes
Delete leading and trailing silent blocks : No
Null samples used in CRC calculations : Yes
Used interface : Native Win32 interface for Win NT & 2000
Gap handling : Appended to previous track
Used output format : User Defined Encoder
Selected bitrate : 768 kBit/s
Quality : High
Add ID3 tag : No
Command line compressor : C:\Program Files (x86)\Exact Audio Copy\FLAC\FLAC.EXE
Additional command line options : -8 -V -T "ARTIST=%artist%" -T "TITLE=%title%" -T "ALBUM=%albumtitle%" -T "DATE=%year%" -T "TRACKNUMBER=%tracknr%" -T "GENRE=%genre%" -T "PERFORMER=%albuminterpret%" -T "COMPOSER=%composer%" %haslyrics%--tag-from-file=LYRICS="%lyricsfile%"%haslyrics% -T "ALBUMARTIST=%albumartist%" -T "DISCNUMBER=%cdnumber%" -T "TOTALDISCS=%totalcds%" -T "TOTALTRACKS=%numtracks%" -T "COMMENT=%comment%" %source% -o %dest%
TOC of the extracted CD
Track | Start | Length | Start sector | End sector
---------------------------------------------------------
1 | 0:00.33 | 4:07.25 | 33 | 18582
2 | 4:07.58 | 1:27.10 | 18583 | 25117
3 | 5:34.68 | 4:26.40 | 25118 | 45107
4 | 10:01.33 | 3:18.00 | 45108 | 59957
5 | 13:19.33 | 3:22.22 | 59958 | 75129
6 | 16:41.55 | 2:41.33 | 75130 | 87237
7 | 19:23.13 | 2:57.32 | 87238 | 100544
8 | 22:20.45 | 7:10.63 | 100545 | 132857
9 | 29:31.33 | 2:59.05 | 132858 | 146287
10 | 32:30.38 | 3:33.15 | 146288 | 162277
11 | 36:03.53 | 4:08.55 | 162278 | 180932
12 | 40:12.33 | 2:45.72 | 180933 | 193379
13 | 42:58.30 | 1:29.03 | 193380 | 200057
14 | 44:27.33 | 1:35.07 | 200058 | 207189
15 | 46:02.40 | 4:59.58 | 207190 | 229672
16 | 51:02.23 | 5:09.47 | 229673 | 252894
17 | 56:11.70 | 3:13.38 | 252895 | 267407
18 | 59:25.33 | 1:34.37 | 267408 | 274494
19 | 60:59.70 | 4:33.33 | 274495 | 295002
20 | 65:33.28 | 2:24.05 | 295003 | 305807
21 | 67:57.33 | 2:08.47 | 305808 | 315454
22 | 70:06.05 | 5:52.28 | 315455 | 341882
Track 1
Filename f:\Users\Guillermo\Desktop\EAC convertidos\01 Pista01.wav
Pre-gap length 0:00:02.44
Peak level 80.7 %
Extraction speed 1.7 X
Track quality 100.0 %
Test CRC 691306A4
Copy CRC 691306A4
Copy OK
Track 2
Filename f:\Users\Guillermo\Desktop\EAC convertidos\02 Pista02.wav
Peak level 48.6 %
Extraction speed 1.3 X
Track quality 100.0 %
Test CRC 483EF918
Copy CRC 483EF918
Copy OK
Track 3
Filename f:\Users\Guillermo\Desktop\EAC convertidos\03 Pista03.wav
Peak level 75.2 %
Extraction speed 1.9 X
Track quality 100.0 %
Test CRC C9AFC93A
Copy CRC C9AFC93A
Copy OK
Track 4
Filename f:\Users\Guillermo\Desktop\EAC convertidos\04 Pista04.wav
Peak level 86.7 %
Extraction speed 1.9 X
Track quality 100.0 %
Test CRC 5119704A
Copy CRC 5119704A
Copy OK
Track 5
Filename f:\Users\Guillermo\Desktop\EAC convertidos\05 Pista05.wav
Peak level 78.3 %
Extraction speed 2.1 X
Track quality 100.0 %
Test CRC 64F62AFE
Copy CRC 64F62AFE
Copy OK
Track 6
Filename f:\Users\Guillermo\Desktop\EAC convertidos\06 Pista06.wav
Peak level 83.2 %
Extraction speed 2.0 X
Track quality 100.0 %
Test CRC 4F195A9A
Copy CRC 4F195A9A
Copy OK
Track 7
Filename f:\Users\Guillermo\Desktop\EAC convertidos\07 Pista07.wav
Peak level 88.7 %
Extraction speed 2.2 X
Track quality 100.0 %
Test CRC E2169730
Copy CRC E2169730
Copy OK
Track 8
Filename f:\Users\Guillermo\Desktop\EAC convertidos\08 Pista08.wav
Peak level 72.6 %
Extraction speed 2.4 X
Track quality 99.9 %
Test CRC C27880BF
Copy CRC C27880BF
Copy OK
Track 9
Filename f:\Users\Guillermo\Desktop\EAC convertidos\09 Pista09.wav
Peak level 13.5 %
Extraction speed 2.0 X
Track quality 99.8 %
Test CRC 5E7BC630
Copy CRC 5E7BC630
Copy OK
Track 10
Filename f:\Users\Guillermo\Desktop\EAC convertidos\10 Pista10.wav
Peak level 80.2 %
Extraction speed 2.1 X
Track quality 99.9 %
Test CRC C288B665
Copy CRC C288B665
Copy OK
Track 11
Filename f:\Users\Guillermo\Desktop\EAC convertidos\11 Pista11.wav
Peak level 86.7 %
Extraction speed 2.8 X
Track quality 100.0 %
Test CRC 2AE5592E
Copy CRC 2AE5592E
Copy OK
Track 12
Filename f:\Users\Guillermo\Desktop\EAC convertidos\12 Pista12.wav
Pre-gap length 0:00:11.00
Peak level 76.8 %
Extraction speed 2.7 X
Track quality 100.0 %
Test CRC 0B14D636
Copy CRC 0B14D636
Copy OK
Track 13
Filename f:\Users\Guillermo\Desktop\EAC convertidos\13 Pista13.wav
Peak level 88.0 %
Extraction speed 2.2 X
Track quality 100.0 %
Test CRC 7C41DA66
Copy CRC 7C41DA66
Copy OK
Track 14
Filename f:\Users\Guillermo\Desktop\EAC convertidos\14 Pista14.wav
Peak level 67.9 %
Extraction speed 2.3 X
Track quality 100.0 %
Test CRC 5000A1C3
Copy CRC 5000A1C3
Copy OK
Track 15
Filename f:\Users\Guillermo\Desktop\EAC convertidos\15 Pista15.wav
Peak level 74.1 %
Extraction speed 3.1 X
Track quality 100.0 %
Test CRC 8DD5ED3A
Copy CRC 8DD5ED3A
Copy OK
Track 16
Filename f:\Users\Guillermo\Desktop\EAC convertidos\16 Pista16.wav
Peak level 76.1 %
Extraction speed 3.3 X
Track quality 100.0 %
Test CRC 084DA1DA
Copy CRC 084DA1DA
Copy OK
Track 17
Filename f:\Users\Guillermo\Desktop\EAC convertidos\17 Pista17.wav
Peak level 80.6 %
Extraction speed 3.1 X
Track quality 100.0 %
Test CRC 4E5EDAAB
Copy CRC 4E5EDAAB
Copy OK
Track 18
Filename f:\Users\Guillermo\Desktop\EAC convertidos\18 Pista18.wav
Peak level 73.8 %
Extraction speed 2.5 X
Track quality 100.0 %
Test CRC CCEFBAC9
Copy CRC CCEFBAC9
Copy OK
Track 19
Filename f:\Users\Guillermo\Desktop\EAC convertidos\19 Pista19.wav
Peak level 83.3 %
Extraction speed 2.9 X
Track quality 99.9 %
Test CRC 0C8D1535
Copy CRC 0C8D1535
Copy OK
Track 20
Filename f:\Users\Guillermo\Desktop\EAC convertidos\20 Pista20.wav
Peak level 85.7 %
Extraction speed 3.0 X
Track quality 100.0 %
Test CRC 7A410CAC
Copy CRC 7A410CAC
Copy OK
Track 21
Filename f:\Users\Guillermo\Desktop\EAC convertidos\21 Pista21.wav
Peak level 55.7 %
Extraction speed 2.9 X
Track quality 100.0 %
Test CRC B51A9FB0
Copy CRC B51A9FB0
Copy OK
Track 22
Filename f:\Users\Guillermo\Desktop\EAC convertidos\22 Pista22.wav
Peak level 80.2 %
Extraction speed 3.7 X
Track quality 100.0 %
Test CRC 6D46AA7F
Copy CRC 6D46AA7F
Copy OK
No errors occurred
End of status report
==== Log checksum A72F2FF4A89C830095D0AA478DCAC33EBEB91046F56D82BDFDD5014D6EE0A314 ====

Лог создания рипа CD 2

Exact Audio Copy V1.0 beta 3 from 29. August 2011
EAC extraction logfile from 22. July 2015, 10:53
Artista desconocido / Título desconocido
Used drive : HL-DT-STDVDRAM GH24NSC0 Adapter: 3 ID: 0
Read mode : Secure
Utilize accurate stream : Yes
Defeat audio cache : Yes
Make use of C2 pointers : No
Read offset correction : 6
Overread into Lead-In and Lead-Out : No
Fill up missing offset samples with silence : Yes
Delete leading and trailing silent blocks : No
Null samples used in CRC calculations : Yes
Used interface : Native Win32 interface for Win NT & 2000
Gap handling : Appended to previous track
Used output format : User Defined Encoder
Selected bitrate : 768 kBit/s
Quality : High
Add ID3 tag : No
Command line compressor : C:\Program Files (x86)\Exact Audio Copy\FLAC\FLAC.EXE
Additional command line options : -8 -V -T "ARTIST=%artist%" -T "TITLE=%title%" -T "ALBUM=%albumtitle%" -T "DATE=%year%" -T "TRACKNUMBER=%tracknr%" -T "GENRE=%genre%" -T "PERFORMER=%albuminterpret%" -T "COMPOSER=%composer%" %haslyrics%--tag-from-file=LYRICS="%lyricsfile%"%haslyrics% -T "ALBUMARTIST=%albumartist%" -T "DISCNUMBER=%cdnumber%" -T "TOTALDISCS=%totalcds%" -T "TOTALTRACKS=%numtracks%" -T "COMMENT=%comment%" %source% -o %dest%
TOC of the extracted CD
Track | Start | Length | Start sector | End sector
---------------------------------------------------------
1 | 0:00.33 | 5:24.50 | 33 | 24382
2 | 5:25.08 | 5:30.50 | 24383 | 49182
3 | 10:55.58 | 1:04.70 | 49183 | 54052
4 | 12:00.53 | 5:38.35 | 54053 | 79437
5 | 17:39.13 | 8:29.12 | 79438 | 117624
6 | 26:08.25 | 3:07.35 | 117625 | 131684
7 | 29:15.60 | 6:18.15 | 131685 | 160049
8 | 35:34.00 | 3:25.58 | 160050 | 175482
9 | 38:59.58 | 3:00.05 | 175483 | 188987
10 | 41:59.63 | 6:39.70 | 188988 | 218982
11 | 48:39.58 | 7:40.00 | 218983 | 253482
12 | 56:19.58 | 3:50.02 | 253483 | 270734
13 | 60:09.60 | 6:36.73 | 270735 | 300507
14 | 66:46.58 | 5:05.00 | 300508 | 323382
Track 1
Filename f:\Users\Guillermo\Desktop\EAC convertidos\01 Pista01.wav
Pre-gap length 0:00:02.44
Peak level 88.6 %
Extraction speed 1.8 X
Track quality 100.0 %
Test CRC E64F774C
Copy CRC E64F774C
Copy OK
Track 2
Filename f:\Users\Guillermo\Desktop\EAC convertidos\02 Pista02.wav
Pre-gap length 0:00:10.33
Peak level 38.7 %
Extraction speed 2.0 X
Track quality 100.0 %
Test CRC 372CE83C
Copy CRC 372CE83C
Copy OK
Track 3
Filename f:\Users\Guillermo\Desktop\EAC convertidos\03 Pista03.wav
Peak level 63.3 %
Extraction speed 1.3 X
Track quality 100.0 %
Test CRC 3F275EE0
Copy CRC 3F275EE0
Copy OK
Track 4
Filename f:\Users\Guillermo\Desktop\EAC convertidos\04 Pista04.wav
Peak level 76.1 %
Extraction speed 2.3 X
Track quality 100.0 %
Test CRC 3E8DF8F6
Copy CRC 3E8DF8F6
Copy OK
Track 5
Filename f:\Users\Guillermo\Desktop\EAC convertidos\05 Pista05.wav
Peak level 79.7 %
Extraction speed 2.7 X
Track quality 100.0 %
Test CRC 121FD36F
Copy CRC 121FD36F
Copy OK
Track 6
Filename f:\Users\Guillermo\Desktop\EAC convertidos\06 Pista06.wav
Peak level 78.7 %
Extraction speed 2.4 X
Track quality 100.0 %
Test CRC FC601190
Copy CRC FC601190
Copy OK
Track 7
Filename f:\Users\Guillermo\Desktop\EAC convertidos\07 Pista07.wav
Peak level 77.6 %
Extraction speed 2.9 X
Track quality 100.0 %
Test CRC 65BA654D
Copy CRC 65BA654D
Copy OK
Track 8
Filename f:\Users\Guillermo\Desktop\EAC convertidos\08 Pista08.wav
Peak level 97.9 %
Extraction speed 2.7 X
Track quality 100.0 %
Test CRC A2516028
Copy CRC A2516028
Copy OK
Track 9
Filename f:\Users\Guillermo\Desktop\EAC convertidos\09 Pista09.wav
Pre-gap length 0:00:08.00
Peak level 82.3 %
Extraction speed 2.7 X
Track quality 100.0 %
Test CRC DC7E2246
Copy CRC DC7E2246
Copy OK
Track 10
Filename f:\Users\Guillermo\Desktop\EAC convertidos\10 Pista10.wav
Peak level 85.8 %
Extraction speed 2.9 X
Track quality 99.9 %
Test CRC 8ECD7269
Copy CRC 8ECD7269
Copy OK
Track 11
Filename f:\Users\Guillermo\Desktop\EAC convertidos\11 Pista11.wav
Peak level 83.7 %
Extraction speed 3.5 X
Track quality 100.0 %
Test CRC C4BFAA25
Copy CRC C4BFAA25
Copy OK
Track 12
Filename f:\Users\Guillermo\Desktop\EAC convertidos\12 Pista12.wav
Peak level 95.2 %
Extraction speed 3.3 X
Track quality 100.0 %
Test CRC 7F4CE92B
Copy CRC 7F4CE92B
Copy OK
Track 13
Filename f:\Users\Guillermo\Desktop\EAC convertidos\13 Pista13.wav
Peak level 71.1 %
Extraction speed 3.7 X
Track quality 100.0 %
Test CRC 6FB03AA2
Copy CRC 6FB03AA2
Copy OK
Track 14
Filename f:\Users\Guillermo\Desktop\EAC convertidos\14 Pista14.wav
Peak level 71.7 %
Extraction speed 3.2 X
Track quality 99.9 %
Test CRC 03D8BEDC
Copy CRC 03D8BEDC
Copy OK
No errors occurred
End of status report
==== Log checksum 1254F6DBFB489F2CADA1F68FF36E1AFBD93F12E346787EED1F5312158C503AD9 ====

Содержание индексной карты (.CUE)Содержание индексной карты (.CUE) CD 1

REM DISCID 3811CE16
REM COMMENT "ExactAudioCopy v1.0b3"
FILE "01 Pista01.wav" WAVE
TRACK 01 AUDIO
PREGAP 00:00:33
INDEX 01 00:00:00
FILE "02 Pista02.wav" WAVE
TRACK 02 AUDIO
INDEX 01 00:00:00
FILE "03 Pista03.wav" WAVE
TRACK 03 AUDIO
INDEX 01 00:00:00
FILE "04 Pista04.wav" WAVE
TRACK 04 AUDIO
INDEX 01 00:00:00
FILE "05 Pista05.wav" WAVE
TRACK 05 AUDIO
INDEX 01 00:00:00
FILE "06 Pista06.wav" WAVE
TRACK 06 AUDIO
INDEX 01 00:00:00
FILE "07 Pista07.wav" WAVE
TRACK 07 AUDIO
INDEX 01 00:00:00
FILE "08 Pista08.wav" WAVE
TRACK 08 AUDIO
INDEX 01 00:00:00
FILE "09 Pista09.wav" WAVE
TRACK 09 AUDIO
INDEX 01 00:00:00
FILE "10 Pista10.wav" WAVE
TRACK 10 AUDIO
INDEX 01 00:00:00
FILE "11 Pista11.wav" WAVE
TRACK 11 AUDIO
INDEX 01 00:00:00
TRACK 12 AUDIO
INDEX 00 03:57:55
FILE "12 Pista12.wav" WAVE
INDEX 01 00:00:00
FILE "13 Pista13.wav" WAVE
TRACK 13 AUDIO
INDEX 01 00:00:00
FILE "14 Pista14.wav" WAVE
TRACK 14 AUDIO
INDEX 01 00:00:00
FILE "15 Pista15.wav" WAVE
TRACK 15 AUDIO
INDEX 01 00:00:00
FILE "16 Pista16.wav" WAVE
TRACK 16 AUDIO
INDEX 01 00:00:00
FILE "17 Pista17.wav" WAVE
TRACK 17 AUDIO
INDEX 01 00:00:00
FILE "18 Pista18.wav" WAVE
TRACK 18 AUDIO
INDEX 01 00:00:00
FILE "19 Pista19.wav" WAVE
TRACK 19 AUDIO
INDEX 01 00:00:00
FILE "20 Pista20.wav" WAVE
TRACK 20 AUDIO
INDEX 01 00:00:00
FILE "21 Pista21.wav" WAVE
TRACK 21 AUDIO
INDEX 01 00:00:00
FILE "22 Pista22.wav" WAVE
TRACK 22 AUDIO
INDEX 01 00:00:00

Содержание индексной карты (.CUE) CD 2

REM DISCID A810D70E
REM COMMENT "ExactAudioCopy v1.0b3"
FILE "01 Pista01.wav" WAVE
TRACK 01 AUDIO
PREGAP 00:00:33
INDEX 01 00:00:00
TRACK 02 AUDIO
INDEX 00 05:14:25
FILE "02 Pista02.wav" WAVE
INDEX 01 00:00:00
FILE "03 Pista03.wav" WAVE
TRACK 03 AUDIO
INDEX 01 00:00:00
FILE "04 Pista04.wav" WAVE
TRACK 04 AUDIO
INDEX 01 00:00:00
FILE "05 Pista05.wav" WAVE
TRACK 05 AUDIO
INDEX 01 00:00:00
FILE "06 Pista06.wav" WAVE
TRACK 06 AUDIO
INDEX 01 00:00:00
FILE "07 Pista07.wav" WAVE
TRACK 07 AUDIO
INDEX 01 00:00:00
FILE "08 Pista08.wav" WAVE
TRACK 08 AUDIO
INDEX 01 00:00:00
TRACK 09 AUDIO
INDEX 00 03:17:58
FILE "09 Pista09.wav" WAVE
INDEX 01 00:00:00
FILE "10 Pista10.wav" WAVE
TRACK 10 AUDIO
INDEX 01 00:00:00
FILE "11 Pista11.wav" WAVE
TRACK 11 AUDIO
INDEX 01 00:00:00
FILE "12 Pista12.wav" WAVE
TRACK 12 AUDIO
INDEX 01 00:00:00
FILE "13 Pista13.wav" WAVE
TRACK 13 AUDIO
INDEX 01 00:00:00
FILE "14 Pista14.wav" WAVE
TRACK 14 AUDIO
INDEX 01 00:00:00

Треклист

Disc 1:
1. Preludio
Act I:
2. Scene 1: Sì, corre voce che l'Etiope ardisca
3. Scene 1: Se quel guerriero io fossi!... Celeste Aida
4. Scene 1: Quale insolita gioia nel tuo sguardo!
5. Scene 1: Vieni, o diletta appressati
6. Scene 1: Alta cagion v'aduna
7. Scene 1: Su! del Nilo al sacro lido
8. Scene 1: Ritorna vincitor!
9. Scene 2: Possente Fthà...Tu che dal nulla hai tratto
10. Scene 2: Immenso Fthà!...Mortal, diletto ai Numi
11. Scene 2: Nume custode e vindice
Act II:
12. Chi mai fra gl'inni e i plausi
13. Danza degli Schiavi Mori (Dance of the Moorish Slaves)
14. Vieni, sul crin ti piovano
15. Fu la sorte dell'armi a' tuoi funesta
16. Pietà ti prenda del mio dolor
17. Gloria all' Egitto, ad Iside
18. Marcia trionfale (Triumphal March)
19. Ballabile (Ballet)
20. Vieni, o guerriero vindice
21. Salvator della patria
22. Che veggo! Egli? Mio padre! ... Ma tu, Re tu signore possente
Disc 2:
1. O Re, pei sacri Numi' Gloria all Egitto...
Act III:
2. O tu che sei d'Osiride
3. Qui Radamès verrà!
4. O patria mia
5. Ciel! mio padre!
6. Pur ti riveggo, mia dolce Aida
7. Fuggiam gli ardori inospiti ... Là, tra foreste vergini
8. Ma, dimmi: per qual via
Act IV:
9. Scene 1: L'abborrita rivale a me sfuggia
10. Scene 1: Già i sacerdoti adunansi
11. Scene 1: Ohimè! morir mi sento!
12. Scene 1: A lui vivo, la tomba! ... Sacerdoti: compiste un delitto!
13. Scene 2: La fatal pietra sovra me si chiuse
14. Scene 2: O terra addio



Показать сообщения:    

Текущее время: 11-Дек 05:18

Часовой пояс: UTC + 3


Вы не можете начинать темы
Вы не можете отвечать на сообщения
Вы не можете редактировать свои сообщения
Вы не можете удалять свои сообщения
Вы не можете голосовать в опросах
Вы не можете прикреплять файлы к сообщениям
Вы не можете скачивать файлы