(Opera) Erkel - Hunyadi Laszlo (Molnar, Gati, Sass, Solyom-Nagy - Hungarian State Opera Chorus & Orchestra, Kovacs) - 2006, APE (image+.cue) lossless


 

[Цитировать]

Ferenc Erkel - Hunyadi László
Жанр: Opera
Страна-производитель диска: Hungary
Год издания диска: 2006
Издатель (лейбл): Hungaroton
Номер по каталогу: HCD 12581-83
Дата записи: 1995
Аудиокодек: APE
Тип рипа: image+.cue
Битрейт аудио: lossless
Продолжительность: 56'44+47'25+49'52
Источник: собственный рип
Наличие сканов в содержимом раздачи: да
Треклист:

CD1

1. Overture
2. Act One, Scene 1. Chor: We Shall Not Be Faithful Hounds
3. Scene 1. Cavatina: Listen, You Good Followers...One Thing My Heart Regrets...
4. Scene: Welcome, Our Noble Friend
5. March And Scene: I See You At Last, Heroic Nandorfehervar
6. Chorus: Who Are You? We Are King Laszlo's Retainers
7. Scene 2. Scene: Locking Out The King's Retinue?
8. Aria: At Last A Few Calm Moments!
9. Finale-Scene: Greetings To You, True Friend Of My Heart
10. Finale-Scene: Greetings On Behalf Of My King!
11. Finale-Scene And Chor: Mi Remuletes Zaj...Meghalt A Cselszovo

CD2

1. Act Two. Chor/Arietta: A Summer's Night..
2. Aria: My Heart Beats
3. The King's Entry And Scene: Long Live The King Of Laszlo!
4. Aria: May My Star Shine
5. Trio: You See With Me Again
6. Aria 'La Grange': Great Heavens, I Tremble
7. Duet: What Bliss To Have You With Me At Last, My Dear Maria
8. Scene: Now Listen, My Good Hungarians

CD3

1. Act Three, Scene 1. Aria: The Night Is Long
2. Scene: You Come At The Right Moment
3. Aria: Ah, Rapture And Joy Shine In My Eyes
4. Ballet (Csardas-Palotas)
5. Scene: Now You Shall Rest On My Breast Forever
6. Scene 3: Intermezzo
7. Aria: Dark Dungeon
8. Scene: The Angel Of Freedom
9. Scene 4: Funeral March
10. Scene: Where Is He?
11. Prayer: O, Merciful God Of Heaven And Earth/Final Scene: Hungarians, Hear My.
Исполнители:
Ferenc Erkel - Hunyadi László
Laszlo V - Andras Molnar (Tenor)
Cilley Ulrik - Istvan Gati (Baritone)
Szlagyi Erzsebet - Sylvia Sass (Soprano)
Matyas - Zsuzsana Denes (Soprano)
Gara Miklos - Sandor Solyom-Nagy (Baritone)
Maria - Magda Kalmar (Soprano)
Szlagyi Mihaly - Jozsef Gregor (Bass)
Hungarian State Opera Orchestra and Chor
Hungarian Army Male Chor
Janos Kovacs

Лог создания рипа

CD1

Exact Audio Copy V1.0 beta 6 from 9. April 2015
EAC extraction logfile from 13. July 2015, 20:05
Erkel / Hunyadi László, Kovács CD1
Used drive : TS8XDVDSTRANSCEND Adapter: 1 ID: 1
Read mode : Secure
Utilize accurate stream : Yes
Defeat audio cache : Yes
Make use of C2 pointers : No
Read offset correction : 6
Overread into Lead-In and Lead-Out : No
Fill up missing offset samples with silence : Yes
Delete leading and trailing silent blocks : No
Null samples used in CRC calculations : Yes
Used interface : Native Win32 interface for Win NT & 2000
Used output format : Monkey's Audio Lossless Encoder
Selected bitrate : High Lossless Compression
Quality : High
Add ID3 tag : Yes
Command line compressor : C:\Program Files (x86)\Exact Audio Copy\MAC\MAC.exe
TOC of the extracted CD
Track | Start | Length | Start sector | End sector
---------------------------------------------------------
1 | 0:00.33 | 12:38.37 | 33 | 56919
2 | 12:38.70 | 3:08.00 | 56920 | 71019
3 | 15:46.70 | 4:42.08 | 71020 | 92177
4 | 20:29.03 | 4:48.60 | 92178 | 113837
5 | 25:17.63 | 6:57.02 | 113838 | 145114
6 | 32:14.65 | 2:22.15 | 145115 | 155779
7 | 34:37.05 | 4:01.18 | 155780 | 173872
8 | 38:38.23 | 4:45.05 | 173873 | 195252
9 | 43:23.28 | 4:06.42 | 195253 | 213744
10 | 47:29.70 | 3:52.43 | 213745 | 231187
11 | 51:22.38 | 5:21.40 | 231188 | 255302
Range status and errors
Selected range
Filename D:\EAC\Erkel - Hunyadi László, Kovács CD1.wav
Peak level 90.1 %
Extraction speed 1.8 X
Range quality 100.0 %
Test CRC D892F9D2
Copy CRC D892F9D2
Copy OK
No errors occurred
AccurateRip summary
Track 1 accurately ripped (confidence 2) [B850059F] (AR v1)
Track 2 accurately ripped (confidence 2) [1FB0F9FF] (AR v1)
Track 3 accurately ripped (confidence 2) [17E02892] (AR v1)
Track 4 accurately ripped (confidence 2) [C7ED10FF] (AR v1)
Track 5 accurately ripped (confidence 2) [1D4B7911] (AR v1)
Track 6 accurately ripped (confidence 2) [21A85F78] (AR v1)
Track 7 accurately ripped (confidence 2) [39D169D4] (AR v1)
Track 8 accurately ripped (confidence 2) [FB6997B6] (AR v1)
Track 9 accurately ripped (confidence 2) [A564BC04] (AR v1)
Track 10 accurately ripped (confidence 2) [B02D7AEA] (AR v1)
Track 11 accurately ripped (confidence 2) [1E9492B5] (AR v1)
All tracks accurately ripped
End of status report
---- CUETools DB Plugin V2.1.6
[CTDB TOCID: BWRgJ5n80qdEDXpuXD4mozPmK10-] found
Submit result: unrecognized or virtual drive
Track | CTDB Status
1 | (2/2) Accurately ripped
2 | (2/2) Accurately ripped
3 | (2/2) Accurately ripped
4 | (2/2) Accurately ripped
5 | (2/2) Accurately ripped
6 | (2/2) Accurately ripped
7 | (2/2) Accurately ripped
8 | (2/2) Accurately ripped
9 | (2/2) Accurately ripped
10 | (2/2) Accurately ripped
11 | (2/2) Accurately ripped
==== Log checksum 217BDD13E8CFC10178D66123A2D94EE71EE746EA9684E0E43F6B68DB94646264 ====

CD2

Exact Audio Copy V1.0 beta 6 from 9. April 2015
EAC extraction logfile from 13. July 2015, 20:16
Erkel / Hunyadi László, Kovács CD2
Used drive : HL-DT-STDVDRAM GH22NS50 Adapter: 1 ID: 0
Read mode : Secure
Utilize accurate stream : Yes
Defeat audio cache : Yes
Make use of C2 pointers : No
Read offset correction : 667
Overread into Lead-In and Lead-Out : No
Fill up missing offset samples with silence : Yes
Delete leading and trailing silent blocks : No
Null samples used in CRC calculations : Yes
Used interface : Native Win32 interface for Win NT & 2000
Used output format : Monkey's Audio Lossless Encoder
Selected bitrate : High Lossless Compression
Quality : High
Add ID3 tag : Yes
Command line compressor : C:\Program Files (x86)\Exact Audio Copy\MAC\MAC.exe
TOC of the extracted CD
Track | Start | Length | Start sector | End sector
---------------------------------------------------------
1 | 0:00.32 | 3:19.48 | 32 | 15004
2 | 3:20.05 | 8:12.25 | 15005 | 51929
3 | 11:32.30 | 5:31.45 | 51930 | 76799
4 | 17:04.00 | 4:22.25 | 76800 | 96474
5 | 21:26.25 | 3:58.35 | 96475 | 114359
6 | 25:24.60 | 6:16.27 | 114360 | 142586
7 | 31:41.12 | 7:19.60 | 142587 | 175571
8 | 39:00.72 | 8:26.10 | 175572 | 213531
Range status and errors
Selected range
Filename D:\EAC\Erkel - Hunyadi László, Kovács CD2.wav
Peak level 100.0 %
Extraction speed 1.7 X
Range quality 100.0 %
Test CRC C1256317
Copy CRC C1256317
Copy OK
No errors occurred
AccurateRip summary
Track 1 accurately ripped (confidence 2) [465DE3C6] (AR v1)
Track 2 accurately ripped (confidence 2) [70FE7023] (AR v1)
Track 3 accurately ripped (confidence 2) [74A7F5EB] (AR v1)
Track 4 accurately ripped (confidence 2) [2CA12B30] (AR v1)
Track 5 accurately ripped (confidence 2) [181F3CA4] (AR v1)
Track 6 accurately ripped (confidence 2) [D4226CFA] (AR v1)
Track 7 accurately ripped (confidence 2) [4F6792A7] (AR v1)
Track 8 accurately ripped (confidence 2) [8EB6A771] (AR v1)
All tracks accurately ripped
End of status report
---- CUETools DB Plugin V2.1.6
[CTDB TOCID: TNyyOyQbgqHFF6JYDLRGue36LLc-] found
Submit result: TNyyOyQbgqHFF6JYDLRGue36LLc- has been confirmed
Track | CTDB Status
1 | (2/2) Accurately ripped
2 | (2/2) Accurately ripped
3 | (2/2) Accurately ripped
4 | (2/2) Accurately ripped
5 | (2/2) Accurately ripped
6 | (2/2) Accurately ripped
7 | (2/2) Accurately ripped
8 | (2/2) Accurately ripped
==== Log checksum 77311250C4DBC6D67CB9A28B0955347C151CF7E27EE5E1AEFC02E6E51DECD918 ====

CD3

Exact Audio Copy V1.0 beta 6 from 9. April 2015
EAC extraction logfile from 13. July 2015, 19:45
Erkel / Hunyadi László, Kovács CD3
Used drive : TSSTcorpCDDVDW SE-208AB Adapter: 1 ID: 2
Read mode : Secure
Utilize accurate stream : Yes
Defeat audio cache : Yes
Make use of C2 pointers : No
Read offset correction : 6
Overread into Lead-In and Lead-Out : No
Fill up missing offset samples with silence : Yes
Delete leading and trailing silent blocks : No
Null samples used in CRC calculations : Yes
Used interface : Native Win32 interface for Win NT & 2000
Used output format : Monkey's Audio Lossless Encoder
Selected bitrate : High Lossless Compression
Quality : High
Add ID3 tag : Yes
Command line compressor : C:\Program Files (x86)\Exact Audio Copy\MAC\MAC.exe
TOC of the extracted CD
Track | Start | Length | Start sector | End sector
---------------------------------------------------------
1 | 0:00.32 | 4:34.60 | 32 | 20641
2 | 4:35.17 | 3:57.15 | 20642 | 38431
3 | 8:32.32 | 2:55.33 | 38432 | 51589
4 | 11:27.65 | 3:56.32 | 51590 | 69321
5 | 15:24.22 | 4:18.50 | 69322 | 88721
6 | 19:42.72 | 1:17.58 | 88722 | 94554
7 | 21:00.55 | 5:06.42 | 94555 | 117546
8 | 26:07.22 | 3:34.15 | 117547 | 133611
9 | 29:41.37 | 7:42.53 | 133612 | 168314
10 | 37:24.15 | 3:14.55 | 168315 | 182919
11 | 40:38.70 | 2:34.27 | 182920 | 194496
12 | 43:13.22 | 6:39.20 | 194497 | 224441
Range status and errors
Selected range
Filename D:\EAC\Erkel - Hunyadi László, Kovács CD3.wav
Peak level 93.9 %
Extraction speed 4.3 X
Range quality 100.0 %
Test CRC EB5D293D
Copy CRC EB5D293D
Copy OK
No errors occurred
AccurateRip summary
Track 1 accurately ripped (confidence 2) [15FDA936] (AR v1)
Track 2 accurately ripped (confidence 2) [B48D26F8] (AR v1)
Track 3 accurately ripped (confidence 2) [E23014BC] (AR v1)
Track 4 accurately ripped (confidence 2) [9F7D1376] (AR v1)
Track 5 accurately ripped (confidence 2) [3D59C5AC] (AR v1)
Track 6 accurately ripped (confidence 2) [2B32FE24] (AR v1)
Track 7 accurately ripped (confidence 2) [C806F790] (AR v1)
Track 8 accurately ripped (confidence 2) [27BC98C7] (AR v1)
Track 9 accurately ripped (confidence 2) [4558E0BD] (AR v1)
Track 10 accurately ripped (confidence 2) [F59FE42A] (AR v1)
Track 11 accurately ripped (confidence 2) [A66A6214] (AR v1)
Track 12 accurately ripped (confidence 2) [5EB44581] (AR v1)
All tracks accurately ripped
End of status report
---- CUETools DB Plugin V2.1.6
[CTDB TOCID: NnaSpsZDnld5W4M4zUMKPIK0pTY-] found
Submit result: NnaSpsZDnld5W4M4zUMKPIK0pTY- has been confirmed
Track | CTDB Status
1 | (2/2) Accurately ripped
2 | (2/2) Accurately ripped
3 | (2/2) Accurately ripped
4 | (2/2) Accurately ripped
5 | (2/2) Accurately ripped
6 | (2/2) Accurately ripped
7 | (2/2) Accurately ripped
8 | (2/2) Accurately ripped
9 | (2/2) Accurately ripped
10 | (2/2) Accurately ripped
11 | (2/2) Accurately ripped
12 | (2/2) Accurately ripped
==== Log checksum F50970E3864E2DB6813DB6DD4E0031812CB85A692F7C8DA32F1F3BB0D12A8CB1 ====

Содержание индексной карты (.CUE)

CD1

REM GENRE Opera
REM DATE 1985
REM DISCID 930D4C0B
REM COMMENT "ExactAudioCopy v1.0b6"
CATALOG 0000000000000
PERFORMER "Erkel"
TITLE "Hunyadi László, Kovács CD1"
FILE "Erkel - Hunyadi László, Kovács CD1.ape" WAVE
TRACK 01 AUDIO
TITLE "Overture"
PERFORMER "Erkel"
INDEX 00 00:00:00
INDEX 01 00:00:33
TRACK 02 AUDIO
TITLE "I-1. Chorus: Nem leszünk mi hu kutyái (We shall not be faithful hounds)"
PERFORMER "Nobles & soldiers, Szilágyi"
INDEX 00 12:30:61
INDEX 01 12:38:70
TRACK 03 AUDIO
TITLE "I-1. Cavatina: Halljátok most jó hívek … Csak az, mit fájlal a szívem (Listen..."
PERFORMER "Mátyás"
INDEX 01 15:46:70
TRACK 04 AUDIO
TITLE "I-1. Scene: Légy üdvöz, nemes barátunk (Welcome, our noble friend)"
PERFORMER "Nobles & soldiers, László, Szilágyi"
INDEX 01 20:29:03
TRACK 05 AUDIO
TITLE "I-1. March & Scene: Látlak végre (I see you at last)"
PERFORMER "King, Cilley, László"
INDEX 01 25:17:63
TRACK 06 AUDIO
TITLE "I-1. Chorus: Kik vagytok? László király kísérete (Who are you? We are King Lá..."
PERFORMER "Hungarians, German mercenaries"
INDEX 01 32:14:65
TRACK 07 AUDIO
TITLE "I-2. Scene: Kizárni a király kíséretét? (Locking out the King's retinue?)"
PERFORMER "King, Cilley"
INDEX 01 34:37:05
TRACK 08 AUDIO
TITLE "I-2. Aria: Van végre egy pár nyugodt pillanat! … Ó, szállj hozzám (At last a ..."
PERFORMER "László"
INDEX 01 38:38:23
TRACK 09 AUDIO
TITLE "I-2. Finale-Scene: Üdvözöllek, szívem hu (Greetings to you, true friend)"
PERFORMER "Rozgonyi, László, Noblemen"
INDEX 01 43:23:28
TRACK 10 AUDIO
TITLE "I-2. Finale-Scene: Királyom nevében üdvözöllek (Greetings on behalf of my King!)"
PERFORMER "Cilley, László, Noblemen"
INDEX 01 47:29:70
TRACK 11 AUDIO
TITLE "I-2. Finale-Scene & Chor: Mi rémületes zaj … Meghalt a cselszövo (What fright..."
PERFORMER "King, Noblemen, László"
INDEX 01 51:22:38

CD2

REM GENRE Opera
REM DATE 1985
REM DISCID 5B0B1F08
REM COMMENT "ExactAudioCopy v1.0b6"
CATALOG 0000000000000
PERFORMER "Erkel"
TITLE "Hunyadi László, Kovács CD2"
FILE "Erkel - Hunyadi László, Kovács CD2.ape" WAVE
TRACK 01 AUDIO
TITLE "II. Chorus & Arietta: Nyári est … Jó így egyes-egyedül (A summer's night … Ho..."
PERFORMER "[Chorus], Mátyás"
INDEX 00 00:00:00
INDEX 01 00:00:32
TRACK 02 AUDIO
TITLE "II. Aria: Mint a tenger (My heart beats)"
PERFORMER "Erszébet, [Chorus]"
INDEX 01 03:20:05
TRACK 03 AUDIO
TITLE "II. King's Entry & Scene: Éljen László király! (Long live the King of László!)"
PERFORMER "[Chorus], Erszébet, King, Mária, Gara"
INDEX 01 11:32:30
TRACK 04 AUDIO
TITLE "II. Aria: Az égen csillagom (May my star shine)"
PERFORMER "Gara"
INDEX 01 17:04:00
TRACK 05 AUDIO
TITLE "II. Trio: Ím, újra nálam vagytok (You are with me again)"
PERFORMER "Erszébet, Mátyás & László; Gara"
INDEX 01 21:26:25
TRACK 06 AUDIO
TITLE "II. Aria 'La Grange': Nagy ég, remegek! (Great heavens, I tremble)"
PERFORMER "Mária; Mátyás & László"
INDEX 01 25:24:60
TRACK 07 AUDIO
TITLE "II. Duet: Mily boldogság,hogy mellettem vagy (What bliss to have you with me)"
PERFORMER "László, Mária"
INDEX 01 31:41:12
TRACK 08 AUDIO
TITLE "II. Scene: Ím halljátok most, jó magyarjaink (Now listen, my good Hungarians)"
PERFORMER "King, Retinue, Erszébet, Mátyás & László"
INDEX 01 39:00:72

CD3

REM GENRE Opera
REM DATE 1985
REM DISCID B20BB00C
REM COMMENT "ExactAudioCopy v1.0b6"
CATALOG 0000000000000
PERFORMER "Erkel"
TITLE "Hunyadi László, Kovács CD3"
FILE "Erkel - Hunyadi László, Kovács CD3.ape" WAVE
TRACK 01 AUDIO
TITLE "III-1. Aria: Hosszú az éj (The night is long)"
PERFORMER "King"
INDEX 00 00:00:00
INDEX 01 00:00:32
TRACK 02 AUDIO
TITLE "III-1. Scene: Mily jókor jössz (You come at the right moment)"
PERFORMER "King, Gara"
INDEX 01 04:35:17
TRACK 03 AUDIO
TITLE "III-2. Chor: Szép dalra zendülj (Sing in a fine song)"
PERFORMER "[Chorus], Mátyás, László, Mária"
INDEX 01 08:32:32
TRACK 04 AUDIO
TITLE "III-2. Aria: Ah, szememben mámor, s öröm ragyog (Ah, rapture and joy shine in..."
PERFORMER "Mária"
INDEX 01 11:27:65
TRACK 05 AUDIO
TITLE "III-2: Ballet (Csárdás-Palotás)"
PERFORMER "Erkel"
INDEX 01 15:24:22
TRACK 06 AUDIO
TITLE "III-2. Scene: Hát keblemen lész mindörökre (Now you shall rest on my breast f..."
PERFORMER "Mária, László; Gara, [Chorus]"
INDEX 00 19:42:71
INDEX 01 19:42:72
TRACK 07 AUDIO
TITLE "III-3. Intermezzo"
PERFORMER "Erkel"
INDEX 01 21:00:55
TRACK 08 AUDIO
TITLE "III-3. Aria: Sötét börtön (Dark dungeon)"
PERFORMER "László"
INDEX 01 26:07:22
TRACK 09 AUDIO
TITLE "III-3. Scene: Szabadság angyala! (The angel of freedom)"
PERFORMER "Mária, László; Gara"
INDEX 01 29:41:37
TRACK 10 AUDIO
TITLE "III-4. Funeral March"
PERFORMER "Erkel"
INDEX 01 37:24:15
TRACK 11 AUDIO
TITLE "III-4. Scene: Hol van o? (Where is he?)"
PERFORMER "Erszébet, [Chorus]"
INDEX 01 40:38:70
TRACK 12 AUDIO
TITLE "III-4. Prayer & Final Scene: Ó, ég és föld irgalmas Istene … Magyarok! Halljá..."
PERFORMER "Erszébet, [Chorus]; László, Gara"
INDEX 01 43:13:22



Показать сообщения:    

Текущее время: 10-Дек 19:41

Часовой пояс: UTC + 3


Вы не можете начинать темы
Вы не можете отвечать на сообщения
Вы не можете редактировать свои сообщения
Вы не можете удалять свои сообщения
Вы не можете голосовать в опросах
Вы не можете прикреплять файлы к сообщениям
Вы не можете скачивать файлы