(Classical) Waiting for Benny: A Tribute to Benny Goodman - Poulenc, Bernstein, Gershwin, Стравинский, Gould, Bartok - Julien Herve, Maud Lovett, Jean-Hisanori Sugitani, Ying Lai Green - 2013, FLAC (image+.cue) lossless


 

[Цитировать]

Waiting for Benny: A Tribute to Benny Goodman - Poulenc, Bernstein, Gershwin, Стравинский, Gould, Bartók - Julien Hervé, Maud Lovett, Jean-Hisanori Sugitani, Ying Lai Green
Жанр: Classical
Год издания диска: 2013
Издатель (лейбл): Naxos
Номер по каталогу: 8.573032
Дата записи: 2011
Аудиокодек: FLAC
Тип рипа: image+.cue
Битрейт аудио: lossless
Продолжительность: 67:17
Источник: собственный рип
Наличие сканов в содержимом раздачи: да
Треклист:
Francis Poulenc (1899-1963)
[1]-[3] Clarinet Sonata (1962) 1
Leonard Bernstein (1918-90)
[4]-[5] Clarinet Sonata (1941-42) 2
George Gershwin (1898-1937)
[6]-[8] Three Preludes (arr. James Cohn) (1926/87) 3
Igor Stravinsky (1882-1971)
[9]-[11] Three Pieces for solo clarinet (1918)
Morton Gould (1913-96)
[12]-[19] Benny’s Gig (1962/79) 4
Béla Bartók (1881-1945)
[20]-[22] Contrasts (1938-40) 5
Исполнители:
Julien Hervé clarinet
Maud Lovett violin 5
Jean-Hisanori Sugitani piano 1, 2, 3, 5
Ying Lai Green double bass 4

Лог создания рипа

Exact Audio Copy V1.0 beta 3 from 29. August 2011
EAC extraction logfile from 19. July 2015, 21:15
Julien Herve, Jean-Hisanori Sugitani / Waiting for Benny - A Tribute to Benny Goodman
Used drive : HL-DT-STDVDRAM GU70N Adapter: 0 ID: 0
Read mode : Secure
Utilize accurate stream : Yes
Defeat audio cache : Yes
Make use of C2 pointers : No
Read offset correction : 48
Overread into Lead-In and Lead-Out : No
Fill up missing offset samples with silence : Yes
Delete leading and trailing silent blocks : No
Null samples used in CRC calculations : Yes
Used interface : Native Win32 interface for Win NT & 2000
Used output format : User Defined Encoder
Selected bitrate : 128 kBit/s
Quality : High
Add ID3 tag : No
Command line compressor : C:\Program Files (x86)\Exact Audio Copy\Flac\flac.exe
Additional command line options : -V -8 -T "Date=%year%" -T "Genre=%genre%" %source%
TOC of the extracted CD
Track | Start | Length | Start sector | End sector
---------------------------------------------------------
1 | 0:00.00 | 5:02.45 | 0 | 22694
2 | 5:02.45 | 5:15.50 | 22695 | 46369
3 | 10:18.20 | 3:02.59 | 46370 | 60078
4 | 13:21.04 | 3:51.00 | 60079 | 77403
5 | 17:12.04 | 7:14.33 | 77404 | 109986
6 | 24:26.37 | 1:34.52 | 109987 | 117088
7 | 26:01.14 | 4:46.57 | 117089 | 138595
8 | 30:47.71 | 1:18.02 | 138596 | 144447
9 | 32:05.73 | 1:36.40 | 144448 | 151687
10 | 33:42.38 | 0:58.29 | 151688 | 156066
11 | 34:40.67 | 1:11.71 | 156067 | 161462
12 | 35:52.63 | 2:19.72 | 161463 | 171959
13 | 38:12.60 | 0:28.62 | 171960 | 174121
14 | 38:41.47 | 2:32.39 | 174122 | 185560
15 | 41:14.11 | 0:53.31 | 185561 | 189566
16 | 42:07.42 | 2:10.67 | 189567 | 199383
17 | 44:18.34 | 1:45.14 | 199384 | 207272
18 | 46:03.48 | 1:50.44 | 207273 | 215566
19 | 47:54.17 | 1:53.27 | 215567 | 224068
20 | 49:47.44 | 5:26.73 | 224069 | 248591
21 | 55:14.42 | 5:07.15 | 248592 | 271631
22 | 60:21.57 | 6:53.18 | 271632 | 302624
Range status and errors
Selected range
Filename C:\temp\Waiting for Benny - A Tribute to Benny Goodman\Waiting for Benny.wav
Peak level 100.0 %
Extraction speed 2.2 X
Range quality 100.0 %
Test CRC 8AADEA33
Copy CRC 8AADEA33
Copy OK
No errors occurred
AccurateRip summary
Track 1 accurately ripped (confidence 2) [DFDA651D] (AR v2)
Track 2 accurately ripped (confidence 2) [B056D915] (AR v2)
Track 3 accurately ripped (confidence 2) [D8B435BD] (AR v2)
Track 4 accurately ripped (confidence 2) [46B095B1] (AR v2)
Track 5 accurately ripped (confidence 2) [D261A6AA] (AR v2)
Track 6 accurately ripped (confidence 2) [121E620C] (AR v2)
Track 7 accurately ripped (confidence 2) [80263BC2] (AR v2)
Track 8 accurately ripped (confidence 2) [043BCDB4] (AR v2)
Track 9 accurately ripped (confidence 2) [79F5D007] (AR v2)
Track 10 accurately ripped (confidence 2) [90E395FF] (AR v2)
Track 11 accurately ripped (confidence 2) [8ABB8C9F] (AR v2)
Track 12 accurately ripped (confidence 2) [037A947B] (AR v2)
Track 13 accurately ripped (confidence 2) [A4A73A98] (AR v2)
Track 14 accurately ripped (confidence 2) [7383859C] (AR v2)
Track 15 accurately ripped (confidence 2) [6EA29E0C] (AR v2)
Track 16 accurately ripped (confidence 2) [6E24AD17] (AR v2)
Track 17 accurately ripped (confidence 2) [DFAE7E74] (AR v2)
Track 18 accurately ripped (confidence 2) [FAF923C4] (AR v2)
Track 19 accurately ripped (confidence 2) [EAA5F593] (AR v2)
Track 20 accurately ripped (confidence 2) [7256624D] (AR v2)
Track 21 accurately ripped (confidence 2) [5E5C2A6E] (AR v2)
Track 22 accurately ripped (confidence 2) [7F9EB056] (AR v2)
All tracks accurately ripped
End of status report
==== Log checksum CA4C12A0873A1C6BF9D85F6D38ABECF34076E0E664052457DF94C157F238A4B1 ====



Показать сообщения:    

Текущее время: 09-Дек 12:40

Часовой пояс: UTC + 3


Вы не можете начинать темы
Вы не можете отвечать на сообщения
Вы не можете редактировать свои сообщения
Вы не можете удалять свои сообщения
Вы не можете голосовать в опросах
Вы не можете прикреплять файлы к сообщениям
Вы не можете скачивать файлы