(Classical / Orchestral) Mendelssohn-Bartholdy - Ein Sommernachtstraum | Schubert - Rosamunde / Мендельсон-Бартольди - Сон в летнюю ночь | Шуберт - Розамунда (Concertgebouworkest Amsterdam, George Szell, 1957) - 1989, FLAC (tracks+.cue) lossless


 

[Цитировать]

Felix Mendelssohn-Bartholdy (1809–1847)
Ein Sommernachtstraum


Franz Schubert (1797–1828)
Rosamunde, Fürstin von Cypern


Concertgebouworkest Amsterdam
George Szell conductor


Жанр: Classical / Orchestral
Дата и место записи: Concertgebouw, Amsterdam, December 1957
Формат записи: ADD, Stereo
Год издания диска: 1989
Издатель (лейбл): Philips
Номер по каталогу: 426 071-2
Аудиокодек: FLAC
Тип рипа: tracks+.cue
Битрейт аудио: lossless
Продолжительность: 59:23
Наличие сканов в содержимом раздачи: да
Источник: LzTr
Релизёр: Yeroun


Tracklist / Треклист
Felix Mendelssohn-Bartholdy
«Ein Sommernachtstraum», Op. 61 - 26:42
Ouvertüre (Op. 21) - 11:33
  • Nr. 1. Scherzo - 4:24
  • Nr. 7. Notturno - 5:42
  • Nr. 9. Hochzeitsmarsch - 5:03
    Franz Schubert
    «Rosamunde, Fürstin von Cypern», D. 797 - 32:41
    Ouvertüre (aus «Die Zauberharfe», D. 644) - 10:08
  • Nr. 9. Ballettmusik Nr. 2 - 7:09
  • Nr. 5. Entre-Act nach dem 3. Aufzuge - 6:41
  • Nr. 1. Entre-Act nach dem 1. Aufzuge - 8:43

    -

    EAC log / Отчёт EAC

    Exact Audio Copy V1.0 beta 1 from 15. November 2010
    EAC extraction logfile from 14. December 2010, 20:58
    Royal Concertgebouw Orchestra, George Szell / Mendelssohn - Ein Sommernachtstraum & Schubert - Rosamunde
    Used drive : PLEXTOR CD-R PREMIUM2 Adapter: 3 ID: 1
    Read mode : Secure
    Utilize accurate stream : Yes
    Defeat audio cache : Yes
    Make use of C2 pointers : No
    Read offset correction : 30
    Overread into Lead-In and Lead-Out : Yes
    Fill up missing offset samples with silence : Yes
    Delete leading and trailing silent blocks : No
    Null samples used in CRC calculations : Yes
    Used interface : Installed external ASPI interface
    Gap handling : Appended to previous track
    Used output format : User Defined Encoder
    Selected bitrate : 1024 kBit/s
    Quality : High
    Add ID3 tag : No
    Command line compressor : C:\Program Files\Exact Audio Copy\Flac\flac.exe
    Additional command line options : -6 -V -T "ARTIST=%a" -T "TITLE=%t" -T "ALBUM=%g" -T "DATE=%y" -T "TRACKNUMBER=%n" -T "TOTALTRACKS=%x" -T "GENRE=%m" -T "ALBUMARTIST=%v" -T "ALBUM ARTIST=%v" -T "COMMENT=EAC Secure mode, Test & Copy, AccurateRip, FLAC -6" %s
    TOC of the extracted CD
    Track | Start | Length | Start sector | End sector
    ---------------------------------------------------------
    1 | 0:00.33 | 11:33.00 | 33 | 52007
    2 | 11:33.33 | 4:24.00 | 52008 | 71807
    3 | 15:57.33 | 5:42.00 | 71808 | 97457
    4 | 21:39.33 | 5:03.00 | 97458 | 120182
    5 | 26:42.33 | 10:08.00 | 120183 | 165782
    6 | 36:50.33 | 7:09.00 | 165783 | 197957
    7 | 43:59.33 | 6:41.00 | 197958 | 228032
    8 | 50:40.33 | 8:43.00 | 228033 | 267257
    Track 1
    Filename D:\Classical\Mendelssohn - Ein Sommernachtstraum & Schubert - Rosamunde (1957) [FLAC] {RCO, Szell} (Philips 426071-2)\01 - Ein Sommernachtstraum - Ouvertuere, Op.21.wav
    Pre-gap length 0:00:02.33
    Peak level 98.3 %
    Extraction speed 1.1 X
    Track quality 99.9 %
    Test CRC 71759E04
    Copy CRC 71759E04
    Accurately ripped (confidence 5) [DD6A1FEB]
    Copy OK
    Track 2
    Filename D:\Classical\Mendelssohn - Ein Sommernachtstraum & Schubert - Rosamunde (1957) [FLAC] {RCO, Szell} (Philips 426071-2)\02 - Ein Sommernachtstraum - Scherzo, Op.61 No.1.wav
    Pre-gap length 0:00:02.00
    Peak level 71.2 %
    Extraction speed 0.9 X
    Track quality 99.9 %
    Test CRC FE7338F9
    Copy CRC FE7338F9
    Accurately ripped (confidence 6) [958D9EF0]
    Copy OK
    Track 3
    Filename D:\Classical\Mendelssohn - Ein Sommernachtstraum & Schubert - Rosamunde (1957) [FLAC] {RCO, Szell} (Philips 426071-2)\03 - Ein Sommernachtstraum - Notturno, Op.61 No.7.wav
    Pre-gap length 0:00:01.00
    Peak level 31.6 %
    Extraction speed 1.1 X
    Track quality 100.0 %
    Test CRC 8324710C
    Copy CRC 8324710C
    Accurately ripped (confidence 5) [1F784500]
    Copy OK
    Track 4
    Filename D:\Classical\Mendelssohn - Ein Sommernachtstraum & Schubert - Rosamunde (1957) [FLAC] {RCO, Szell} (Philips 426071-2)\04 - Ein Sommernachtstraum - Hochzeitsmarsch, Op.61 No.9.wav
    Pre-gap length 0:00:01.00
    Peak level 74.6 %
    Extraction speed 1.1 X
    Track quality 100.0 %
    Test CRC E5DCE9C4
    Copy CRC E5DCE9C4
    Accurately ripped (confidence 6) [636FBB5B]
    Copy OK
    Track 5
    Filename D:\Classical\Mendelssohn - Ein Sommernachtstraum & Schubert - Rosamunde (1957) [FLAC] {RCO, Szell} (Philips 426071-2)\05 - Rosamunde - Ouvertuere, D.644 (Die Zauberharfe).wav
    Pre-gap length 0:00:08.00
    Peak level 94.6 %
    Extraction speed 1.1 X
    Track quality 99.9 %
    Test CRC F26B1B0A
    Copy CRC F26B1B0A
    Accurately ripped (confidence 6) [420552EF]
    Copy OK
    Track 6
    Filename D:\Classical\Mendelssohn - Ein Sommernachtstraum & Schubert - Rosamunde (1957) [FLAC] {RCO, Szell} (Philips 426071-2)\06 - Rosamunde - Ballettmusik No.2, D.797.wav
    Pre-gap length 0:00:03.00
    Peak level 61.0 %
    Extraction speed 1.0 X
    Track quality 99.9 %
    Test CRC 01B14525
    Copy CRC 01B14525
    Accurately ripped (confidence 6) [BE7D8B8D]
    Copy OK
    Track 7
    Filename D:\Classical\Mendelssohn - Ein Sommernachtstraum & Schubert - Rosamunde (1957) [FLAC] {RCO, Szell} (Philips 426071-2)\07 - Rosamunde - Entr'acte No.3, D.797.wav
    Pre-gap length 0:00:03.00
    Peak level 59.2 %
    Extraction speed 1.1 X
    Track quality 100.0 %
    Test CRC E4C92D3D
    Copy CRC E4C92D3D
    Accurately ripped (confidence 6) [89737E1B]
    Copy OK
    Track 8
    Filename D:\Classical\Mendelssohn - Ein Sommernachtstraum & Schubert - Rosamunde (1957) [FLAC] {RCO, Szell} (Philips 426071-2)\08 - Rosamunde - Entr'acte No.1, D.797.wav
    Pre-gap length 0:00:02.00
    Peak level 85.4 %
    Extraction speed 1.2 X
    Track quality 99.9 %
    Test CRC 6F423C9E
    Copy CRC 6F423C9E
    Accurately ripped (confidence 6) [DE6F9A82]
    Copy OK
    All tracks accurately ripped
    No errors occurred
    End of status report
    ==== Log checksum 159BA65EF60451A19A16AC1EDC9F3357EC08CE818AE233EDFBFCE591684766C7 ====

    auCDtect Task Manager log / Отчёт auCDtect Task Manager

    -----------------------
    DON'T MODIFY THIS FILE
    -----------------------
    PERFORMER: auCDtect Task Manager, ver. 1.5.1RC3 build 1.5.1.4
    Copyright (c) 2008-2010 y-soft. All rights reserved
    ANALYZER: auCDtect: CD records authenticity detector, version 0.8.2
    Copyright (c) 2004 Oleg Berngardt. All rights reserved.
    Copyright (c) 2004 Alexander Djourik. All rights reserved.
    FILE: 07 - Rosamunde, Fuerstin von Cypern - Nr. 5. Entre-Act nach dem 3. Aufzuge.flac
    Size: 32318277 Hash: 66B38D641246E462C7EBD5D4C1FB8474 Accuracy: -m0
    Conclusion: CDDA 100%
    Signature: FC70D408F38868715240F0BD6DAA96A2DAF1B666
    FILE: 06 - Rosamunde, Fuerstin von Cypern - Nr. 9. Ballettmusik Nr. 2.flac
    Size: 33664258 Hash: 7D0176805B0B9419B657A667004AC86F Accuracy: -m0
    Conclusion: CDDA 100%
    Signature: 9EFEB377F47FC2F95B0D4C2F08513261E22EF5A0
    FILE: 05 - Rosamunde, Fuerstin von Cypern - Ouvertuere (aus ''Die Zauberharfe'').flac
    Size: 53004968 Hash: 3D9F1FCED42BF3F3A1E06BA59C0C1463 Accuracy: -m0
    Conclusion: CDDA 100%
    Signature: 34E1468E52B166290BEFAAC4BBF10BCA4AB50516
    FILE: 04 - Ein Sommernachtstraum - Nr. 9. Hochzeitsmarsch.flac
    Size: 28037699 Hash: C29461A429C9FEE621F07C814ED77871 Accuracy: -m0
    Conclusion: CDDA 100%
    Signature: FD31A4578E04BA138D16C400F5BD3FB9E8B538CF
    FILE: 03 - Ein Sommernachtstraum - Nr. 7. Notturno.flac
    Size: 24931478 Hash: 02AF7F6BD408C6D7CD091254C7B7DAD9 Accuracy: -m0
    Conclusion: CDDA 100%
    Signature: D8A98319FD065DF93FF3FC56D9035A9DFB7D675A
    FILE: 02 - Ein Sommernachtstraum - Nr. 1. Scherzo.flac
    Size: 21817620 Hash: 9EF2263F5F301FB84B29FB61663DCD10 Accuracy: -m0
    Conclusion: CDDA 99%
    Signature: AA64AB43D242615F29EF35C45E47B0FA89D2432A
    FILE: 01 - Ein Sommernachtstraum - Ouvertuere (Op. 21).flac
    Size: 59382265 Hash: B0F4CDC9194547B0BCD260AD405AC906 Accuracy: -m0
    Conclusion: CDDA 100%
    Signature: F54C53359D67B3F77AC927A668DA7DB352B5D947
    FILE: 08 - Rosamunde, Fuerstin von Cypern - Nr. 1. Entre-Act nach dem 1. Aufzuge.flac
    Size: 44407010 Hash: 294307A3ACCE9F79A86C59FB5DDC290A Accuracy: -m0
    Conclusion: CDDA 100%
    Signature: 011E1E347E258E370E189EED441D913207E39EB8

    CUETools log / Отчёт CUETools

    [CUETools log; Date: 24.07.2015 21:10:56; Version: 2.1.4]
    Pregap length 00:00:33.
    [AccurateRip ID: 0012518a-0078da52-5a0deb08] found.
    Track [ CRC | V2 ] Status
    01 [dd6a1feb|c687eae9] (05+05/12) Accurately ripped
    02 [958d9ef0|77374cfe] (06+05/13) Accurately ripped
    03 [1f784500|97291d91] (05+05/12) Accurately ripped
    04 [636fbb5b|dd9af48a] (06+05/13) Accurately ripped
    05 [420552ef|7d68b923] (06+06/14) Accurately ripped
    06 [be7d8b8d|55beed13] (06+06/14) Accurately ripped
    07 [89737e1b|de3682b1] (06+06/14) Accurately ripped
    08 [de6f9a82|0e576d25] (06+06/14) Accurately ripped
    Offsetted by 1466:
    01 [d989170a] (02/12) Accurately ripped
    02 [93d451a0] (02/13) Accurately ripped
    03 [c1153a5d] (02/12) Accurately ripped
    04 [f8e39e66] (02/13) Accurately ripped
    05 [7975da12] (02/14) Accurately ripped
    06 [a510d4b3] (02/14) Accurately ripped
    07 [5e706928] (00/14) No match (V2 was not tested)
    08 [1d58dc51] (02/14) Accurately ripped
    Track Peak [ CRC32 ] [W/O NULL] [ LOG ]
    -- 98,3 [66762AE8] [7BF4586B]
    01 98,3 [71759E04] [2CA14B4F] CRC32
    02 71,2 [FE7338F9] [005807CC] CRC32
    03 31,6 [8324710C] [0D80D233] CRC32
    04 74,6 [E5DCE9C4] [4BD14BEC] CRC32
    05 94,6 [F26B1B0A] [B4A92D45] CRC32
    06 61,0 [01B14525] [05342972] CRC32
    07 59,2 [E4C92D3D] [B5DB1F63] CRC32
    08 85,4 [6F423C9E] [5793BFC7] CRC32

    CUE sheet

    TITLE "Mendelssohn-Bartholdy: Ein Sommernachtstraum | Schubert: Rosamunde"
    PERFORMER "George Szell"
    REM GENRE Classical
    REM DISCID 5A0DEB08
    REM COMMENT "ExactAudioCopy v1.0b1"
    CATALOG 0028942607125
    FILE "01 - Ein Sommernachtstraum - Ouvertuere (Op. 21).flac" WAVE
    TRACK 01 AUDIO
    TITLE "Ein Sommernachtstraum, Op. 61: Ouvertüre (Op. 21)"
    PERFORMER "Concertgebouworkest Amsterdam. George Szell, conductor"
    REM DATE 1957
    PREGAP 00:00:33
    INDEX 01 00:00:00
    TRACK 02 AUDIO
    TITLE "Ein Sommernachtstraum, Op. 61: Nr. 1. Scherzo"
    PERFORMER "Concertgebouworkest Amsterdam. George Szell, conductor"
    REM DATE 1957
    INDEX 00 11:31:00
    FILE "02 - Ein Sommernachtstraum - Nr. 1. Scherzo.flac" WAVE
    INDEX 01 00:00:00
    TRACK 03 AUDIO
    TITLE "Ein Sommernachtstraum, Op. 61: Nr. 7. Notturno"
    PERFORMER "Concertgebouworkest Amsterdam. George Szell, conductor"
    REM DATE 1957
    INDEX 00 04:23:00
    FILE "03 - Ein Sommernachtstraum - Nr. 7. Notturno.flac" WAVE
    INDEX 01 00:00:00
    TRACK 04 AUDIO
    TITLE "Ein Sommernachtstraum, Op. 61: Nr. 9. Hochzeitsmarsch"
    PERFORMER "Concertgebouworkest Amsterdam. George Szell, conductor"
    REM DATE 1957
    INDEX 00 05:41:00
    FILE "04 - Ein Sommernachtstraum - Nr. 9. Hochzeitsmarsch.flac" WAVE
    INDEX 01 00:00:00
    TRACK 05 AUDIO
    TITLE "Rosamunde, Fürstin von Cypern, D. 797: Ouvertüre (aus «Die Zauberharfe», D. 644)"
    PERFORMER "Concertgebouworkest Amsterdam. George Szell, conductor"
    REM DATE 1957
    INDEX 00 04:55:00
    FILE "05 - Rosamunde, Fuerstin von Cypern - Ouvertuere (aus ''Die Zauberharfe'').flac" WAVE
    INDEX 01 00:00:00
    TRACK 06 AUDIO
    TITLE "Rosamunde, Fürstin von Cypern, D. 797: Nr. 9. Ballettmusik Nr. 2"
    PERFORMER "Concertgebouworkest Amsterdam. George Szell, conductor"
    REM DATE 1957
    INDEX 00 10:05:00
    FILE "06 - Rosamunde, Fuerstin von Cypern - Nr. 9. Ballettmusik Nr. 2.flac" WAVE
    INDEX 01 00:00:00
    TRACK 07 AUDIO
    TITLE "Rosamunde, Fürstin von Cypern, D. 797: Nr. 5. Entre-Act nach dem 3. Aufzuge"
    PERFORMER "Concertgebouworkest Amsterdam. George Szell, conductor"
    REM DATE 1957
    INDEX 00 07:06:00
    FILE "07 - Rosamunde, Fuerstin von Cypern - Nr. 5. Entre-Act nach dem 3. Aufzuge.flac" WAVE
    INDEX 01 00:00:00
    TRACK 08 AUDIO
    TITLE "Rosamunde, Fürstin von Cypern, D. 797: Nr. 1. Entre-Act nach dem 1. Aufzuge"
    PERFORMER "Concertgebouworkest Amsterdam. George Szell, conductor"
    REM DATE 1957
    INDEX 00 06:39:00
    FILE "08 - Rosamunde, Fuerstin von Cypern - Nr. 1. Entre-Act nach dem 1. Aufzuge.flac" WAVE
    INDEX 01 00:00:00



  • Показать сообщения:    

    Текущее время: 08-Дек 07:09

    Часовой пояс: UTC + 3


    Вы не можете начинать темы
    Вы не можете отвечать на сообщения
    Вы не можете редактировать свои сообщения
    Вы не можете удалять свои сообщения
    Вы не можете голосовать в опросах
    Вы не можете прикреплять файлы к сообщениям
    Вы не можете скачивать файлы