(Medieval, Andalusi) Alarifes Mudejares: Musica para la iglesia mudejar de San Martin de Cuellar (Eduardo Paniagua y otra) - 1999, WavPack


 

[Цитировать]

Alarifes Mudéjares
Música para la iglesia mudejar de San Martín de Cuéllar
Eduardo Paniagua
Жанр: Medieval, Andalusí
Страна-производитель диска: Spain
Год издания диска: 1999
Издатель (лейбл): Pneuma
Номер по каталогу: PN-170
Дата записи: 1995, 1997 y 1999
Аудиокодек: WavPack
Тип рипа: image+.cue
Битрейт аудио: lossless
Продолжительность: 59:16
Источник: eDonkey
Наличие сканов в содержимом раздачи: нет

Треклист

01. Secuencia Constructiva. Pilares, arcos, bóvedas [7:34]
Melodía sobre original andalusí. Modo: Hidyaz oriental. Ritmo: Qaim wa nisf
Instrumentos: psalterio, flautas tenor y alto y cántara
Instrumentos de teclado: arpa, santúr, qanún, efecto base (emoción)
Efectos: cantero, yesero, sierra de madera, yunque, grillos, ranas y sapos

02. La Barca. Tierra de nadie [2:50]
Melodía sobre canto mozárabe «Surgam», Antifonario de Silos
Instrumentos: faluta tenor
Instrumentos de teclado: efecto base, campanillas
Efectos: barcos en el puerto

03. La Fuente. Arte efímero-Arte eterno [2:08]
Melodía sobre original andalusí. Modo: Hidyaz oriental. Ritmo: Qaim wa nisf
Instrumentos: laúd, salamilla (flauta de caña), fhal (flauta árabe metálica), darbuga y tar
Instrumentos de teclado: dulcimer y pedal de efecto base
Efectos: fuente de agua de jardín hispano musulmán

04. La Alfombra. Arte colectivo y espacio colectivo [2:26]
Llamada a la oración desde el alminar, cantor: Hasan Ajyar
Cantos de ceremonia judía. Canto gregoriano: «Veni Creator Spiritus»
Campanas de iglesias: cercana y lejana
Instrumentos de teclado: efecto base

05. Las Velas. De pronto se llenó [6:56]
Melodía sobre Cantiga 180 de Santa María de Alfonso X el Sabio. Siglo XIII
Instrumentos: flauta travesera de caña, flauta tenor, santúr, viola, campanillas y cántara
Instrumentos de teclado: efecto base

06. Almuédano [3:19]
Llamada a la oración andalusí, cantor: Said Belcadi
07. Yeserías [2:19]
Solo de náy (flauta oblicua de caña) sobre modo andalusí
08. Baños y aljibes [5:39]
Canto libre andalusí en los modos Rasd y Nahawand
cantor: Said Belcadi
Efectos: chorros de agua, bañera llenandose, gotas y teclado base

09. Fiesta de Santa María [6:32]
Melodía sobre Cantiga 411 de Santa María de Alfonso X el Sabio. Siglo XIII
Instrumentos: viola, laúd, axabeba, fahl, cántara, darbuga y tar
Instrumentos de teclado: efecto base

10. En el Atrio [5:59]
Melodía de náy sobre modo andalusí
Instrumentos: bendir y tambores

11. Albañil mudéjar [3:46]
Canto libre sobre modo andalusí, cantor: Abedelhamid Al-Haddad
Instrumentos: cántara, percusiones metálicas de darbuga
Efectos: tallado sobre piedra, martillo sobre metal, martillo de forja

12. Capilla de azulejos [7:19]
Melodía sobre Cantiga 418 de Santa María de Alfonso X el Sabio. Siglo XIII
Instrumentos: viola, laúd, citolón, cistro, kaval, gaita charra, tar y címbalos
Instrumentos de teclado: efecto base

13. Oración de medio día [2:30]
Canto de almuedano andalusí: Abderrahim Abdelmoumen
Efectos: niños en la plaza, pájaros, campanas de «angelus»

Исполнители

Said Belcadi: Canto andalusí
Abedelhamid Al-Haddad: Canto andalusí
Hasan Ajyar: Canto andalusí
Abderrahim Abdelmoumen: Canto andalusí
Abdelouahid Acha: Náy
Jaime Muñoz: Flauta travesera de caña
Wafir Sheik: Laúd
Cesar Carazo: Viola
Luis Vincent: Cistro
Luis Paniagua: Cántara
Luis Delgado: Santúr, citolón, laúd, bendir, cántara
Enrique Almendros: Gaita charra, campanillas y címbalos
Eduardo Paniagua: Psalterio, flauta tenor y alto, salamilla (flauta de caña), fahl (flauta árabe metálica), darbuga, tar, címbalos, teclados/efectos/ambientes y DIRECCIÓN

log EAC

Exact Audio Copy V0.99 prebeta 4 from 23. January 2008
EAC extraction logfile from 20. December 2008, 9:44
Eduardo Paniagua / Alarifes Mudejares: Musica para la iglesia mudejar de San Martin de Cuellar
Used drive : Optiarc DVD RW AD-5170A Adapter: 0 ID: 0
Read mode : Secure
Utilize accurate stream : Yes
Defeat audio cache : Yes
Make use of C2 pointers : No
Read offset correction : 48
Overread into Lead-In and Lead-Out : No
Fill up missing offset samples with silence : Yes
Delete leading and trailing silent blocks : No
Null samples used in CRC calculations : Yes
Used interface : Native Win32 interface for Win NT & 2000
Used output format : Internal WAV Routines
Sample format : 44.100 Hz; 16 Bit; Stereo
TOC of the extracted CD
Track | Start | Length | Start sector | End sector
---------------------------------------------------------
1 | 0:00.00 | 7:33.54 | 0 | 34028
2 | 7:33.54 | 2:50.25 | 34029 | 46803
3 | 10:24.04 | 2:07.48 | 46804 | 56376
4 | 12:31.52 | 2:25.65 | 56377 | 67316
5 | 14:57.42 | 6:55.62 | 67317 | 98503
6 | 21:53.29 | 3:18.51 | 98504 | 113404
7 | 25:12.05 | 2:18.60 | 113405 | 123814
8 | 27:30.65 | 5:38.57 | 123815 | 149221
9 | 33:09.47 | 6:31.74 | 149222 | 178620
10 | 39:41.46 | 5:59.35 | 178621 | 205580
11 | 45:41.06 | 3:45.67 | 205581 | 222522
12 | 49:26.73 | 7:19.05 | 222523 | 255452
13 | 56:46.03 | 2:30.23 | 255453 | 266725
Range status and errors
Selected range
Filename E:\Music (CD Rips)\Eduardo Paniagua - Alarifes Mudejares.wav
Peak level 98.8 %
Range quality 100.0 %
Test CRC 402FC474
Copy CRC 402FC474
Copy OK
No errors occurred
AccurateRip summary
Track 1 accurately ripped (confidence 3) [53801885]
Track 2 accurately ripped (confidence 3) [5332FD8F]
Track 3 accurately ripped (confidence 3) [29AB54D3]
Track 4 accurately ripped (confidence 3) [23AEFEB9]
Track 5 accurately ripped (confidence 3) [B0436ABC]
Track 6 accurately ripped (confidence 3) [A1180888]
Track 7 accurately ripped (confidence 3) [B898CED4]
Track 8 accurately ripped (confidence 3) [BD11D687]
Track 9 accurately ripped (confidence 3) [8392150E]
Track 10 accurately ripped (confidence 3) [8E5D24C3]
Track 11 accurately ripped (confidence 3) [DE80A18F]
Track 12 accurately ripped (confidence 3) [80D0E789]
Track 13 accurately ripped (confidence 3) [AB54223F]
All tracks accurately ripped
End of status report

Audiochecker

AUDIOCHECKER v2.0 beta (build 457) - by Dester - opdester@freemail.hu
~~~~~~~~~~~~~~~~~~~~~~~~~~~~~~~~~~
Начато: суббота, 25. 07. 2015. - 9:07.11
Найдено файлов: 1
1 -===- C:\Documents and Settings\Agni\Мои документы\Foobar\Eduardo Paniagua - Alarifes Mudejares.wav
Заключение: этот трек - CDDA с вероятностью 100%
Завершено: суббота, 25. 07. 2015. - 9:09.11 (Время операции: 0:02.00)

Audiospectre




Показать сообщения:    

Текущее время: 07-Дек 21:25

Часовой пояс: UTC + 3


Вы не можете начинать темы
Вы не можете отвечать на сообщения
Вы не можете редактировать свои сообщения
Вы не можете удалять свои сообщения
Вы не можете голосовать в опросах
Вы не можете прикреплять файлы к сообщениям
Вы не можете скачивать файлы