(Medieval, Andalusi) Alfonso X el Sabio: Cantigas de Flauta y Tamboril (Musica Antigua, dir. Eduardo Paniagua) - 2002, WavPack (image+.cue) lossless


 

[Цитировать]

Cantigas de Flauta y Tamboril
Alfonso X el Sabio 1221-1284
Eduardo Paniagua & Enrique Almendros
Жанр: Medieval, Andalusí
Страна-производитель диска: Spain
Год издания диска: 2002
Издатель (лейбл): Pneuma
Номер по каталогу: PN-400
Дата записи: 2002
Аудиокодек: WavPack
Тип рипа: image+.cue
Битрейт аудио: lossless
Продолжительность: 69:21
Источник: eDonkey
Наличие сканов в содержимом раздачи: нет

Треклист

01. CSM 135: Alis y Félix. Instrumental [4:34]
Flauta ibicenca, gaita en sol, dulzaina, dulcimer, pandero, castañuelas ibicencas, espadilla ibicenca y gong
02. CSM 112: La nave cargada de trigo. Instrumental [5:32]
Flauta eslovaca, dulcimer, flauta dulce, esquilas y gong
03. CSM 153: De romería sentada en silla «Quen quer que ten en desden» [5:44]
Canto soprano, gaita charra en fa con tamboril salmantino, chicotén, gaita en do, dulzaina, dulcimer
04. CSM 106: La ofrenda de clavos. Instrumental [6:23]
Gaita charra en mi bemol, tambor mallorquín, flauta dulce, fídula, pandero, tar y qaraqueb
05. CSM 157: La harina de los romeros. Instrumental [3:33]
Flauta corazón dulce, tambor mallorquín, fídula, salterio y naqaras
06. CSM 117: No trabajar en sábado «Toda cousa que aa Virgen seja prometuda» [7:44]
Canto tenor, chiflo aragonés, chicotén, gaita en do, dulzaina, fídula, flauta dulce, pandero y campanil
07. CSM 105: La doncella de Arrás. Instrumental [5:24]
Pito rociero, tamboril salmantino, tambor gnawa, tambor mallorquín, pandero cuadrado de Peñaparda, dulcimer, pandereta, espadilla ibicenca y gong
08. CSM 147: La oveja que habló «A Madre do que a bestia de Balaam falar fez» [4:58]
Canto soprano y tenor, galoubet, flauta pastoril de hueso, arrabel, tejoletas, pandereta, pandero y arpa de boca
09. CSM 127: La patada del mancebo. Instrumental [4:40]
Flauta corazón dulce, tambor medieval, salterio y flauta dulce
10. CSM 159: La tajada de carne «Non sofre Santa María de seeren perdidosos» [7:14]
Canto soprano y tenor, flauta de sauce, dulcimer, fídula, tamborete, pandereta, pandero, castañuela ibicenca y campana
11. CSM 208: El hereje de Tolosa. Instrumental [3:39]
Gaita en do, flauta dulce, fídula, tambor medieval y daf
12. CSM 258: La masa del pan «Aquela que a seu Fillo viu cinque mil avondar» [6:24]
Canto tenor, gaita charra en fa, tamboril salmantino, tambor gnawa, gaita gallega, dulzaina, salterio y pandereta
13. CSM 144: El toro de plasencia. Instrumental [3:30]
Fístula en do, chicotén y pandero
CSM: Cantiga de Santa María (Numeradas por W. Mettmann)

Исполнители

MÚSICA ANTIGUA
Director: Eduardo Paniagua
María Luz Álvarez: Canto soprano
Cesar Carazo: Canto tenor y fídula
Elena Polo: Dulzaina aragonesa
Enrique Almendros: Gaita charra en mi bemol, gaita charra en fa, chiflo aragonés, flauta ibicenca, pito rociero, galoubet, flauta eslovaca, flauta corazón dulce, fístula en do, flauta pastoril de hueso, willow flute (flauta de sauce), gaita en do, gaita en sol, gaita gallega en do, chicotén (salterio percutido), arrabel (sistro de huesos), tejoletas, tamboril salmantino, tambor mallorquín, pandero cuadrado de Peñaparda, tambor medieval, tambor gnawa
Eduardo Paniagua: Dulcimer, salterio, flauta dulce, pandereta, pandero, tambor, daf, tar, tamborete, naqaras, castañuelas ibicencas, espadilla ibicenca, gong, qaraqueb, esquilas, campana, campanil y arpa de boca

log EAC

Exact Audio Copy V0.99 prebeta 4 from 23. January 2008
EAC extraction logfile from 15. December 2008, 11:09
Eduardo Paniagua / Alfonso X el Sabio: Cantigas de Flauta y Tamboril
Used drive : Optiarc DVD RW AD-5170A Adapter: 0 ID: 0
Read mode : Secure
Utilize accurate stream : Yes
Defeat audio cache : Yes
Make use of C2 pointers : No
Read offset correction : 48
Overread into Lead-In and Lead-Out : No
Fill up missing offset samples with silence : Yes
Delete leading and trailing silent blocks : No
Null samples used in CRC calculations : Yes
Used interface : Native Win32 interface for Win NT & 2000
Used output format : Internal WAV Routines
Sample format : 44.100 Hz; 16 Bit; Stereo
TOC of the extracted CD
Track | Start | Length | Start sector | End sector
---------------------------------------------------------
1 | 0:00.00 | 4:34.34 | 0 | 20583
2 | 4:34.34 | 5:32.11 | 20584 | 45494
3 | 10:06.45 | 5:44.37 | 45495 | 71331
4 | 15:51.07 | 6:23.04 | 71332 | 100060
5 | 22:14.11 | 3:33.31 | 100061 | 116066
6 | 25:47.42 | 7:43.61 | 116067 | 150852
7 | 33:31.28 | 5:24.30 | 150853 | 175182
8 | 38:55.58 | 4:57.65 | 175183 | 197522
9 | 43:53.48 | 4:40.24 | 197523 | 218546
10 | 48:33.72 | 7:14.17 | 218547 | 251113
11 | 55:48.14 | 3:38.56 | 251114 | 267519
12 | 59:26.70 | 6:24.37 | 267520 | 296356
13 | 65:51.32 | 3:30.26 | 296357 | 312132
ange status and errors
Selected range
Filename E:\Music (CD Rips)\Eduardo Paniagua - Cantigas de Flauta y Tamboril.wav
Peak level 96.9 %
Range quality 99.9 %
Test CRC 1F71B2BD
Copy CRC 1F71B2BD
Copy OK
No errors occurred
AccurateRip summary
Track 1 accurately ripped (confidence 1) [BAC25B8D]
Track 2 accurately ripped (confidence 1) [EBD290CC]
Track 3 accurately ripped (confidence 1) [E6448FBD]
Track 4 accurately ripped (confidence 1) [4453F1E8]
Track 5 accurately ripped (confidence 1) [F8DAA84E]
Track 6 accurately ripped (confidence 1) [D040B52E]
Track 7 accurately ripped (confidence 1) [F0BCB998]
Track 8 accurately ripped (confidence 1) [EA3207CA]
Track 9 accurately ripped (confidence 1) [24D5602E]
Track 10 accurately ripped (confidence 1) [1809468C]
Track 11 accurately ripped (confidence 1) [12FA2B5F]
Track 12 accurately ripped (confidence 1) [2ECDFEBA]
Track 13 accurately ripped (confidence 1) [87B6BBEF]
All tracks accurately ripped
End of status report

Audiochecker

AUDIOCHECKER v2.0 beta (build 457) - by Dester - opdester@freemail.hu
~~~~~~~~~~~~~~~~~~~~~~~~~~~~~~~~~~
Начато: суббота, 25. 07. 2015. - 9:14.08
Найдено файлов: 1
1 -===- C:\Documents and Settings\Agni\Мои документы\Foobar\Eduardo Paniagua - Cantigas de Flauta y Tamboril.wav
Заключение: этот трек - CDDA с вероятностью 100%
Завершено: суббота, 25. 07. 2015. - 9:16.25 (Время операции: 0:02.16)

Audiospectre




Показать сообщения:    

Текущее время: 09-Дек 06:56

Часовой пояс: UTC + 3


Вы не можете начинать темы
Вы не можете отвечать на сообщения
Вы не можете редактировать свои сообщения
Вы не можете удалять свои сообщения
Вы не можете голосовать в опросах
Вы не можете прикреплять файлы к сообщениям
Вы не можете скачивать файлы