(Medieval, Andalusi) P. d'Alvernha, B. de Ventadorn, F. de Marselha, B. de Born, P. Vidal, Gavaudan, G. de Calanson - Batalla de Alarcos, 1195 (Musica Antigua, dir. Eduardo paniagua) - 2007, WavPack (image+.cue) lossless


 

[Цитировать]

Batalla de Alarcos, 1195
Alfonso VIII de Castilla y los Almohades
Eduardo Paniagua
Жанр: Medieval, Andalusí
Страна-производитель диска: Spain
Год издания диска: 2007
Издатель (лейбл): Pneuma
Номер по каталогу: PN-950
Дата записи: 2007
Аудиокодек: WavPack
Тип рипа: image+.cue
Битрейт аудио: lossless
Продолжительность: 65:12
Источник: eDonkey
Наличие сканов в содержимом раздачи: нет

Треклист

01. Dios es magnífico. Darch Ram al-Maya. Andalusí [5:08]
02. Bel m'es quan la roza floris. Me gusta, cuando florece la rosa. Peire D'Alvernha (...1149-1168...) [5:14]
03. Can vei la lauzeta mover. (Instrumental). Bernart de Ventadorn (1140-1200) [2:39]
04. Hueimais no-y conosc razo. De ahora en adelante no conozco razón. Folquet de Marselha (...1178-1195, + 1231) [9:41]
05. Nana de Alarcos. Andalusí. Flauta de Alarcos [4:49]
06. Miei sirventes vuolh far dels reis amdos. Medio sirventés quiero hacer sobre los dos reyes. Bertran de Born (...1159-1195, + 1215) [5:54]
07. Todos los amantes. Betayhi Ram al-Maya. Andalusí [2:50]
08. Mout es bona terr'Espanha. Muy buena tierra es España. Peire Vidal (...1183-1204...) [6:34]
09. Senhor, per los nostres peccatz. Señores, por nuestros pecados. Gavaudan (...1195-1211...) [8:12]
10. Sueño de Villa Real. Flauta de Alarcos [2:03]
11. Belh senher Dieus, quo pot esser sufritz. Buen señor Dios, icómo puede soportarse. Guiraut de Calanson (...1202-1212...) [8:26]
12. Tu ausencia. Quddam Hidyaz Mcharqi. Andalusí [3:42]

Исполнители

MÚSICA ANTIGUA
dirigido por Eduardo Paniagua
Cesar Carazo: canto y viola de brazo
Luis Antonio Muñoz: canto, fídula y pandero
Eduardo Paniagua: flauta de hueso a bisel, flautas, darbuga y tar
Jaime Muñoz: flauta de hueso travesera, kaval, ajabeba, cálamo, cornamusa, gaitas y tamboríl
Jota Martínez: zanfona
Felipe Sánchez: laúd, cítola y tambor
Wafir Shaikheldine: laúd árabe
David Mayoral: tambor, darbuga, pandero, daf y tar
Javier Coble: órgano portátil y viola de teclas

log EAC

Exact Audio Copy V0.99 prebeta 4 from 23. January 2008
EAC extraction logfile from 15. December 2008, 10:25
Eduardo Paniagua / Batalla de Alarcos, 1195
Used drive : Optiarc DVD RW AD-5170A Adapter: 0 ID: 0
Read mode : Secure
Utilize accurate stream : Yes
Defeat audio cache : Yes
Make use of C2 pointers : No
Read offset correction : 48
Overread into Lead-In and Lead-Out : No
Fill up missing offset samples with silence : Yes
Delete leading and trailing silent blocks : No
Null samples used in CRC calculations : Yes
Used interface : Native Win32 interface for Win NT & 2000
Used output format : Internal WAV Routines
Sample format : 44.100 Hz; 16 Bit; Stereo
TOC of the extracted CD
Track | Start | Length | Start sector | End sector
---------------------------------------------------------
1 | 0:00.00 | 5:07.47 | 0 | 23071
2 | 5:07.47 | 5:14.04 | 23072 | 46625
3 | 10:21.51 | 2:38.41 | 46626 | 58516
4 | 13:00.17 | 9:40.51 | 58517 | 102067
5 | 22:40.68 | 4:49.19 | 102068 | 123761
6 | 27:30.12 | 5:54.08 | 123762 | 150319
7 | 33:24.20 | 2:50.22 | 150320 | 163091
8 | 36:14.42 | 6:33.67 | 163092 | 192633
9 | 42:48.34 | 8:12.22 | 192634 | 229555
10 | 51:00.56 | 2:02.58 | 229556 | 238763
11 | 53:03.39 | 8:26.31 | 238764 | 276744
12 | 61:29.70 | 3:42.28 | 276745 | 293422
Range status and errors
Selected range
Filename E:\Music (CD Rips)\Eduardo Paniagua - Batalla de Alarcos, 1195.wav
Peak level 99.9 %
Range quality 100.0 %
Test CRC DD6F2864
Copy CRC DD6F2864
Copy OK
No errors occurred
AccurateRip summary
Track 1 accurately ripped (confidence 1) [46F535F3]
Track 2 accurately ripped (confidence 1) [45D5E8B6]
Track 3 accurately ripped (confidence 1) [069AB92D]
Track 4 accurately ripped (confidence 1) [C6DC6188]
Track 5 accurately ripped (confidence 1) [B1CBBAF1]
Track 6 accurately ripped (confidence 1) [EB2776A4]
Track 7 accurately ripped (confidence 1) [D52172AA]
Track 8 accurately ripped (confidence 1) [338E45B1]
Track 9 accurately ripped (confidence 1) [6E93DB78]
Track 10 accurately ripped (confidence 1) [CB0F1B0F]
Track 11 accurately ripped (confidence 1) [70A3D01C]
Track 12 accurately ripped (confidence 1) [76452B03]
All tracks accurately ripped
End of status report

Audiochecker

AUDIOCHECKER v2.0 beta (build 457) - by Dester - opdester@freemail.hu
~~~~~~~~~~~~~~~~~~~~~~~~~~~~~~~~~~
Начато: суббота, 25. 07. 2015. - 9:10.09
Найдено файлов: 1
1 -===- C:\Documents and Settings\Agni\Мои документы\Foobar\Eduardo Paniagua - Batalla de Alarcos, 1195.wav
Заключение: этот трек - CDDA с вероятностью 99%
Завершено: суббота, 25. 07. 2015. - 9:12.40 (Время операции: 0:02.31)

Audiospectre




Показать сообщения:    

Текущее время: 20-Янв 14:51

Часовой пояс: UTC + 3


Вы не можете начинать темы
Вы не можете отвечать на сообщения
Вы не можете редактировать свои сообщения
Вы не можете удалять свои сообщения
Вы не можете голосовать в опросах
Вы не можете прикреплять файлы к сообщениям
Вы не можете скачивать файлы