(Medieval, Andalusi) El cantar de la Conquista de Almeria por Alfonso VII (Musica Antigua, dir. Eduardo Paniagua) - 2002, WavPack (image+.cue) lossless


 

[Цитировать]

El cantar de la Conquista de Almería por Alfonso VIIPoema épico románico y trovadores de Alfonso VII el emperador, 1147Eduardo Paniagua Жанр: Medieval, Andalusí
Страна-производитель диска: Spain
Год издания диска: 2002
Издатель (лейбл): Pneuma
Номер по каталогу: PN-450
Дата записи: 2002
Аудиокодек: WavPack
Тип рипа: image+.cue
Битрейт аудио: lossless
Продолжительность: 75:03
Источник: собственный рип
Наличие сканов в содержимом раздачи: да

Треклист

I. TROVADORES DE ALFONSO VII, EL EMPERADOR
01. Danza 1 de la conquista de Almería. (Cantiga 353, Alfonso X) [2:31]
02. Canto de cruzada «Pax in nomine Domini». Marcabrú, hacia 1130-1149 [3:28]
03. Canción «Ara pareisson lláubre sec» (Ahora aparecen secos los árboles) ALEGRET, [3:28]
hacia 1145, Contrafacta de canción andalusí de la núba al-Maya.
04. Canto de cruzada «Emperaire, per mi mezeis» (Emperador, por mi propio impulso...) [4:01]
Marcabrú, 1145. Contrafacta de «L'áutre ier a l'eissida d'abrio» de Marcabru.
II. «EL POEMA DE ALMERÍA» Atribuido a ARNALDO obispo de Astorga, hacia 1149.
05. Prefacio. Rex pie, rex fortis (versos, I-XIII). (Contrafacta, Códice Calixtino, siglo XII) [2:58]
ESPAÑOLES Y FRANCOS BAJO ALFONSO VII
06. Concentración de las tropas (v, 1-24). Convenere duces Hispani. (Cantar de Almería 1) [4:34]
07. Predicación de la Cruzada (v, 25-32). Pontifices omnes Legionis sive Toleti. (C/C 69) [1:30]
08. Entusiasmo de las tropas (v, 33-50). Pontificum clangor. (C/C 341) [3:18]
AVANCE DE LOS EJERCITOS
09. Las Tropas de Galicia (v, 51-65). Maius est mensis. (C/C 136) [2:09]
10. Las Tropas de León (v, 66-100). Florida milities. (C/C 385) [4:37]
11. Las Tropas de Asturias (v, 101-124). Irruit interea non ultimus impiger Astur. (C/C 221) [3:19]
12. El ejercito de Castilla (v, 125-148). Post hos Castellae. (Cantar de Almería 2) [3:51]
13. Las Tropas de Extremadura (v, 149-185). Innumerabilis, insuperabilis. (C/C 344) [5:09]
14. Los Portugueses y Fernando Juanes (v, 186-203). Iungitur his cunctis. (C/C 335) [2:57]
15. Los Toledanos y Alvar Rodriguez (v, 204-232). Alvarus ecce venit. (C/C 418) [3:37]
16. Navia, Montenegro, y lugo (v, 233-242). Navia dat vires. (C/C 382) [2:06]
17. Hita y Martin Fernandez (v, 243-272). Natus Ferdinandi. (C/C 358) [3:13]
18. Danza 2 de la conquista de Almería. (Cantiga 353) [1:49]
19. El Rey Garcia Ramirez de Navarra (v, 273-281). Ad bellum properat. (Cantar de Almería 3) [1:45]
LAS BATALLAS
20. Conquista de Andújar (v, 282-319). Talibus auxiliis. (C/C 374) [4:27]
21. Descanso del ejercito (v, 320-327). Omnibus expletis. (Cantar de Almería 4) [1:57]
22. Francos, Catalanes, Genoveses y Pisanos (v, 328-345). O decus agregium. (C/C 195) [2:22]
23. Los males de la guerra (v, 349-360). Talibus auditis. (C/C 359) [2:35]
24. Exhortación del Obispo de Astorgas (v, 361-373). Inter pontifices. (Cantar de Almería 5) [2:07]
25. Benedicamus Domino cum cantico. Códice de las Huelgas, siglo XIII. [1:15]
C/C = Contrafacta Cantiga de Alfonso X el Sabio

Исполнители

MÚSICA ANTIGUA
Director: Eduardo Paniagua
Cesar Carazo: canto y recitativo
Luis Antonio Muñoz: canto y recitativo
Felipe Sanchez: laúd y cítola
Wafir Sheik: laúd árabe y saz
Javier Coble: órgano portatil y viola de teclas
Enrique Almendros: gaitas, flautas de tres agueros, tambor, chicotén y chorus
David Mayoral: añafil, darbuga, dumbek, atabal, tamburelo, daff, pandero y cántara
Eduardo Paniagua: tromba marina, añafil, salterio, flautas dulces, nácaras, tar y campaníl

log EAC

Exact Audio Copy V0.99 prebeta 4 from 23. January 2008
Отчёт EAC об извлечении, выполненном 1. августа 2009, 20:10
Eduardo Paniagua / El cantar de la Conquista de Almeria
Дисковод: PIONEER DVD-RW DVR-112D Adapter: 0 ID: 1
Режим чтения : Достоверность
Использование точного потока : Да
Отключение кэша аудио : Да
Использование указателей C2 : Нет
Коррекция смещения при чтении : 48
Способность читать области Lead-in и Lead-out : Нет
Заполнение пропущенных сэмплов тишиной : Да
Удаление блоков с тишиной в начале и конце : Нет
При вычислениях CRC использовались нулевые сэмплы : Да
Интерфейс : Встроенный Win32-интерфейс для Win NT/2000
Выходной формат : Внутренние WAV-операции
Формат сэмплов : 44.100 Гц; 16 бит; стерео
TOC извлечённого CD
Трек | Старт | Длительность | Начальный сектор | Конечный сектор
---------------------------------------------------------------------
1 | 0:00.00 | 2:31.31 | 0 | 11355
2 | 2:31.31 | 3:28.08 | 11356 | 26963
3 | 5:59.39 | 3:28.27 | 26964 | 42590
4 | 9:27.66 | 4:00.48 | 42591 | 60638
5 | 13:28.39 | 2:58.18 | 60639 | 74006
6 | 16:26.57 | 4:34.36 | 74007 | 94592
7 | 21:01.18 | 1:30.08 | 94593 | 101350
8 | 22:31.26 | 3:17.68 | 101351 | 116193
9 | 25:49.19 | 2:09.34 | 116194 | 125902
10 | 27:58.53 | 4:36.53 | 125903 | 146655
11 | 32:35.31 | 3:19.03 | 146656 | 161583
12 | 35:54.34 | 3:50.67 | 161584 | 178900
13 | 39:45.26 | 5:09.29 | 178901 | 202104
14 | 44:54.55 | 2:57.06 | 202105 | 215385
15 | 47:51.61 | 3:37.10 | 215386 | 231670
16 | 51:28.71 | 2:05.44 | 231671 | 241089
17 | 53:34.40 | 3:13.12 | 241090 | 255576
18 | 56:47.52 | 1:48.46 | 255577 | 263722
19 | 58:36.23 | 1:44.48 | 263723 | 271570
20 | 60:20.71 | 4:27.10 | 271571 | 291605
21 | 64:48.06 | 1:56.74 | 291606 | 300379
22 | 66:45.05 | 2:21.60 | 300380 | 311014
23 | 69:06.65 | 2:35.03 | 311015 | 322642
24 | 71:41.68 | 2:06.65 | 322643 | 332157
25 | 73:48.58 | 1:14.49 | 332158 | 337756
Характеристики диапазона извлечения и сообщения об ошибках
Выбранный диапазон
Имя файла C:\Documents and Settings\Индра\Мои документы\Моя музыка\Eduardo Paniagua - El cantar de la Conquista de Almeria.wav
Пиковый уровень 98.0 %
Качество диапазона 100.0 %
CRC теста DC9A76FD
CRC копии DC9A76FD
Копирование... OK
Ошибок не произошло
AccurateRip: сводка
Трек 1 нет в базе данных
Трек 2 нет в базе данных
Трек 3 нет в базе данных
Трек 4 нет в базе данных
Трек 5 нет в базе данных
Трек 6 нет в базе данных
Трек 7 нет в базе данных
Трек 8 нет в базе данных
Трек 9 нет в базе данных
Трек 10 нет в базе данных
Трек 11 нет в базе данных
Трек 12 нет в базе данных
Трек 13 нет в базе данных
Трек 14 нет в базе данных
Трек 15 нет в базе данных
Трек 16 нет в базе данных
Трек 17 нет в базе данных
Трек 18 нет в базе данных
Трек 19 нет в базе данных
Трек 20 нет в базе данных
Трек 21 нет в базе данных
Трек 22 нет в базе данных
Трек 23 нет в базе данных
Трек 24 нет в базе данных
Трек 25 нет в базе данных
Ни одного трека нет в базе AccurateRip
Конец отчёта

Audichecker

AUDIOCHECKER v2.0 beta (build 457) - by Dester - opdester@freemail.hu
~~~~~~~~~~~~~~~~~~~~~~~~~~~~~~~~~~
Начато: суббота, 25. 07. 2015. - 18:12.39
Найдено файлов: 1
1 -===- C:\Documents and Settings\Agni\Мои документы\Foobar\Eduardo Paniagua - El cantar de la Conquista de Almeria.wav
Заключение: этот трек - CDDA с вероятностью 100%
Завершено: суббота, 25. 07. 2015. - 18:15.07 (Время операции: 0:02.28)

Audiospectre




Показать сообщения:    

Текущее время: 11-Дек 13:02

Часовой пояс: UTC + 3


Вы не можете начинать темы
Вы не можете отвечать на сообщения
Вы не можете редактировать свои сообщения
Вы не можете удалять свои сообщения
Вы не можете голосовать в опросах
Вы не можете прикреплять файлы к сообщениям
Вы не можете скачивать файлы