(Renaissance) J. Dalza, J. del Enzina, J. Desprez, A. Busnois, H. Isaac, H. Weck, Gulielmus - Musica cortesana en la Europa de Juana I de Castilla (Musica Antigua, dir. Eduardo Paniagua) - 2005, WavPack (image+.cue) lossless


 

[Цитировать]

Música cortesana en la Europa de
Juana I de Castilla
1479-1555
Eduardo Paniagua
Жанр: Renaissance
Страна-производитель диска: Spain
Год издания диска: 2005
Издатель (лейбл): Pneuma
Номер по каталогу: PN-710
Дата записи: February 2004
Аудиокодек: WavPack
Тип рипа: image+.cue
Битрейт аудио: lossless
Продолжительность: 58:57
Источник: собственный рип
Наличие сканов в содержимом раздачи: да

Треклист

01. «My lady carey's dompe» [4:32]
Anónimo (hacia 1525). British Museum. Roy. App 58.
Viola da gamba, vihuela, flautas alto y tenor, viola, dulcimer, regalía y percusión
02. «Calata 2 a la spagnola» [2:47]
Joanambrosio Dalza (hacia 1500). Intabolatura de Lauto, Milán 1508.
Vihuela, dulcimer
03. «Quien te traxo, cavallero» [2:55]
Juan del Enzina (1469-1529). Cancionero Musical de Palacio.
Canto, vihuela, flautas alto y tenor, percusión
04. Pavana Bittre Reue (Mille regretz) [9:16]
Josquin Desprez (entre 1445 y 1521), Tielman Susato (15-1561).
Canto, vihuela, flautas tenor, viola
05. «Calata 1 a la spagnola» [3:06]
Joanambrosio Dalza (hacia 1500). Intabolatura de Lauto, Milán 1508.
Vihuela, flauta alto, viola da gamba, percusión
06. «Fortuna desperata» [4:31]
Antoine Busnois (hacia 1492). British Museum Add. MS. 31922.
Flautas alto y tenor, vihuela, viola, salterio, percusión
07. «Calata 6 a la spagnola» [2:21]
Joanambrosio Dalza (hacia 1500). Intabolatura de Lauto, Milán 1508.
Vihuela
08. «Tan buen ganadico» [3:19]
Juan del Enzina (1469-1529). Cancionero Musical de Palacio.
Canto, vihuela, laúd árabe, flauta alto, percusión
09. «Innsbruck, ich muss dich lassen» [5:37]
Heinrich Isaac (hacia 1450-1517). Biblioteca Universidad de Basilea.
Canto, flautas alto y tenor, vihuela, viola, viola da gamba, percusión
10. «Calata 5 a la spagnola» [2:44]
Joanambrosio Dalza (hacia 1500). Intabolatura de Lauto, Milán 1508.
Vihuela, flauta alto, viola da gamba, percusión
11. «Hopper dancz» [3:22]
Hans Weck (1495-1536). Amerbach Buxheimer Orgelbuch (hacia 1510), Munich.
Vihuela, viola da gamba, flauta tenor, percusión
12. «Calata 3 a la spagnola» [2:16]
Joanambrosio Dalza (hacia 1500). Intabolatura de Lauto, Milán 1508.
Vihuela, flauta alto
13. «Una musque de Buscgaya» [4:58]
Josquin Desprez (hacia 1445-1521). Canti C, Odhecaton, Petrucci, Venecia 1503.
Flauta alto y tenor, vihuela, viola, viola da gamba, percusión
14. «Calata 4 a la spagnola» [2:11]
Joanambrosio Dalza (hacia 1500). Intabolatura de Lauto, Milán 1508.
Vihuela, flauta tenor, viola da gamba, percusión
15. «La bassa castiglia, Falla con misuras» [5:03]
(Bassadanza). Gulielmus (hacia 1475). Biblioteca Comunale, Perugia MS. 431.
Flauta tenor, viola da gamba, vihuela, regalía, dulcimer, percusión

Исполнители

Música Antigua
bajo la dirección de Eduardo Paniagua
Cesar Carazo: canto, viola de brazo
Felipe Sánchez: vihuela de mano
Leonardo Luckert: viola da gamba
Alfonso Tomas: flautas a bisel alto y tenor
Eduardo Paniagua: flautas a bisel alto y tenor, salterio, regalía y pandero
David Mayoral: dulcimer, panderetas, panderos, cántara, tambores y daf
Wafir Sheik: laúd árabe

log EAC

Exact Audio Copy V0.99 prebeta 4 from 23. January 2008
Отчёт EAC об извлечении, выполненном 8. августа 2009, 12:57
Eduardo Paniagua / Musica cortesana en la Europa de Juana I de Castilla
Дисковод: PIONEER DVD-RW DVR-112D Adapter: 0 ID: 1
Режим чтения : Достоверность
Использование точного потока : Да
Отключение кэша аудио : Да
Использование указателей C2 : Нет
Коррекция смещения при чтении : 48
Способность читать области Lead-in и Lead-out : Нет
Заполнение пропущенных сэмплов тишиной : Да
Удаление блоков с тишиной в начале и конце : Нет
При вычислениях CRC использовались нулевые сэмплы : Да
Интерфейс : Встроенный Win32-интерфейс для Win NT/2000
Выходной формат : Внутренние WAV-операции
Формат сэмплов : 44.100 Гц; 16 бит; стерео
TOC извлечённого CD
Трек | Старт | Длительность | Начальный сектор | Конечный сектор
---------------------------------------------------------------------
1 | 0:00.00 | 4:32.18 | 0 | 20417
2 | 4:32.18 | 2:46.44 | 20418 | 32911
3 | 7:18.62 | 2:55.05 | 32912 | 46041
4 | 10:13.67 | 9:16.14 | 46042 | 87755
5 | 19:30.06 | 3:06.15 | 87756 | 101720
6 | 22:36.21 | 4:30.42 | 101721 | 122012
7 | 27:06.63 | 2:20.66 | 122013 | 132578
8 | 29:27.54 | 3:19.34 | 132579 | 147537
9 | 32:47.13 | 5:37.16 | 147538 | 172828
10 | 38:24.29 | 2:43.74 | 172829 | 185127
11 | 41:08.28 | 3:22.35 | 185128 | 200312
12 | 44:30.63 | 2:15.54 | 200313 | 210491
13 | 46:46.42 | 4:58.08 | 210492 | 232849
14 | 51:44.50 | 2:10.42 | 232850 | 242641
15 | 53:55.17 | 5:02.39 | 242642 | 265330
Характеристики диапазона извлечения и сообщения об ошибках
Выбранный диапазон
Имя файла C:\Documents and Settings\Индра\Мои документы\Моя музыка\Eduardo Paniagua - Musica cortesana en la Europa de Juana I de Castilla.wav
Пиковый уровень 98.0 %
Качество диапазона 100.0 %
CRC теста 421DC115
CRC копии 421DC115
Копирование... OK
Ошибок не произошло
AccurateRip: сводка
Трек 1 точность не определена (достоверность 1) [390A1C7D], AccurateRip вернул [6C0FF947]
Трек 2 точность не определена (достоверность 1) [C05575AF], AccurateRip вернул [119116CD]
Трек 3 точность не определена (достоверность 1) [53907263], AccurateRip вернул [8E89C2E4]
Трек 4 точность не определена (достоверность 1) [041FAE7B], AccurateRip вернул [8D61D767]
Трек 5 точность не определена (достоверность 1) [30DB4D83], AccurateRip вернул [E5C78B03]
Трек 6 точность не определена (достоверность 1) [C33CB814], AccurateRip вернул [2DEEF224]
Трек 7 точность не определена (достоверность 1) [F5FB8E0E], AccurateRip вернул [09D3D5B9]
Трек 8 точность не определена (достоверность 1) [3661F2CC], AccurateRip вернул [7653E4B2]
Трек 9 точность не определена (достоверность 1) [EA520E03], AccurateRip вернул [8B29E0D3]
Трек 10 точность не определена (достоверность 1) [B682111F], AccurateRip вернул [07A11A3F]
Трек 11 точность не определена (достоверность 1) [927BE254], AccurateRip вернул [0AD512DF]
Трек 12 точность не определена (достоверность 1) [E914C511], AccurateRip вернул [7DA42BD4]
Трек 13 точность не определена (достоверность 1) [E794CE19], AccurateRip вернул [400CDB72]
Трек 14 точность не определена (достоверность 1) [62F359D6], AccurateRip вернул [3D65A526]
Трек 15 точность не определена (достоверность 1) [503A7B43], AccurateRip вернул [802A77C0]
Ни один трек не прошёл проверки на точность
В вашей базе может быть иной вариант штамповки диска
Конец отчёта

Audiochecker

AUDIOCHECKER v2.0 beta (build 457) - by Dester - opdester@freemail.hu
~~~~~~~~~~~~~~~~~~~~~~~~~~~~~~~~~~
Начато: суббота, 25. 07. 2015. - 14:58.21
Найдено файлов: 1
1 -===- C:\Documents and Settings\Agni\Мои документы\Foobar\Eduardo Paniagua - Musica cortesana en la Europa de Juana I de Castilla.wav
Заключение: этот трек - CDDA с вероятностью 99%
Завершено: суббота, 25. 07. 2015. - 15:00.20 (Время операции: 0:01.58)

Audiospectre




Показать сообщения:    

Текущее время: 24-Янв 12:10

Часовой пояс: UTC + 3


Вы не можете начинать темы
Вы не можете отвечать на сообщения
Вы не можете редактировать свои сообщения
Вы не можете удалять свои сообщения
Вы не можете голосовать в опросах
Вы не можете прикреплять файлы к сообщениям
Вы не можете скачивать файлы