(Classical) Giovanni Battista Somis - Violin Sonatas, Op.I - Kreeta-Maria Kentala, Lauri Pulakka, Mitzi Meyerson - 2014, FLAC (image+.cue) lossless


 

[Цитировать]

Giovanni Battista Somis - Violin Sonatas, Op.I - Kreeta-Maria Kentala, Lauri Pulakka, Mitzi Meyerson
Жанр: Classical
Страна-производитель диска: Spain
Год издания диска: 2014
Издатель (лейбл): Glossa
Номер по каталогу: GCD 921807
Дата записи: 2013
Аудиокодек: FLAC
Тип рипа: image+.cue
Битрейт аудио: lossless
Продолжительность: 73:46
Источник: собственный рип
Наличие сканов в содержимом раздачи: да
Треклист:
Giovanni Battista Somis (1686-1763)
Violin Sonatas, Op.I
Amsterdam, 1717
[1]-[3] Sonata No.6 in D major
[4]-[6] Sonata No.9 in G minor
[7]-[9] Sonata No.5 in B flat major
[10]-[12] Sonata No.7 in E flat major
[13]-[15] Sonata No.10 in C major
[16]-[18] Sonata No.2 in E minor
[19]-[21] Sonata No.1 in G minor
[22]-[24] Sonata No.12 in E major
[25]-[27] Sonata No.8 in A major
[28]-[30] Sonata No.4 in D minor
[31]-[33] Sonata No.3 in A minor
[34]-[36] Sonata No.11 in F major
Исполнители:
Kreeta-Maria Kentala violin
Lauri Pulakka cello
Mitzi Meyerson harpsichord

Лог создания рипа

Exact Audio Copy V1.0 beta 3 from 29. August 2011
EAC extraction logfile from 22. July 2015, 23:11
Kreeta-Maria Kentala, Lauri Pulakka, Mitzi Meyerson / Somis - Violin Sonatas, Op.I
Used drive : HL-DT-STDVDRAM GU70N Adapter: 0 ID: 0
Read mode : Secure
Utilize accurate stream : Yes
Defeat audio cache : Yes
Make use of C2 pointers : No
Read offset correction : 48
Overread into Lead-In and Lead-Out : No
Fill up missing offset samples with silence : Yes
Delete leading and trailing silent blocks : No
Null samples used in CRC calculations : Yes
Used interface : Native Win32 interface for Win NT & 2000
Used output format : User Defined Encoder
Selected bitrate : 128 kBit/s
Quality : High
Add ID3 tag : No
Command line compressor : C:\Program Files (x86)\Exact Audio Copy\Flac\flac.exe
Additional command line options : -V -8 -T "Date=%year%" -T "Genre=%genre%" %source%
TOC of the extracted CD
Track | Start | Length | Start sector | End sector
---------------------------------------------------------
1 | 0:00.00 | 1:32.37 | 0 | 6936
2 | 1:32.37 | 2:31.58 | 6937 | 18319
3 | 4:04.20 | 1:28.48 | 18320 | 24967
4 | 5:32.68 | 1:37.29 | 24968 | 32271
5 | 7:10.22 | 2:19.71 | 32272 | 42767
6 | 9:30.18 | 2:55.30 | 42768 | 55922
7 | 12:25.48 | 1:13.50 | 55923 | 61447
8 | 13:39.23 | 2:49.64 | 61448 | 74186
9 | 16:29.12 | 2:11.72 | 74187 | 84083
10 | 18:41.09 | 2:31.07 | 84084 | 95415
11 | 21:12.16 | 1:19.63 | 95416 | 101403
12 | 22:32.04 | 1:16.20 | 101404 | 107123
13 | 23:48.24 | 2:10.28 | 107124 | 116901
14 | 25:58.52 | 2:12.57 | 116902 | 126858
15 | 28:11.34 | 2:43.21 | 126859 | 139104
16 | 30:54.55 | 1:47.63 | 139105 | 147192
17 | 32:42.43 | 2:05.72 | 147193 | 156639
18 | 34:48.40 | 2:32.28 | 156640 | 168067
19 | 37:20.68 | 1:36.51 | 168068 | 175318
20 | 38:57.44 | 2:05.72 | 175319 | 184765
21 | 41:03.41 | 2:38.34 | 184766 | 196649
22 | 43:42.00 | 1:29.25 | 196650 | 203349
23 | 45:11.25 | 2:09.55 | 203350 | 213079
24 | 47:21.05 | 1:50.26 | 213080 | 221355
25 | 49:11.31 | 1:22.41 | 221356 | 227546
26 | 50:33.72 | 2:23.63 | 227547 | 238334
27 | 52:57.60 | 1:41.18 | 238335 | 245927
28 | 54:39.03 | 2:15.31 | 245928 | 256083
29 | 56:54.34 | 2:14.73 | 256084 | 266206
30 | 59:09.32 | 1:33.70 | 266207 | 273251
31 | 60:43.27 | 2:05.39 | 273252 | 282665
32 | 62:48.66 | 2:23.59 | 282666 | 293449
33 | 65:12.50 | 2:14.52 | 293450 | 303551
34 | 67:27.27 | 1:06.12 | 303552 | 308513
35 | 68:33.39 | 2:01.44 | 308514 | 317632
36 | 70:35.08 | 3:09.31 | 317633 | 331838
Range status and errors
Selected range
Filename C:\temp\Somis - Violin Sonatas, Op.I\Somis - Violin Sonatas, Op.I.wav
Peak level 98.3 %
Extraction speed 2.3 X
Range quality 100.0 %
Test CRC 25F7F018
Copy CRC 25F7F018
Copy OK
No errors occurred
AccurateRip summary
Track 1 accurately ripped (confidence 2) [A6C12EA5] (AR v2)
Track 2 accurately ripped (confidence 2) [F9B709A2] (AR v2)
Track 3 accurately ripped (confidence 2) [927674A6] (AR v2)
Track 4 accurately ripped (confidence 2) [D8F15702] (AR v2)
Track 5 accurately ripped (confidence 2) [C06AD3BE] (AR v2)
Track 6 accurately ripped (confidence 2) [7FD5ACF2] (AR v2)
Track 7 accurately ripped (confidence 2) [674AB2F4] (AR v2)
Track 8 accurately ripped (confidence 2) [2CFAEF53] (AR v2)
Track 9 accurately ripped (confidence 2) [90612107] (AR v2)
Track 10 accurately ripped (confidence 2) [9C57AF8F] (AR v2)
Track 11 accurately ripped (confidence 2) [4BE3D46E] (AR v2)
Track 12 accurately ripped (confidence 2) [8DA293BB] (AR v2)
Track 13 accurately ripped (confidence 2) [0A7CA45B] (AR v2)
Track 14 accurately ripped (confidence 2) [8D0507EA] (AR v2)
Track 15 accurately ripped (confidence 2) [4D12B8F6] (AR v2)
Track 16 accurately ripped (confidence 2) [86E50C35] (AR v2)
Track 17 accurately ripped (confidence 2) [A97DBFCE] (AR v2)
Track 18 accurately ripped (confidence 2) [FF935FDC] (AR v2)
Track 19 accurately ripped (confidence 2) [7C877846] (AR v2)
Track 20 accurately ripped (confidence 2) [4107AE4C] (AR v2)
Track 21 accurately ripped (confidence 2) [CDD54940] (AR v2)
Track 22 accurately ripped (confidence 2) [D883A72F] (AR v2)
Track 23 accurately ripped (confidence 2) [B27D75C6] (AR v2)
Track 24 accurately ripped (confidence 2) [AC098CB8] (AR v2)
Track 25 accurately ripped (confidence 2) [41910681] (AR v2)
Track 26 accurately ripped (confidence 2) [B51C4418] (AR v2)
Track 27 accurately ripped (confidence 2) [62C97CA8] (AR v2)
Track 28 accurately ripped (confidence 2) [89F3486F] (AR v2)
Track 29 accurately ripped (confidence 2) [92D0C17A] (AR v2)
Track 30 accurately ripped (confidence 2) [B636C231] (AR v2)
Track 31 accurately ripped (confidence 2) [506B03F6] (AR v2)
Track 32 accurately ripped (confidence 2) [D0914967] (AR v2)
Track 33 accurately ripped (confidence 2) [E3BD0F27] (AR v2)
Track 34 accurately ripped (confidence 2) [0DB2039B] (AR v2)
Track 35 accurately ripped (confidence 2) [E5AC49C3] (AR v2)
Track 36 accurately ripped (confidence 2) [223E0704] (AR v2)
All tracks accurately ripped
End of status report
==== Log checksum D5DA1F98B2487CA702F1E63D64898F4E6EE022074115891AB61E846C7A46D803 ====



Показать сообщения:    

Текущее время: 03-Дек 05:29

Часовой пояс: UTC + 3


Вы не можете начинать темы
Вы не можете отвечать на сообщения
Вы не можете редактировать свои сообщения
Вы не можете удалять свои сообщения
Вы не можете голосовать в опросах
Вы не можете прикреплять файлы к сообщениям
Вы не можете скачивать файлы