[TR24][OF] Vanessa Benelli Mosell - [R]evolution (Karlheinz Stockhausen, Karol Beffa, Igor Stravinsky / Игорь Стравинский) - 2015 (Classical, Piano)

DL-List and Torrent activity [Update пиров]
Size:  821 MB   |    Registered:  7 months 2 days   |    Completed:  1 time

Seeder not seen: 1 month 3 days



Vanessa Benelli Mosell
-Год издания: 2015
Жанр: Classical | Издатель: Decca
Продолжительность: 00:58:08
Наличие сканов: Sleeve, Digital Booklet- -Контейнер: FLAC (*.flac) | Тип рипа: tracks
Разрядность: 24bit / 96kHz | Количество каналов: 2.0
Karlheinz Stockhausen (1928 - 2007)
01.Klavierstück I (3:04)
02. Klavierstück II (1:52)
03. Klavierstück III (0:38)
04. Klavierstück IV (2:08)
05. Klavierstück V (5:32)
06. Klavierstück VII (6:56)
07. Klavierstück VIII (2:16)
08. Klavierstück IX (10:59)
Karol Beffa (b. 1973)
Suite pour piano ou clavecin
09. I. La volubile (1:52)
10. II. La ténébreuse (3:16)
11. III. La déjantée (4:01)
Igor Stravinsky (1882 - 1971)
Trois mouvements de Petrouchka
12. I. Danse russe (2:29)
13. II. Chez Petrouchka (4:32)
14. III. La Semaine Grasse (8:33)

О релизе

[R]evolution celebrates the Decca debut for Italian pianist Vanessa Benelli Mosell and is a tribute to the music of the twentieth century.
When was the last time you heard any Stockhausen? Since his death, at the end of 2007, the German avant-gardist's star has fallen in a reverse curve to that of his French comrade, Pierre Boulez. Hardly any Stockhausen is being recorded these days, and there are few concerts where the music can be heard. So an album by a young pianist who worked with the composer in his final years is a welcome opportunity to revisit a brave old world that has virtually vanished.
And it’s not hard to see why. Stockhausen’s 8 Klavierstücke (piano pieces), written between 1952 and 1961 as the composer was making his mark, are the kind of stuff that gave the avant-garde a bad name for random plinky-plonks and unprovoked violence. Vanessa Benelli Mosell makes the eight morsels sound reasonably structured and almost musical at times, but the grim austerity of Stockhausen’s sound world simply cannot be dispelled and the ear is grateful for every silence it can grab.
The album’s other works are more appealing, and winningly played. Karl Beffa’s 2008 suite is designed for either piano or harpsichord; having heard it played on one, I now crave the other. And Stravinsky’s Three Movements from Petrushka are hammered out with a reckless Russian brutalism, so much more feral than Stockhausen’s car-crash. Mosell, 28, has put together a really clever programme. But all she reveals by juxtaposition is Stockhausen’s mechanical lack of a human touch. (sinfinimusic.com)
Vanessa Benelli Mosell, piano

ОтчётыДинамический диапазон

foobar2000 1.3.8 / Dynamic Range Meter 1.1.1
log date: 2015-07-25 21:36:43
Analyzed: Vanessa Benelli Mosell / [R]evolution
DR Peak RMS Duration Track
DR15 -0.67 dB -20.08 dB 3:04 01-Klavierstück I
DR16 -0.79 dB -22.58 dB 1:52 02-Klavierstück II
DR15 -2.14 dB -23.49 dB 0:38 03-Klavierstück III
DR14 -2.33 dB -21.07 dB 2:08 04-Klavierstück IV
DR16 -0.49 dB -22.79 dB 5:32 05-Klavierstück V
DR19 -0.39 dB -26.59 dB 6:56 06-Klavierstück VII
DR15 -0.75 dB -20.98 dB 2:16 07-Klavierstück VIII
DR17 -0.32 dB -23.89 dB 10:59 08-Klavierstück IX
DR11 -4.64 dB -21.00 dB 1:52 09-Suite pour piano ou clavecin - I. La volubile
DR13 -3.53 dB -22.46 dB 3:16 10-Suite pour piano ou clavecin - II. La ténébreuse
DR14 -0.59 dB -18.83 dB 4:01 11-Suite pour piano ou clavecin - III. La déjantée
DR14 0.00 dB -17.87 dB 2:29 12-Trois mouvements de Petrouchka - I. Danse russe
DR12 0.00 dB -17.18 dB 4:32 13-Trois mouvements de Petrouchka - II. Chez Petrouchka
DR12 -0.28 dB -16.09 dB 8:33 14-Trois mouvements de Petrouchka - III. La Semaine Grasse
Number of tracks: 14
Official DR value: DR14
Samplerate: 96000 Hz
Channels: 2
Bits per sample: 24
Bitrate: 917 kbps
Codec: FLAC

Скриншот спектра частот

Доп. информация

При скачивании, если необходимо, переименуйте папку, в которой будет находиться альбомБольшая просьба к скачавшим поддерживать раздачу! Помогайте другим, ведь вам тоже может понадобиться помощь!Не забываем говорить "Спасибо"!Комментарии приветствуются!
Torrent: Registered [ 2016-03-20 12:52 ] · 7C5B2B0A15444207E37088C7416B0C01AAE24098

Download .torrent


18 KB

Status: checked
Completed: 1 times
Size: 821 MB

Quick Reply


Heads necessary to send messages to enable JavaScript
Display posts:    

Current time is: 22-Oct 20:56

All times are UTC + 3

You can post new topics in this forum
You can reply to topics in this forum
You cannot edit your posts in this forum
You cannot delete your posts in this forum
You cannot vote in polls in this forum
You cannot attach files in this forum
You can download files in this forum