Волшебное зелье Астерикса / La potion Asterix (Паскаль Форнери / Pascal Forneri) [2013, документальный, комикс, DVB] Original (Fre) + Sub (Rus, Eng, Fre, Deu)


Статистика раздачи [Обновить пиров]
Размер:  1.17 GB   |    Зарегистрирован:  8 месяцев 14 дней   |    Скачан:  1 раз

Полного источника не было: 1 день 8 часов

 
   
 
 
 

[Цитировать]

Волшебное зелье Астерикса
La potion Astérix- Дата/Год выпуска: 2013
Страна: Франция
Жанр: документальный, комикс
Продолжительность: 00:54:27
Перевод: Субтитры
Доп. инфо о переводе: русский перевод Г.Мирзоевой, Éclair Group
Русские субтитры: есть
Формат субтитров: prerendered (IDX+SUB)
Доп. информация о субтитрах: русские, английские, французские, немецкие, нидерландские, румынские
Оригинальная аудиодорожка: французский
Режиссер: Паскаль Форнери / Pascal Forneri
Телеканал: TV5MONDE Europe
Описание: Как за 15 минут можно было придумать самый популярный европейский комикс, мировой тираж которого 350 миллионов экземпляров? Он переведен на 11 языков и составляет 35 томов. По нему снято 4 игровых и 8 анимационных фильмов. Создан парк аттракционов. Какое волшебное зелье превращает комикс в легенду? (из предисловия к фильму)
Доп. информация: Hot Bird (13.0°E) TV5MONDE Europe DVB-S
Участник Festival d'Angoulême 2014.

качество: DVB
формат: MKV
Видео: MPEG Video 2, 720x576@1024x576 (16:9), 25 fps, ~2833 kbps avg, 0.273 bit/pixel
Аудио: MPEG Audio 2, 2 ch, 48 kHz, ~192.00 kbps avg - французский

MediaInfo

Общее
Уникальный идентификатор : 242848299810724057840544769466274542158 (0xB6B2E199EBD00A79A1EBB7176F85F24E)
Полное имя : F:\My Torrents 3\[apreder]La_potion_Asterix(2013)DVB.mkv
Формат : Matroska
Версия формата : Version 2
Размер файла : 1,17 Гбайт
Продолжительность : 54 м.
Режим общего битрейта : Переменный
Общий поток : 3086 Кбит/сек
Дата кодирования : UTC 2015-07-25 19:19:12
Программа кодирования : mkvmerge v8.2.0 ('World of Adventure') 64bit
Библиотека кодирования : libebml v1.3.1 + libmatroska v1.4.2
Attachements : cover.jpg / cover_small.jpg
Видео
Идентификатор : 1
Формат : MPEG Video
Версия формата : Version 2
Профиль формата : Main@Main
Параметр BVOP формата : Да
Параметр матрицы формата : Выборочная
Параметр GOP формата : M=4, N=12
Format_Settings_PictureStructure : Frame
Идентификатор кодека : V_MPEG2
Идентификатор кодека/Информация : MPEG 1 or 2 Video
Продолжительность : 54 м.
Вид битрейта : Переменный
Битрейт : 2833 Кбит/сек
Ширина : 720 пикселей
Высота : 576 пикселей
Соотношение сторон : 16:9
Режим частоты кадров : Постоянный
Частота кадров : 25,000 кадров/сек
Стандарт вещания : PAL
Цветовое пространство : YUV
Субдискретизация насыщенности : 4:2:0
Битовая глубина : 8 бит
Тип развёртки : Чересстрочная
Порядок развёртки : Верхнее поле первое
Метод сжатия : С потерями
Бит/(Пиксели*Кадры) : 0.273
Временной код первого кадра : 00:00:00:00
Оригинал временного кода : Group of pictures header
Размер потока : 1,08 Гбайт (92%)
Default : Да
Forced : Нет
Аудио
Идентификатор : 2
Формат : MPEG Audio
Версия формата : Version 1
Профиль формата : Layer 2
Режим : Joint stereo
Расширение режима : Intensity Stereo + MS Stereo
Идентификатор кодека : A_MPEG/L2
Идентификатор кодека/Подсказка : MP2
Продолжительность : 54 м.
Вид битрейта : Постоянный
Битрейт : 192 Кбит/сек
Каналы : 2 канала
Частота : 48,0 КГц
Метод сжатия : С потерями
Размер потока : 74,8 Мбайт (6%)
Язык : French
Default : Да
Forced : Нет
Текст #1
Идентификатор : 3
Формат : VobSub
Идентификатор кодека : S_VOBSUB
Идентификатор кодека/Информация : Picture based subtitle format used on DVDs
Язык : Russian
Default : Да
Forced : Нет
Текст #2
Идентификатор : 4
Формат : VobSub
Идентификатор кодека : S_VOBSUB
Идентификатор кодека/Информация : Picture based subtitle format used on DVDs
Язык : English
Default : Нет
Forced : Нет
Текст #3
Идентификатор : 5
Формат : VobSub
Идентификатор кодека : S_VOBSUB
Идентификатор кодека/Информация : Picture based subtitle format used on DVDs
Язык : French
Default : Нет
Forced : Нет
Текст #4
Идентификатор : 6
Формат : VobSub
Идентификатор кодека : S_VOBSUB
Идентификатор кодека/Информация : Picture based subtitle format used on DVDs
Язык : German
Default : Нет
Forced : Нет
Текст #5
Идентификатор : 7
Формат : VobSub
Идентификатор кодека : S_VOBSUB
Идентификатор кодека/Информация : Picture based subtitle format used on DVDs
Язык : Dutch
Default : Нет
Forced : Нет
Текст #6
Идентификатор : 8
Формат : VobSub
Идентификатор кодека : S_VOBSUB
Идентификатор кодека/Информация : Picture based subtitle format used on DVDs
Язык : Romanian
Default : Нет
Forced : Нет

Скриншоты


Резервные скриншоты


-[2'490]
[teatrix.ru].t21840.torrent 
Торрент: Зарегистрирован [ 2016-03-20 12:52 ] · 10B194E1B1B6F08C0F15010085EC17773C544D90

Скачать .torrent

Скачать

12 KB

Статус: проверено
Скачан: 1 раз
Размер: 1.17 GB
terms.php



Показать сообщения:    

Текущее время: 04-Дек 06:48

Часовой пояс: UTC + 3


Вы не можете начинать темы
Вы не можете отвечать на сообщения
Вы не можете редактировать свои сообщения
Вы не можете удалять свои сообщения
Вы не можете голосовать в опросах
Вы не можете прикреплять файлы к сообщениям
Вы можете скачивать файлы