(opera) Giuseppe Verdi - Aida - (Katia Ricciarelli, Елена Образцова, Placido Domingo, Ruggero Raimondi, Nicolai Ghiaurov) Abbado 1981 - 2005, APE (image+.cue) lossless


 

[Цитировать]

Giuseppe Verdi - Aida - (Katia Ricciarelli, Елена Образцова, Placido Domingo, Ruggero Raimondi, Nicolai Ghiaurov) Abbado
Жанр: opera
Страна-производитель диска: EU
Год издания диска: 2005
Издатель (лейбл): Deutsche Grammophon
Дата записи: 1981
Аудиокодек: APE
Тип рипа: image+.cue
Битрейт аудио: lossless
Продолжительность: CD1 - 78'24 CD2 - 62'27
Источник: собственный рип
Наличие сканов в содержимом раздачи: нет
Треклист:
CD 1
01. Preludio [3:38]
02. Sì: corre voce che l'Etiope ardisca [1:35]
03. Se quel guerrier io fossi!..Celeste Aida [4:35]
04. Quale insolita gioia [3:11]
05. "Vieni, o diletta, appressati" [2:41]
06. Alta cagion v'aduna [3:09]
07. Su! del Nilo al sacro lido [2:55]
08. Ritorna vincitor [5:49]
09. Possente, possente Fthà [3:17]
10. Danza sacra del Sacerdotesse - Immenso Fthà - Mortal, diletto ai Numi [3:18]
11. "Nume, custode e vindice" [4:09]
12. Chi mai fra gl'inni e i plausi [2:59]
13. Danza di piccoli schiavi mori "Vieni: sul crin ti piovano" [2:57]
14. Fu la sorte dell'armi a'tuoi funesta [5:06]
15. Pietà ti prenda del mio dolor - Su! del Nilo sacre lido ... Numi, pietà [4:03]
16. "Gloria all'Egitto" [3:27]
17. Grand March [1:35]
18. Ballet Music [4:23]
19. Vieni, o guerriero vindice [2:24]
20. Salvator della patria, io ti saluto [2:19]
21. Che veggo!...Egli?...Mio padre! [3:27]
22. Il dolor che in quel volto favella...Ma tu, o Re [2:13]
23. O Re: pei sacri Numi [5:21]
Total Playing Time:
[1:18:31]
CD 2:
01. "O tu che sei d'Osiride ... Vieni d'Iside al tempio" [4:22]
02. Qui Radames verrà!...O Patria mia [6:35]
03. "Ciel! mio padre! ... Rivedrai le foreste imbalsamate" [7:42]
04. "Pur ti riveggo, mia dolce Aida ... Nel fiero anelito" [3:13]
05. "Fuggiam gli ardori inospiti ... Là, tra foreste vergini" [6:08]
06. Ma dimmi; per qual via [3:21]
07. L'aborrita rivale a me sfuggia [3:05]
08. Già i Sacerdoti adunansi [6:32]
09. Ohimè! morir mi sento!... Spirto del nume [7:56]
10. A lui vivo la tomba... Sacerdoti: compiste un delitto! [3:13]
11. La fatal pietra sovra me si chiuse [5:24]
12. Immenso Fthà ... O terra, addio [5:20]
Total Playing Time:
[1:02:51]
Исполнители:
Aida by Giuseppe Verdi performed in Italian
Conductor Claudio Abbado - 1981(STU)
Orchestra - Teatro alla Scala
Chorus - Teatro alla Scala
Aida - Katia Ricciarelli
Radamès - Plácido Domingo
Amneris - Elena Obraztsova Елена Образцова
Amonasro - Leo Nucci
Ramphis - Nicolai Ghiaurov
Il Re di Egitto - Ruggero Raimondi
Una Sacerdotessa - Lucia Valentini-Terrani
Un Messaggero - Piero De Palma

Лог создания рипа

Verdi - Aida Claudio Abbado cd1.log

Exact Audio Copy V1.0 beta 3 from 29. August 2011
EAC extraction logfile from 7. March 2015, 21:39
Katia Ricciarelli, Elena Obraztsova, Placido Domingo, Ruggero Raimondi, Nicolai Ghiaurov / Verdi - Aida Claudio Abbado cd1
Used drive : hp DVDRAM GT50N Adapter: 0 ID: 0
Read mode : Secure
Utilize accurate stream : Yes
Defeat audio cache : Yes
Make use of C2 pointers : No
Read offset correction : 103
Overread into Lead-In and Lead-Out : No
Fill up missing offset samples with silence : Yes
Delete leading and trailing silent blocks : No
Null samples used in CRC calculations : Yes
Used interface : Native Win32 interface for Win NT & 2000
Used output format : User Defined Encoder
Selected bitrate : 128 kBit/s
Quality : High
Add ID3 tag : No
Command line compressor : C:\Program Files\Exact Audio Copy\APE\MAC.exe
Additional command line options : %source% %dest% -c3000
TOC of the extracted CD
Track | Start | Length | Start sector | End sector
---------------------------------------------------------
1 | 0:00.00 | 3:36.28 | 0 | 16227
2 | 3:36.28 | 1:35.35 | 16228 | 23387
3 | 5:11.63 | 4:32.50 | 23388 | 43837
4 | 9:44.38 | 3:11.13 | 43838 | 58175
5 | 12:55.51 | 2:40.72 | 58176 | 70247
6 | 15:36.48 | 3:09.30 | 70248 | 84452
7 | 18:46.03 | 2:54.73 | 84453 | 97575
8 | 21:41.01 | 5:30.04 | 97576 | 122329
9 | 27:11.05 | 3:16.48 | 122330 | 137077
10 | 30:27.53 | 3:18.00 | 137078 | 151927
11 | 33:45.53 | 4:16.25 | 151928 | 171152
12 | 38:02.03 | 2:58.43 | 171153 | 184545
13 | 41:00.46 | 2:56.48 | 184546 | 197793
14 | 43:57.19 | 5:06.07 | 197794 | 220750
15 | 49:03.26 | 4:06.04 | 220751 | 239204
16 | 53:09.30 | 3:26.64 | 239205 | 254718
17 | 56:36.19 | 1:35.02 | 254719 | 261845
18 | 58:11.21 | 4:22.08 | 261846 | 281503
19 | 62:33.29 | 2:23.42 | 281504 | 292270
20 | 64:56.71 | 2:18.53 | 292271 | 302673
21 | 67:15.49 | 3:26.72 | 302674 | 318195
22 | 70:42.46 | 2:13.15 | 318196 | 328185
23 | 72:55.61 | 5:28.44 | 328186 | 352829
Range status and errors
Selected range
Filename D:\Temp\Верди - Aida - Katia Ricciarelli, Elena Obraztsova, Placido Domingo, Ruggero Raimondi, Nicolai Ghiaurov - Abbado\Verdi - Aida Claudio Abbado cd1.wav
Peak level 83.0 %
Extraction speed 4.4 X
Range quality 100.0 %
Test CRC 6781DF11
Copy CRC 6781DF11
Copy OK
No errors occurred
AccurateRip summary
Track 1 accurately ripped (confidence 20) [8C7AB7E0] (AR v2)
Track 2 accurately ripped (confidence 20) [B211D581] (AR v2)
Track 3 accurately ripped (confidence 20) [D808DEA9] (AR v2)
Track 4 accurately ripped (confidence 20) [E8718E59] (AR v2)
Track 5 accurately ripped (confidence 20) [EDEFB108] (AR v2)
Track 6 accurately ripped (confidence 20) [BD4F2DC0] (AR v2)
Track 7 accurately ripped (confidence 20) [55A2EAFE] (AR v2)
Track 8 accurately ripped (confidence 20) [631AE646] (AR v2)
Track 9 accurately ripped (confidence 20) [BFFB50BC] (AR v2)
Track 10 accurately ripped (confidence 20) [A4696A6D] (AR v2)
Track 11 accurately ripped (confidence 20) [A4F3D303] (AR v2)
Track 12 accurately ripped (confidence 20) [5F6D96F7] (AR v2)
Track 13 accurately ripped (confidence 20) [243F65B9] (AR v2)
Track 14 accurately ripped (confidence 20) [40EB410A] (AR v2)
Track 15 accurately ripped (confidence 20) [30F6F221] (AR v2)
Track 16 accurately ripped (confidence 20) [33F2642A] (AR v2)
Track 17 accurately ripped (confidence 20) [B66BEE41] (AR v2)
Track 18 accurately ripped (confidence 20) [43A23BB6] (AR v2)
Track 19 accurately ripped (confidence 20) [9C07D355] (AR v2)
Track 20 accurately ripped (confidence 20) [7BF5EF45] (AR v2)
Track 21 accurately ripped (confidence 20) [1542B4A9] (AR v2)
Track 22 accurately ripped (confidence 20) [31DD764B] (AR v2)
Track 23 accurately ripped (confidence 20) [7242D0BD] (AR v2)
All tracks accurately ripped
End of status report
==== Log checksum E6348057103BEFEB11093CCCF074155AE405AF45BF91187B5F962C6066C7A7F6 ====

Verdi - Aida Claudio Abbado cd2.log

Exact Audio Copy V1.0 beta 3 from 29. August 2011
EAC extraction logfile from 7. March 2015, 22:42
Katia Ricciarelli, Elena Obraztsova, Placido Domingo, Ruggero Raimondi, Nicolai Ghiaurov / Verdi - Aida Claudio Abbado cd2
Used drive : hp DVDRAM GT50N Adapter: 0 ID: 0
Read mode : Secure
Utilize accurate stream : Yes
Defeat audio cache : Yes
Make use of C2 pointers : No
Read offset correction : 103
Overread into Lead-In and Lead-Out : No
Fill up missing offset samples with silence : Yes
Delete leading and trailing silent blocks : No
Null samples used in CRC calculations : Yes
Used interface : Native Win32 interface for Win NT & 2000
Used output format : User Defined Encoder
Selected bitrate : 128 kBit/s
Quality : High
Add ID3 tag : No
Command line compressor : C:\Program Files\Exact Audio Copy\APE\MAC.exe
Additional command line options : %source% %dest% -c3000
TOC of the extracted CD
Track | Start | Length | Start sector | End sector
---------------------------------------------------------
1 | 0:00.33 | 4:11.62 | 33 | 18919
2 | 4:12.20 | 6:34.30 | 18920 | 48499
3 | 10:46.50 | 7:37.70 | 48500 | 82844
4 | 18:24.45 | 3:14.12 | 82845 | 97406
5 | 21:38.57 | 6:08.71 | 97407 | 125077
6 | 27:47.53 | 3:21.05 | 125078 | 140157
7 | 31:08.58 | 3:04.70 | 140158 | 154027
8 | 34:13.53 | 6:32.02 | 154028 | 183429
9 | 40:45.55 | 7:56.30 | 183430 | 219159
10 | 48:42.10 | 3:12.40 | 219160 | 233599
11 | 51:54.50 | 5:22.10 | 233600 | 257759
12 | 57:16.60 | 5:20.25 | 257760 | 281784
Range status and errors
Selected range
Filename D:\Temp\Верди - Aida - Katia Ricciarelli, Elena Obraztsova, Placido Domingo, Ruggero Raimondi, Nicolai Ghiaurov - Abbado\Verdi - Aida Claudio Abbado cd2.wav
Peak level 77.1 %
Extraction speed 4.3 X
Range quality 100.0 %
Test CRC B1CCCE59
Copy CRC B1CCCE59
Copy OK
No errors occurred
AccurateRip summary
Track 1 accurately ripped (confidence 20) [988FCF86] (AR v2)
Track 2 accurately ripped (confidence 20) [DAF8B2EF] (AR v2)
Track 3 accurately ripped (confidence 20) [FCD98C1E] (AR v2)
Track 4 accurately ripped (confidence 20) [703646F4] (AR v2)
Track 5 accurately ripped (confidence 20) [8E2F0AE6] (AR v2)
Track 6 accurately ripped (confidence 19) [3D1EEC07] (AR v2)
Track 7 accurately ripped (confidence 20) [5C6C0B4D] (AR v2)
Track 8 accurately ripped (confidence 20) [9217489A] (AR v2)
Track 9 accurately ripped (confidence 20) [81F2B24B] (AR v2)
Track 10 accurately ripped (confidence 20) [C528F9B9] (AR v2)
Track 11 accurately ripped (confidence 20) [A77A9155] (AR v2)
Track 12 accurately ripped (confidence 20) [9E1D224D] (AR v2)
All tracks accurately ripped
End of status report
==== Log checksum 4CED6E8D0159ACAEC337702D45A72124E55242CBDCCE5235214BF1F0A649F28D ====

Содержание индексной карты (.CUE)

Verdi - Aida Claudio Abbado cd1.cue

REM GENRE Opera
REM DATE 1981
REM DISCID 6F126017
REM COMMENT "ExactAudioCopy v1.0b3"
PERFORMER "Katia Ricciarelli, Elena Obraztsova, Placido Domingo, Ruggero Raimondi, Nicol..."
TITLE "Verdi - Aida Claudio Abbado cd1"
FILE "Verdi - Aida Claudio Abbado cd1.ape" WAVE
TRACK 01 AUDIO
TITLE "Preludio Erster Akt"
PERFORMER "Katia Ricciarelli, Elena Obraztsova, Placido Domingo, Ruggero Raimondi, Nicol..."
INDEX 01 00:00:00
TRACK 02 AUDIO
TITLE "Introduzione e Scena: Si, corre voce che I.Etiope ardisca"
PERFORMER "Katia Ricciarelli, Elena Obraztsova, Placido Domingo, Ruggero Raimondi, Nicol..."
INDEX 01 03:36:28
TRACK 03 AUDIO
TITLE "Romanza: 'Se quel guerrier io fossi! ... Celeste Aida'"
PERFORMER "Katia Ricciarelli, Elena Obraztsova, Placido Domingo, Ruggero Raimondi, Nicol..."
INDEX 01 05:11:63
TRACK 04 AUDIO
TITLE "Duetto: 'Quale insolita gioia nel tue sguardo!'"
PERFORMER "Katia Ricciarelli, Elena Obraztsova, Placido Domingo, Ruggero Raimondi, Nicol..."
INDEX 01 09:44:38
TRACK 05 AUDIO
TITLE "Terzetto: 'Vieni, o diletta, appressati'"
PERFORMER "Katia Ricciarelli, Elena Obraztsova, Placido Domingo, Ruggero Raimondi, Nicol..."
INDEX 01 12:55:51
TRACK 06 AUDIO
TITLE "Scena e Pezzo d.assieme: 'Alta cagion v.aduna'"
PERFORMER "Katia Ricciarelli, Elena Obraztsova, Placido Domingo, Ruggero Raimondi, Nicol..."
INDEX 01 15:36:48
TRACK 07 AUDIO
TITLE "'Su! del Nilo al sacro lido'"
PERFORMER "Katia Ricciarelli, Elena Obraztsova, Placido Domingo, Ruggero Raimondi, Nicol..."
INDEX 01 18:46:03
TRACK 08 AUDIO
TITLE "Scena: 'Ritorna vincitor!'"
PERFORMER "Katia Ricciarelli, Elena Obraztsova, Placido Domingo, Ruggero Raimondi, Nicol..."
INDEX 01 21:41:01
TRACK 09 AUDIO
TITLE "Gran Scena della Consacrazione e Finale I"
PERFORMER "Katia Ricciarelli, Elena Obraztsova, Placido Domingo, Ruggero Raimondi, Nicol..."
INDEX 00 27:09:73
INDEX 01 27:11:05
TRACK 10 AUDIO
TITLE "Danza Sacra delle Sacerdotesse"
PERFORMER "Katia Ricciarelli, Elena Obraztsova, Placido Domingo, Ruggero Raimondi, Nicol..."
INDEX 01 30:27:53
TRACK 11 AUDIO
TITLE "'Nume, custode e vindice'"
PERFORMER "Katia Ricciarelli, Elena Obraztsova, Placido Domingo, Ruggero Raimondi, Nicol..."
INDEX 01 33:45:53
TRACK 12 AUDIO
TITLE "Introduzione - Scena e Coro di donne"
PERFORMER "Katia Ricciarelli, Elena Obraztsova, Placido Domingo, Ruggero Raimondi, Nicol..."
INDEX 00 37:54:68
INDEX 01 38:02:03
TRACK 13 AUDIO
TITLE "Danza di piccoli schiavi mori"
PERFORMER "Katia Ricciarelli, Elena Obraztsova, Placido Domingo, Ruggero Raimondi, Nicol..."
INDEX 01 41:00:46
TRACK 14 AUDIO
TITLE "Scena e Duetto: 'Fu la sorte dell.armi a. tuoi funesta'"
PERFORMER "Katia Ricciarelli, Elena Obraztsova, Placido Domingo, Ruggero Raimondi, Nicol..."
INDEX 01 43:57:19
TRACK 15 AUDIO
TITLE "'Pieta ti prenda del mio dolor' ..."
PERFORMER "Katia Ricciarelli, Elena Obraztsova, Placido Domingo, Ruggero Raimondi, Nicol..."
INDEX 01 49:03:26
TRACK 16 AUDIO
TITLE "Gran finale II"
PERFORMER "Katia Ricciarelli, Elena Obraztsova, Placido Domingo, Ruggero Raimondi, Nicol..."
INDEX 00 53:06:56
INDEX 01 53:09:30
TRACK 17 AUDIO
TITLE "Marcia trionfale"
PERFORMER "Katia Ricciarelli, Elena Obraztsova, Placido Domingo, Ruggero Raimondi, Nicol..."
INDEX 01 56:36:19
TRACK 18 AUDIO
TITLE "Ballabile"
PERFORMER "Katia Ricciarelli, Elena Obraztsova, Placido Domingo, Ruggero Raimondi, Nicol..."
INDEX 01 58:11:21
TRACK 19 AUDIO
TITLE "'Vieni, o guerriero vindice'"
PERFORMER "Katia Ricciarelli, Elena Obraztsova, Placido Domingo, Ruggero Raimondi, Nicol..."
INDEX 01 62:33:29
TRACK 20 AUDIO
TITLE "'Salvator della patria'"
PERFORMER "Katia Ricciarelli, Elena Obraztsova, Placido Domingo, Ruggero Raimondi, Nicol..."
INDEX 01 64:56:71
TRACK 21 AUDIO
TITLE "'Che veggo! Egli? Mio Padre!' ..."
PERFORMER "Katia Ricciarelli, Elena Obraztsova, Placido Domingo, Ruggero Raimondi, Nicol..."
INDEX 01 67:15:49
TRACK 22 AUDIO
TITLE "'Il dolor che in quel volto favella' ..."
PERFORMER "Katia Ricciarelli, Elena Obraztsova, Placido Domingo, Ruggero Raimondi, Nicol..."
INDEX 01 70:42:46
TRACK 23 AUDIO
TITLE "'O Re: pei sacri Numi!' ..."
PERFORMER "Katia Ricciarelli, Elena Obraztsova, Placido Domingo, Ruggero Raimondi, Nicol..."
INDEX 01 72:55:61

Verdi - Aida Claudio Abbado cd2.cue

REM GENRE Opera
REM DATE 1981
REM DISCID 9C0EAD0C
REM COMMENT "ExactAudioCopy v1.0b3"
PERFORMER "Katia Ricciarelli, Elena Obraztsova, Placido Domingo, Ruggero Raimondi, Nicol..."
TITLE "Verdi - Aida Claudio Abbado cd2"
FILE "Verdi - Aida Claudio Abbado cd2.ape" WAVE
TRACK 01 AUDIO
TITLE "Introduzione e Preghiera"
PERFORMER "Katia Ricciarelli, Elena Obraztsova, Placido Domingo, Ruggero Raimondi, Nicol..."
INDEX 00 00:00:00
INDEX 01 00:00:33
TRACK 02 AUDIO
TITLE "Romanza: 'Qui Radames verra! ..."
PERFORMER "Katia Ricciarelli, Elena Obraztsova, Placido Domingo, Ruggero Raimondi, Nicol..."
INDEX 01 04:12:20
TRACK 03 AUDIO
TITLE "Duetto: 'Ciel, mio padre!'"
PERFORMER "Katia Ricciarelli, Elena Obraztsova, Placido Domingo, Ruggero Raimondi, Nicol..."
INDEX 01 10:46:50
TRACK 04 AUDIO
TITLE "Duetto, Scena e Finale III"
PERFORMER "Katia Ricciarelli, Elena Obraztsova, Placido Domingo, Ruggero Raimondi, Nicol..."
INDEX 01 18:24:45
TRACK 05 AUDIO
TITLE "'Fuggiam gli ardori inospiti' ..."
PERFORMER "Katia Ricciarelli, Elena Obraztsova, Placido Domingo, Ruggero Raimondi, Nicol..."
INDEX 01 21:38:57
TRACK 06 AUDIO
TITLE "'Ma dimmi; per qual via'"
PERFORMER "Katia Ricciarelli, Elena Obraztsova, Placido Domingo, Ruggero Raimondi, Nicol..."
INDEX 01 27:47:53
TRACK 07 AUDIO
TITLE "Scena e Duetto: 'L.aborrita rivale a me sfuggia'"
PERFORMER "Katia Ricciarelli, Elena Obraztsova, Placido Domingo, Ruggero Raimondi, Nicol..."
INDEX 01 31:08:58
TRACK 08 AUDIO
TITLE "'Gia i Sacerdoti adunansi'"
PERFORMER "Katia Ricciarelli, Elena Obraztsova, Placido Domingo, Ruggero Raimondi, Nicol..."
INDEX 01 34:13:53
TRACK 09 AUDIO
TITLE "Scana del Giudizio:'Ohime! ...morir mi sento'"
PERFORMER "Katia Ricciarelli, Elena Obraztsova, Placido Domingo, Ruggero Raimondi, Nicol..."
INDEX 01 40:45:55
TRACK 10 AUDIO
TITLE "'A lui vivo la tomba ... Sacerdoti: compiste un delitto!'"
PERFORMER "Katia Ricciarelli, Elena Obraztsova, Placido Domingo, Ruggero Raimondi, Nicol..."
INDEX 01 48:42:10
TRACK 11 AUDIO
TITLE "Scena, Duetto e Finale ultimo"
PERFORMER "Katia Ricciarelli, Elena Obraztsova, Placido Domingo, Ruggero Raimondi, Nicol..."
INDEX 01 51:54:50
TRACK 12 AUDIO
TITLE "'Immenso Ftha' ... 'O terra, addio'"
PERFORMER "Katia Ricciarelli, Elena Obraztsova, Placido Domingo, Ruggero Raimondi, Nicol..."
INDEX 01 57:16:60



Показать сообщения:    

Текущее время: 07-Дек 19:21

Часовой пояс: UTC + 3


Вы не можете начинать темы
Вы не можете отвечать на сообщения
Вы не можете редактировать свои сообщения
Вы не можете удалять свои сообщения
Вы не можете голосовать в опросах
Вы не можете прикреплять файлы к сообщениям
Вы не можете скачивать файлы