(Classical) Felix Mendelssohn-Bartholdy - Ein Sommernachtstraum • Die erste Walpurgisnacht / Сон в летнюю ночь • Первая Вальпургиева ночь (Coburn, Magnus, Remmert, Heilmann, Hampson, Pape - Nikolaus Harnoncourt) - 1993, FLAC (tracks+.cue) lossless


Статистика раздачи [Обновить пиров]
Размер:  339 MB   |    Зарегистрирован:  8 месяцев 15 дней   |    Скачан:  0 раз

Полного источника не было: Никогда

 
   
 
 
 

[Цитировать]

Felix Mendelssohn-Bartholdy | Феликс Мендельсон-Бартольди
(1809–1847)



Ein Sommernachtstraum | Die erste Walpurgisnacht
Сон в летнюю ночь | Первая Вальпургиева ночь


Pamela Coburn sopranoElisabeth von Magnus alto
Birgit Remmert altoUwe Heilmann tenor
Thomas Hampson baritoneRene Papé bass
Arnold Schoenberg Chor (Erwin Ortner chorus master)
Chamber Orchestra of Europe
Nikolaus Harnoncourt conductor


Жанр: Classical / Orchestral / Choral
Дата и место записи: Stefaniensaal, Graz, 1992 (live)
Формат записи: DDD, Stereo
Год издания диска: 1993
Издатель (лейбл): Teldec
Номер по каталогу: 9031-74882-2
Аудиокодек: FLAC
Тип рипа: tracks+.cue
Битрейт аудио: lossless
Продолжительность: 1:17:55
Наличие сканов в содержимом раздачи: да
Источник: LzTr
Релизёр: kollo

-Tracklist / Треклист
«Ein Sommernachtstraum», Op. 61 - 41:36
Ouvertüre (Op. 21) - 11:51
  • Nr. 1. Scherzo - 4:57
  • Nr. 3. Lied mit Chor - 5:15
  • Nr. 5. Intermezzo - 3:35
  • Nr. 7. Notturno - 4:34
  • Nr. 9. Hochzeitsmarsch - 4:15
  • Nr. 11. Ein Tanz von Rüpeln - 1:33
  • Nr. 13. Finale - 5:38
    Pamela Coburn (soprano) [3, 8]
    Elisabeth von Magnus (alto, narrator) [3, 8]
    Christoph Bantzer (narrator) [8]
    Arnold Schoenberg Chor (Erwin Ortner, chorus master) [3, 8]
    Recorded: Stefaniensaal, Graz, 14 & 15 July 1992

    «Die erste Walpurgisnacht», Op. 60 - 36:19
    Ouvertüre - 9:26
  • Nr. 1. «Es lacht der Mai» - 4:53
  • Nr. 2. «Könnt ihr so verwegen handeln?» - 2:34
  • Nr. 3. «Wer Opfer heut zu bringen scheut» - 2:28
  • Nr. 4. «Verteit euch, wackre Männer, hier» - 1:42
  • Nr. 5. «Diese dumpfen Pfaffenchristen» - 0:50
  • «Kommt mit Zacken und mit Gabeln» - 1:41
  • Nr. 6. «Kommt mit Zacken und mit Gabeln» - 3:56
  • Nr. 7. «So weit gebracht, das wir bei Nacht» - 4:18
  • Nr. 8. «Hilf, ach hilf mir, Kriegsgeselle!» - 1:02
  • Nr. 9. «Die Flamme reinigt sich vom Rauch» - 3:30
    Ein Druide [10], ein christlicher Wächter [18] — Uwe Heilmann (tenor)
    Eine alte Frau aus dem Volke [11] — Birgit Remmert (alto)
    Der Priester [12, 17, 19] — Thomas Hampson (baritone)
    Ein Wächter der Druiden [14, 15] — Rene Papé (bass)
    Arnold Schoenberg Chor (Erwin Ortner, chorus master) [10-19]
    Recorded: Stefaniensaal, Graz, 18–20 July 1992
    -

    EAC log / Отчёт EAC

    Exact Audio Copy V1.0 beta 3 from 29. August 2011
    EAC extraction logfile from 6. January 2014, 11:53
    Mendelssohn / Ein Sommernachtstraum & Die erste Walpurgisnacht (Harnoncourt, Bantzer, Coburn, Hampson, Chamber Orch. of Europe ASC)
    Used drive : TSSTcorpCDDVDW SE-S084D Adapter: 2 ID: 0
    Read mode : Secure
    Utilize accurate stream : Yes
    Defeat audio cache : Yes
    Make use of C2 pointers : No
    Read offset correction : 6
    Overread into Lead-In and Lead-Out : No
    Fill up missing offset samples with silence : Yes
    Delete leading and trailing silent blocks : No
    Null samples used in CRC calculations : Yes
    Used interface : Native Win32 interface for Win NT & 2000
    Gap handling : Appended to previous track
    Used output format : User Defined Encoder
    Selected bitrate : 768 kBit/s
    Quality : High
    Add ID3 tag : No
    Command line compressor : C:\Program Files (x86)\Exact Audio Copy\FLAC\FLAC.EXE
    Additional command line options : -8 -V -T "ARTIST=%artist%" -T "TITLE=%title%" -T "ALBUM=%albumtitle%" -T "DATE=%year%" -T "TRACKNUMBER=%tracknr%" -T "GENRE=%genre%" -T "COMMENT=%comment%" -T "BAND=%albuminterpret%" -T "ALBUMARTIST=%albuminterpret%" -T "COMPOSER=%composer%" %haslyrics%--tag-from-file=LYRICS="%lyricsfile%"%haslyrics% -T "DISCNUMBER=%cdnumber%" -T "TOTALDISCS=%totalcds%" -T "TOTALTRACKS=%numtracks%" %hascover%--picture="%coverfile%"%hascover% %source% -o %dest%
    TOC of the extracted CD
    Track | Start | Length | Start sector | End sector
    ---------------------------------------------------------
    1 | 0:00.00 | 11:50.47 | 0 | 53296
    2 | 11:50.47 | 4:56.43 | 53297 | 75539
    3 | 16:47.15 | 5:14.67 | 75540 | 99156
    4 | 22:02.07 | 3:35.30 | 99157 | 115311
    5 | 25:37.37 | 4:33.38 | 115312 | 135824
    6 | 30:11.00 | 4:14.40 | 135825 | 154914
    7 | 34:25.40 | 1:33.05 | 154915 | 161894
    8 | 35:58.45 | 5:37.42 | 161895 | 187211
    9 | 41:36.12 | 9:25.40 | 187212 | 229626
    10 | 51:01.52 | 4:52.60 | 229627 | 251586
    11 | 55:54.37 | 2:33.55 | 251587 | 263116
    12 | 58:28.17 | 2:27.48 | 263117 | 274189
    13 | 60:55.65 | 1:42.00 | 274190 | 281839
    14 | 62:37.65 | 0:50.22 | 281840 | 285611
    15 | 63:28.12 | 1:41.00 | 285612 | 293186
    16 | 65:09.12 | 3:55.68 | 293187 | 310879
    17 | 69:05.05 | 4:18.05 | 310880 | 330234
    18 | 73:23.10 | 1:02.07 | 330235 | 334891
    19 | 74:25.17 | 3:29.38 | 334892 | 350604
    Track 1
    Filename C:\EAC Dati Rip\01 Ein Sommernachtstraum op. 61 - Ouvertüre.wav
    Pre-gap length 0:00:02.00
    Peak level 85.8 %
    Extraction speed 3.5 X
    Track quality 100.0 %
    Test CRC 0B4ACE02
    Copy CRC 0B4ACE02
    Accurately ripped (confidence 2) [A7A6A530] (AR v2)
    Copy OK
    Track 2
    Filename C:\EAC Dati Rip\02 - Nr. 1 Scherzo.wav
    Peak level 57.5 %
    Extraction speed 3.8 X
    Track quality 100.0 %
    Test CRC D3BA113C
    Copy CRC D3BA113C
    Accurately ripped (confidence 2) [6028B407] (AR v2)
    Copy OK
    Track 3
    Filename C:\EAC Dati Rip\03 - Nr. 3 Lied mit Chor.wav
    Peak level 55.3 %
    Extraction speed 4.1 X
    Track quality 100.0 %
    Test CRC 3D311E0F
    Copy CRC 3D311E0F
    Accurately ripped (confidence 2) [8302E33E] (AR v2)
    Copy OK
    Track 4
    Filename C:\EAC Dati Rip\04 - Nr. 5 Allegro appassionato.wav
    Peak level 44.4 %
    Extraction speed 4.0 X
    Track quality 100.0 %
    Test CRC A89B1288
    Copy CRC A89B1288
    Accurately ripped (confidence 2) [58D856B6] (AR v2)
    Copy OK
    Track 5
    Filename C:\EAC Dati Rip\05 - Nr. 7 Con moto tranquillo.wav
    Peak level 39.2 %
    Extraction speed 4.3 X
    Track quality 100.0 %
    Test CRC 5C3A3941
    Copy CRC 5C3A3941
    Accurately ripped (confidence 2) [2D16FFC9] (AR v2)
    Copy OK
    Track 6
    Filename C:\EAC Dati Rip\06 - Nr. 9 Hochzeitsmarsch.wav
    Peak level 90.7 %
    Extraction speed 4.5 X
    Track quality 100.0 %
    Test CRC D5EB44AE
    Copy CRC D5EB44AE
    Accurately ripped (confidence 2) [35625F1E] (AR v2)
    Copy OK
    Track 7
    Filename C:\EAC Dati Rip\07 - Nr. 11 Ein Tanz von Rüpeln.wav
    Peak level 76.7 %
    Extraction speed 3.8 X
    Track quality 100.0 %
    Test CRC 4AF40DE6
    Copy CRC 4AF40DE6
    Accurately ripped (confidence 2) [060DA9FA] (AR v2)
    Copy OK
    Track 8
    Filename C:\EAC Dati Rip\08 - Finale.wav
    Peak level 26.7 %
    Extraction speed 4.9 X
    Track quality 100.0 %
    Test CRC A47E14AE
    Copy CRC A47E14AE
    Accurately ripped (confidence 2) [A273D847] (AR v2)
    Copy OK
    Track 9
    Filename C:\EAC Dati Rip\09 Die erste Walpurgisnacht op. 60 - Ouvertüre.wav
    Pre-gap length 0:00:07.25
    Peak level 82.8 %
    Extraction speed 5.4 X
    Track quality 100.0 %
    Test CRC CFF6C9F5
    Copy CRC CFF6C9F5
    Accurately ripped (confidence 2) [7284740B] (AR v2)
    Copy OK
    Track 10
    Filename C:\EAC Dati Rip\10 - Es lacht der Mai.wav
    Peak level 96.5 %
    Extraction speed 4.5 X
    Track quality 99.9 %
    Test CRC 9670891F
    Copy CRC 9670891F
    Accurately ripped (confidence 2) [287FD6A4] (AR v2)
    Copy OK
    Track 11
    Filename C:\EAC Dati Rip\11 - Könnt ihr so verwegen handeln.wav
    Peak level 46.1 %
    Extraction speed 4.8 X
    Track quality 100.0 %
    Test CRC 0040B864
    Copy CRC 0040B864
    Accurately ripped (confidence 2) [7CA44DF6] (AR v2)
    Copy OK
    Track 12
    Filename C:\EAC Dati Rip\12 - Wer Opfer heut zu bringen scheut.wav
    Peak level 48.3 %
    Extraction speed 4.9 X
    Track quality 100.0 %
    Test CRC 26ECF29E
    Copy CRC 26ECF29E
    Accurately ripped (confidence 2) [6722B97E] (AR v2)
    Copy OK
    Track 13
    Filename C:\EAC Dati Rip\13 - Verteit euch, wackre Manner hier.wav
    Peak level 14.8 %
    Extraction speed 4.6 X
    Track quality 100.0 %
    Test CRC AB4EB4FD
    Copy CRC AB4EB4FD
    Accurately ripped (confidence 2) [455ABEF8] (AR v2)
    Copy OK
    Track 14
    Filename C:\EAC Dati Rip\14 - Diese dumpfen Pfaffenchristen.wav
    Peak level 21.0 %
    Extraction speed 3.5 X
    Track quality 100.0 %
    Test CRC DB43A7A3
    Copy CRC DB43A7A3
    Accurately ripped (confidence 2) [2A879116] (AR v2)
    Copy OK
    Track 15
    Filename C:\EAC Dati Rip\15 - Kommt mit Zacken und mit Gabeln.wav
    Peak level 37.2 %
    Extraction speed 4.6 X
    Track quality 100.0 %
    Test CRC 653B58CB
    Copy CRC 653B58CB
    Accurately ripped (confidence 2) [790F9465] (AR v2)
    Copy OK
    Track 16
    Filename C:\EAC Dati Rip\16 - Kommt mit Zacken und mit Gabeln.wav
    Peak level 85.6 %
    Extraction speed 5.6 X
    Track quality 100.0 %
    Test CRC C12CA8F1
    Copy CRC C12CA8F1
    Accurately ripped (confidence 2) [407CBA8C] (AR v2)
    Copy OK
    Track 17
    Filename C:\EAC Dati Rip\17 - So weit gebracht, dass wir bei Nacht.wav
    Peak level 90.2 %
    Extraction speed 5.9 X
    Track quality 100.0 %
    Test CRC 1A474A88
    Copy CRC 1A474A88
    Accurately ripped (confidence 2) [47AD7502] (AR v2)
    Copy OK
    Track 18
    Filename C:\EAC Dati Rip\18 - Hilf, ach mir, Kriegsgeselle.wav
    Peak level 47.8 %
    Extraction speed 2.4 X
    Track quality 99.8 %
    Test CRC 3754ED43
    Copy CRC 3754ED43
    Accurately ripped (confidence 2) [C5897115] (AR v2)
    Copy OK
    Track 19
    Filename C:\EAC Dati Rip\19 - Die Flamme reinigt sich vom Rauch.wav
    Peak level 80.0 %
    Extraction speed 4.5 X
    Track quality 99.9 %
    Test CRC F4FE453F
    Copy CRC F4FE453F
    Accurately ripped (confidence 2) [5D9EC79A] (AR v2)
    Copy OK
    All tracks accurately ripped
    No errors occurred
    End of status report

    auCDtect Task Manager log / Отчёт auCDtect Task Manager

    -----------------------
    DON'T MODIFY THIS FILE
    -----------------------
    PERFORMER: auCDtect Task Manager, ver. 1.5.1RC3 build 1.5.1.4
    Copyright (c) 2008-2010 y-soft. All rights reserved
    ANALYZER: auCDtect: CD records authenticity detector, version 0.8.2
    Copyright (c) 2004 Oleg Berngardt. All rights reserved.
    Copyright (c) 2004 Alexander Djourik. All rights reserved.
    FILE: 17 - Die erste Walpurgisnacht - Nr. 7. So weit gebracht, das wir bei Nacht.flac
    Size: 18045332 Hash: CCD8B21BA583614C0D428687ACE31042 Accuracy: -m0
    Conclusion: CDDA 100%
    Signature: A929E275DEE2828D539A6FDF513281A7E122ED88
    FILE: 16 - Die erste Walpurgisnacht - Nr. 6. Kommt mit Zacken und mit Gabeln.flac
    Size: 21763680 Hash: FE15959CB35AD16DDBA78DFAAFF6F4AD Accuracy: -m0
    Conclusion: CDDA 100%
    Signature: 2C832BF53290E0A1AA41621CCB7DC7ADB96B7A82
    FILE: 15 - Die erste Walpurgisnacht - Kommt mit Zacken und mit Gabeln.flac
    Size: 6978963 Hash: 4DC017D5E11C799D5821F8980FC4E746 Accuracy: -m0
    Conclusion: CDDA 100%
    Signature: 9B9AA7ED76F06D5D93D0CE7ECAFE6AFC5D67BB7D
    FILE: 14 - Die erste Walpurgisnacht - Nr. 5. Diese dumpfen Pfaffenchristen.flac
    Size: 2895996 Hash: 7D1B7DB79D21D6ABEC8801362CC2710A Accuracy: -m0
    Conclusion: CDDA 100%
    Signature: CEE9F742132B08E142ADEAC164FE4D1E08DCE7FE
    FILE: 13 - Die erste Walpurgisnacht - Nr. 4. Verteit euch, wackre Maenner, hier.flac
    Size: 5889092 Hash: A33B960B0E7797EC216E7DF1BEE629D7 Accuracy: -m0
    Conclusion: CDDA 100%
    Signature: 2F807D53569030A135A0871EB29FC674BDD5FF95
    FILE: 12 - Die erste Walpurgisnacht - Nr. 3. Wer Opfer heut zu bringen scheut.flac
    Size: 10078966 Hash: E5113AA14D57EC76A77F964BBC070147 Accuracy: -m0
    Conclusion: CDDA 100%
    Signature: 8322A76F67E30141F9A1783B81688F9434129BF3
    FILE: 11 - Die erste Walpurgisnacht - Nr. 2. Koennt ihr so verwegen handeln.flac
    Size: 9435450 Hash: C7A2726AA20EF52AA959CCEBFECA7590 Accuracy: -m0
    Conclusion: CDDA 99%
    Signature: A29F78FB271096F8E3E1208FF9FAA82E206F452F
    FILE: 10 - Die erste Walpurgisnacht - Nr. 1. Es lacht der Mai.flac
    Size: 23077897 Hash: 5420DC2847837ACDAB8E197A907190C3 Accuracy: -m0
    Conclusion: CDDA 100%
    Signature: 40E58EC62383B9807BBC2ACA32FD85E34F935BBF
    FILE: 09 - Die erste Walpurgisnacht - Ouvertuere.flac
    Size: 41690495 Hash: DDA8871912CA91EB83C469CDF647C7F5 Accuracy: -m0
    Conclusion: CDDA 99%
    Signature: 55D137CE8B54A6E3743FF5BF01CF080D159CE632
    FILE: 08 - Ein Sommernachtstraum - Nr. 13. Finale.flac
    Size: 18502420 Hash: 049CEAE2F592AE36503F0457CA12CD4B Accuracy: -m0
    Conclusion: CDDA 100%
    Signature: B9A26715C66A407D59CC9DF2E7275B955B3E282E
    FILE: 07 - Ein Sommernachtstraum - Nr. 11. Ein Tanz von Rueplein.flac
    Size: 7480601 Hash: 8F87745FAE0710BCA2154B7F51BC0337 Accuracy: -m0
    Conclusion: CDDA 100%
    Signature: 0F2CB507B48F3962F817EAA0F1CF27D7C8CE5B15
    FILE: 06 - Ein Sommernachtstraum - Nr. 9. Hochzeitsmarsch.flac
    Size: 22532213 Hash: 475E99F9FCCFBBD2294CE0B374CF5851 Accuracy: -m0
    Conclusion: CDDA 100%
    Signature: 357CF26256E5858FBF217A992DC389E3B73F9489
    FILE: 05 - Ein Sommernachtstraum - Nr. 7. Notturno.flac
    Size: 15595493 Hash: 52554B95B1BC435E30A18DABB1DF2F55 Accuracy: -m0
    Conclusion: CDDA 100%
    Signature: C5BA2F727FED97D31472E754FC6489C97F39EED4
    FILE: 04 - Ein Sommernachtstraum - Nr. 5. Intermezzo.flac
    Size: 13535712 Hash: 9D408FC53FEA543618A7A4954C009325 Accuracy: -m0
    Conclusion: CDDA 99%
    Signature: 08BE4D7E52AD82F5EC68558C9364DF5D9832B964
    FILE: 03 - Ein Sommernachtstraum - Nr. 3. Lied mit Chor.flac
    Size: 19134993 Hash: 1F06E20A6CECD5FDEEE71A8D6E79DB92 Accuracy: -m0
    Conclusion: CDDA 99%
    Signature: EC2819BE2176C24E9E1945968056E58A283B5BF6
    FILE: 02 - Ein Sommernachtstraum - Nr. 1. Scherzo.flac
    Size: 18638176 Hash: 2FDE84221EC055F073839CF6254C8AD8 Accuracy: -m0
    Conclusion: CDDA 100%
    Signature: B969FFE6201A395E6D67DC0E2B4974AC961692E3
    FILE: 01 - Ein Sommernachtstraum - Ouvertuere (Op. 21).flac
    Size: 46271911 Hash: 644EC676300B42DA221D65A199EBD1D8 Accuracy: -m0
    Conclusion: CDDA 99%
    Signature: 38CAEB2EEBBC0B39E639409A4A8FF9360A1D4C9E
    FILE: 19 - Die erste Walpurgisnacht - Nr. 9. Die Flamme reinigt sich vom Rauch.flac
    Size: 17062432 Hash: 3311FDA957EB2DDB7F048EDAABB1435D Accuracy: -m0
    Conclusion: CDDA 100%
    Signature: B2EB699373C5E2FF495B37B01607615B46646BF9
    FILE: 18 - Die erste Walpurgisnacht - Nr. 8. Hilf, ach hilf mir, Kriegsgeselle!.flac
    Size: 4594051 Hash: 0D57349DE386E167E459E94E908BDCAD Accuracy: -m0
    Conclusion: CDDA 100%
    Signature: D7B16ABE281468D2EA3031969E9B83BB72C838FE

    CUETools log / Отчёт CUETools

    [CUETools log; Date: 26.07.2015 17:24:18; Version: 2.1.4]
    [AccurateRip ID: 003feafd-034ecf95-0e124213] found.
    Track [ CRC | V2 ] Status
    01 [c0d813cd|a7a6a530] (02+02/22) Accurately ripped
    02 [bc25f4fe|6028b407] (02+02/22) Accurately ripped
    03 [34c13d15|8302e33e] (02+02/22) Accurately ripped
    04 [65f04b4f|58d856b6] (02+02/22) Accurately ripped
    05 [f10649b3|2d16ffc9] (02+02/21) Accurately ripped
    06 [cb9ff360|35625f1e] (02+02/22) Accurately ripped
    07 [ce4f5be5|060da9fa] (02+02/22) Accurately ripped
    08 [0b3de0e8|a273d847] (02+02/21) Accurately ripped
    09 [b0cf501a|7284740b] (02+02/22) Accurately ripped
    10 [9bb9a169|287fd6a4] (02+02/21) Accurately ripped
    11 [5f8a07b6|7ca44df6] (02+02/22) Accurately ripped
    12 [90f89345|6722b97e] (02+02/22) Accurately ripped
    13 [7ed8c107|455abef8] (02+02/21) Accurately ripped
    14 [32782ad1|2a879116] (02+02/21) Accurately ripped
    15 [d621a5d6|790f9465] (02+02/21) Accurately ripped
    16 [26e51895|407cba8c] (02+02/21) Accurately ripped
    17 [ea9de7d6|47ad7502] (02+02/21) Accurately ripped
    18 [9a677a15|c5897115] (02+02/21) Accurately ripped
    19 [7028bfed|5d9ec79a] (02+02/20) Accurately ripped
    Offsetted by 669:
    01 [d18ffbbe] (11/22) Accurately ripped
    02 [00c5a410] (11/22) Accurately ripped
    03 [c3a784a6] (11/22) Accurately ripped
    04 [7026e609] (11/22) Accurately ripped
    05 [f191818c] (11/21) Accurately ripped
    06 [09540038] (11/22) Accurately ripped
    07 [f86fa186] (11/22) Accurately ripped
    08 [ae1e3ad4] (10/21) Accurately ripped
    09 [62317254] (11/22) Accurately ripped
    10 [00d6b450] (10/21) Accurately ripped
    11 [e93a619f] (11/22) Accurately ripped
    12 [7f7831f4] (11/22) Accurately ripped
    13 [21ebad81] (10/21) Accurately ripped
    14 [129d3213] (10/21) Accurately ripped
    15 [33c5565f] (10/21) Accurately ripped
    16 [d8edbb45] (10/21) Accurately ripped
    17 [b0c8f065] (10/21) Accurately ripped
    18 [6def328d] (10/21) Accurately ripped
    19 [93839c26] (09/20) Accurately ripped
    Offsetted by -48:
    01 [ed7453f2] (00/22) No match (V2 was not tested)
    02 [4bf16405] (00/22) No match (V2 was not tested)
    03 [9f8e9f86] (00/22) No match (V2 was not tested)
    04 [3db57acd] (00/22) No match (V2 was not tested)
    05 [8a0636d4] (00/21) No match (V2 was not tested)
    06 [8183614d] (00/22) No match (V2 was not tested)
    07 [9dd2cb9d] (00/22) No match (V2 was not tested)
    08 [e3a8711b] (00/21) No match (V2 was not tested)
    09 [12a2ffeb] (00/22) No match (V2 was not tested)
    10 [ea97264e] (00/21) No match (V2 was not tested)
    11 [4a1ce0f7] (00/22) No match (V2 was not tested)
    12 [2861d3ee] (00/22) No match (V2 was not tested)
    13 [76249b73] (00/21) No match (V2 was not tested)
    14 [e22c9155] (00/21) No match (V2 was not tested)
    15 [ba6929f9] (00/21) No match (V2 was not tested)
    16 [cfec02c4] (00/21) No match (V2 was not tested)
    17 [4ddcedc8] (00/21) No match (V2 was not tested)
    18 [05cc4116] (00/21) No match (V2 was not tested)
    19 [54fb330c] (00/20) No match (V2 was not tested)
    Offsetted by -30:
    01 [32f026cc] (00/22) No match (V2 was not tested)
    02 [99d16c92] (00/22) No match (V2 was not tested)
    03 [5f873f1a] (00/22) No match (V2 was not tested)
    04 [d64b4ac0] (00/22) No match (V2 was not tested)
    05 [ea01205c] (00/21) No match (V2 was not tested)
    06 [4d57f78a] (00/22) No match (V2 was not tested)
    07 [4a7f2753] (00/22) No match (V2 was not tested)
    08 [0854748a] (00/21) No match (V2 was not tested)
    09 [15def812] (00/22) No match (V2 was not tested)
    10 [d929b0a7] (00/21) No match (V2 was not tested)
    11 [bbd4836a] (00/22) No match (V2 was not tested)
    12 [79ccb0f8] (00/22) No match (V2 was not tested)
    13 [080016cb] (00/21) No match (V2 was not tested)
    14 [f37f1321] (00/21) No match (V2 was not tested)
    15 [f1698b9d] (00/21) No match (V2 was not tested)
    16 [2773de58] (00/21) No match (V2 was not tested)
    17 [36e2e1f5] (00/21) No match (V2 was not tested)
    18 [fc61bb3c] (00/21) No match (V2 was not tested)
    19 [f2ac65ec] (00/20) No match (V2 was not tested)
    Track Peak [ CRC32 ] [W/O NULL] [ LOG ]
    -- 96,5 [AE9BF4AE] [DACEF23B]
    01 85,8 [0B4ACE02] [768A107E] CRC32
    02 57,5 [D3BA113C] [8A3E628B] CRC32
    03 55,3 [3D311E0F] [1C14B0C5] CRC32
    04 44,4 [A89B1288] [90EF5DE6] CRC32
    05 39,2 [5C3A3941] [A82ADD6F] CRC32
    06 90,7 [D5EB44AE] [09686E76] CRC32
    07 76,7 [4AF40DE6] [4AF2A3C0] CRC32
    08 26,7 [A47E14AE] [045483D4] CRC32
    09 82,8 [CFF6C9F5] [83495125] CRC32
    10 96,5 [9670891F] [AD260C1F] CRC32
    11 46,0 [0040B864] [2F478A0C] CRC32
    12 48,3 [26ECF29E] [188D5CA3] CRC32
    13 14,8 [AB4EB4FD] [A90D29EE] CRC32
    14 21,0 [DB43A7A3] [5C526A38] CRC32
    15 37,2 [653B58CB] [5F80D7DD] CRC32
    16 85,6 [C12CA8F1] [56FB9967] CRC32
    17 90,2 [1A474A88] [AFD16877] CRC32
    18 47,8 [3754ED43] [9B0332B1] CRC32
    19 80,0 [F4FE453F] [8BDE83BE] CRC32

    CUE sheet

    TITLE "Felix Mendelssohn-Bartholdy: «Ein Sommernachtstraum» • «Die erste Walpurgisnacht»"
    PERFORMER "Nikolaus Harnoncourt"
    REM GENRE Classical
    REM DISCID 0E124213
    REM COMMENT "ExactAudioCopy v1.0b3"
    FILE "01 - Ein Sommernachtstraum - Ouvertuere (Op. 21).flac" WAVE
    TRACK 01 AUDIO
    TITLE "«Ein Sommernachtstraum», Op. 61: Ouvertüre (Op. 21)"
    PERFORMER "Chamber Orchestra of Europe & Nikolaus Harnoncourt"
    REM DATE 1992
    INDEX 01 00:00:00
    FILE "02 - Ein Sommernachtstraum - Nr. 1. Scherzo.flac" WAVE
    TRACK 02 AUDIO
    TITLE "«Ein Sommernachtstraum», Op. 61: Nr. 1. Scherzo"
    PERFORMER "Chamber Orchestra of Europe & Nikolaus Harnoncourt"
    REM DATE 1992
    INDEX 01 00:00:00
    FILE "03 - Ein Sommernachtstraum - Nr. 3. Lied mit Chor.flac" WAVE
    TRACK 03 AUDIO
    TITLE "«Ein Sommernachtstraum», Op. 61: Nr. 3. Lied mit Chor"
    PERFORMER "Pamela Coburn, Elisabeth von Magnus, Arnold Schoenberg Chor, Chamber Orchestra of Europe & Nikolaus Harnoncourt"
    REM DATE 1992
    INDEX 01 00:00:00
    FILE "04 - Ein Sommernachtstraum - Nr. 5. Intermezzo.flac" WAVE
    TRACK 04 AUDIO
    TITLE "«Ein Sommernachtstraum», Op. 61: Nr. 5. Intermezzo"
    PERFORMER "Chamber Orchestra of Europe & Nikolaus Harnoncourt"
    REM DATE 1992
    INDEX 01 00:00:00
    FILE "05 - Ein Sommernachtstraum - Nr. 7. Notturno.flac" WAVE
    TRACK 05 AUDIO
    TITLE "«Ein Sommernachtstraum», Op. 61: Nr. 7. Notturno"
    PERFORMER "Chamber Orchestra of Europe & Nikolaus Harnoncourt"
    REM DATE 1992
    INDEX 01 00:00:00
    FILE "06 - Ein Sommernachtstraum - Nr. 9. Hochzeitsmarsch.flac" WAVE
    TRACK 06 AUDIO
    TITLE "«Ein Sommernachtstraum», Op. 61: Nr. 9. Hochzeitsmarsch"
    PERFORMER "Chamber Orchestra of Europe & Nikolaus Harnoncourt"
    REM DATE 1992
    INDEX 01 00:00:00
    FILE "07 - Ein Sommernachtstraum - Nr. 11. Ein Tanz von Ruepeln.flac" WAVE
    TRACK 07 AUDIO
    TITLE "«Ein Sommernachtstraum», Op. 61: Nr. 11. Ein Tanz von Rüpeln"
    PERFORMER "Chamber Orchestra of Europe & Nikolaus Harnoncourt"
    REM DATE 1992
    INDEX 01 00:00:00
    FILE "08 - Ein Sommernachtstraum - Nr. 13. Finale.flac" WAVE
    TRACK 08 AUDIO
    TITLE "«Ein Sommernachtstraum», Op. 61: Nr. 13. Finale"
    PERFORMER "Pamela Coburn, Elisabeth von Magnus, Christoph Bantzer, Arnold Schoenberg Chor, Chamber Orchestra of Europe & Nikolaus Harnoncourt"
    REM DATE 1992
    INDEX 01 00:00:00
    TRACK 09 AUDIO
    TITLE "«Die erste Walpurgisnacht», Op. 60: Ouvertüre"
    PERFORMER "Chamber Orchestra of Europe & Nikolaus Harnoncourt"
    REM DATE 1992
    INDEX 00 05:30:17
    FILE "09 - Die erste Walpurgisnacht - Ouvertuere.flac" WAVE
    INDEX 01 00:00:00
    FILE "10 - Die erste Walpurgisnacht - Nr. 1. Es lacht der Mai.flac" WAVE
    TRACK 10 AUDIO
    TITLE "«Die erste Walpurgisnacht», Op. 60: Nr. 1. «Es lacht der Mai»"
    PERFORMER "Uwe Heilmann, Arnold Schoenberg Chor, Chamber Orchestra of Europe & Nikolaus Harnoncourt"
    REM DATE 1992
    INDEX 01 00:00:00
    FILE "11 - Die erste Walpurgisnacht - Nr. 2. Koennt ihr so verwegen handeln.flac" WAVE
    TRACK 11 AUDIO
    TITLE "«Die erste Walpurgisnacht», Op. 60: Nr. 2. «Könnt ihr so verwegen handeln?»"
    PERFORMER "Birgit Remmert, Arnold Schoenberg Chor, Chamber Orchestra of Europe & Nikolaus Harnoncourt"
    REM DATE 1992
    INDEX 01 00:00:00
    FILE "12 - Die erste Walpurgisnacht - Nr. 3. Wer Opfer heut zu bringen scheut.flac" WAVE
    TRACK 12 AUDIO
    TITLE "«Die erste Walpurgisnacht», Op. 60: Nr. 3. «Wer Opfer heut zu bringen scheut»"
    PERFORMER "Thomas Hampson, Arnold Schoenberg Chor, Chamber Orchestra of Europe & Nikolaus Harnoncourt"
    REM DATE 1992
    INDEX 01 00:00:00
    FILE "13 - Die erste Walpurgisnacht - Nr. 4. Verteit euch, wackre Maenner, hier.flac" WAVE
    TRACK 13 AUDIO
    TITLE "«Die erste Walpurgisnacht», Op. 60: Nr. 4. «Verteit euch, wackre Männer, hier»"
    PERFORMER "Arnold Schoenberg Chor, Chamber Orchestra of Europe & Nikolaus Harnoncourt"
    REM DATE 1992
    INDEX 01 00:00:00
    FILE "14 - Die erste Walpurgisnacht - Nr. 5. Diese dumpfen Pfaffenchristen.flac" WAVE
    TRACK 14 AUDIO
    TITLE "«Die erste Walpurgisnacht», Op. 60: Nr. 5. «Diese dumpfen Pfaffenchristen»"
    PERFORMER "Rene Papé, Arnold Schoenberg Chor, Chamber Orchestra of Europe & Nikolaus Harnoncourt"
    REM DATE 1992
    INDEX 01 00:00:00
    FILE "15 - Die erste Walpurgisnacht - Kommt mit Zacken und mit Gabeln.flac" WAVE
    TRACK 15 AUDIO
    TITLE "«Die erste Walpurgisnacht», Op. 60: «Kommt mit Zacken und mit Gabeln»"
    PERFORMER "Rene Papé, Arnold Schoenberg Chor, Chamber Orchestra of Europe & Nikolaus Harnoncourt"
    REM DATE 1992
    INDEX 01 00:00:00
    FILE "16 - Die erste Walpurgisnacht - Nr. 6. Kommt mit Zacken und mit Gabeln.flac" WAVE
    TRACK 16 AUDIO
    TITLE "«Die erste Walpurgisnacht», Op. 60: Nr. 6. «Kommt mit Zacken und mit Gabeln»"
    PERFORMER "Arnold Schoenberg Chor, Chamber Orchestra of Europe & Nikolaus Harnoncourt"
    REM DATE 1992
    INDEX 01 00:00:00
    FILE "17 - Die erste Walpurgisnacht - Nr. 7. So weit gebracht, das wir bei Nacht.flac" WAVE
    TRACK 17 AUDIO
    TITLE "«Die erste Walpurgisnacht», Op. 60: Nr. 7. «So weit gebracht, das wir bei Nacht»"
    PERFORMER "Thomas Hampson, Arnold Schoenberg Chor, Chamber Orchestra of Europe & Nikolaus Harnoncourt"
    REM DATE 1992
    INDEX 01 00:00:00
    FILE "18 - Die erste Walpurgisnacht - Nr. 8. Hilf, ach hilf mir, Kriegsgeselle!.flac" WAVE
    TRACK 18 AUDIO
    TITLE "«Die erste Walpurgisnacht», Op. 60: Nr. 8. «Hilf, ach hilf mir, Kriegsgeselle!»"
    PERFORMER "Uwe Heilmann, Arnold Schoenberg Chor, Chamber Orchestra of Europe & Nikolaus Harnoncourt"
    REM DATE 1992
    INDEX 01 00:00:00
    FILE "19 - Die erste Walpurgisnacht - Nr. 9. Die Flamme reinigt sich vom Rauch.flac" WAVE
    TRACK 19 AUDIO
    TITLE "«Die erste Walpurgisnacht», Op. 60: Nr. 9. «Die Flamme reinigt sich vom Rauch»"
    PERFORMER "Thomas Hampson, Arnold Schoenberg Chor, Chamber Orchestra of Europe & Nikolaus Harnoncourt"
    REM DATE 1992
    INDEX 01 00:00:00
    [teatrix.ru].t21846.torrent 
    Торрент: Зарегистрирован [ 2016-03-20 12:52 ] · FB17F3D6718149EA9E8F76D36BF519D26381282D

    Скачать .torrent

    Скачать

    18 KB

    Статус: проверено
    Скачан: 0 раз
    Размер: 339 MB
    terms.php



  • Быстрый ответ

    Имя:

          
    Для отправки сообщений необходимо включить JavaScript
    Показать сообщения:    

    Текущее время: 05-Дек 01:24

    Часовой пояс: UTC + 3


    Вы можете начинать темы
    Вы можете отвечать на сообщения
    Вы не можете редактировать свои сообщения
    Вы не можете удалять свои сообщения
    Вы не можете голосовать в опросах
    Вы не можете прикреплять файлы к сообщениям
    Вы можете скачивать файлы