(opera) Giuseppe Verdi - La traviata (Angela Gheorghiu, Frank Lopardo, Leo Nucci - Solti 1994) - 2012, APE (image+.cue) lossless


 

[Цитировать]

Giuseppe Verdi - La traviata (Angela Gheorghiu, Frank Lopardo, Leo Nucci - Solti 1994)
Жанр: opera
Страна-производитель диска: EU
Год издания диска: 2012
Издатель (лейбл): Decca
Дата записи: 1994
Аудиокодек: APE
Тип рипа: image+.cue
Битрейт аудио: lossless
Продолжительность: CD1 - 73'11 CD2 - 54'11
Источник: собственный рип
Наличие сканов в содержимом раздачи: нет
Треклист:
CD1
1. La traviata / Act 1 - Prelude
2. La traviata / Act 1 - "Dell'invito trascorsa è già l'ora"
3. La traviata / Act 1 - "Libiamo ne'lieti calici (Brindisi)
4. La traviata / Act 1 - "Che è ciò?"
5. La traviata / Act 1 - "Un dì felice, eterea"
6. La traviata / Act 1 - "Ebben? che diavol fate?"
7. La traviata / Act 1 - "Si ridesta in ciel l'aurora"
8. La traviata / Act 1 - "E strano!" - "Ah, fors'è lui"
9. La traviata / Act 1 - "Follie! Delirio vano è questo!" - "Sempre libera"
10. La traviata / Act 2 - "Lunge da lei" - "De' miei bollenti spiriti"
11. La traviata / Act 2 - "Annina, donde vieni?" - "Oh mio rimorso!"
12. La traviata / Act 2 - "Alfredo?" "Per Parigi or or partiva"
13. La traviata / Act 2 - "Pura siccome un angelo"
14. La traviata / Act 2 - "Non sapete quale affetto"
15. La traviata / Act 2 - "Un dì, quando le veneri"
16. La traviata / Act 2 - "Ah! Dite alla giovine"
17. La traviata / Act 2 - "Imponete" "Non amarlo ditegli"
18. La traviata / Act 2 - "Dammi tu forza, o cielo!"
19. La traviata / Act 2 - "Che fai?" "Nulla"
20. La traviata / Act 2 - "Ah, vive sol quel core"
21. La traviata / Act 2 - "Di Provenza il mar, il suol"
22. La traviata / Act 2 - "Né rispondi d'un padre all'affetto?" - "No, non udrai rimproveri"
CD2
01. La traviata / Act 2 - "Avrem lieta di maschere la notte"
02. La traviata / Act 2 - "Noi siamo zingarelle"
03. La traviata / Act 2 - "Di Madride noi siam mattadori"
04. La traviata / Act 2 - "Alfredo! Voi!"
05. La traviata / Act 2 - "Invitato a qui seguirmi"
06. La traviata / Act 2 - "Ogni suo aver tal femmina"
07. La traviata / Act 2 - "Di sprezzo degno se stesso rende"
08. La traviata / Act 2 - "Alfredo, Alfredo, di questo core"
09. La traviata / Act 3 - Prelude
10. La traviata / Act 3 - "Annina?" "Comandate?"
11. La traviata / Act 3 - "Addio del passato"
12. La traviata / Act 3 - "Largo a quadrupede"
13. La traviata / Act 3 - "Signora..." "Che t'accade?"
14. La traviata / Act 3 - "Parigi, o cara, noi lasceremo"
15. La traviata / Act 3 - "Ah, non più!" - "Ah! Gran Dio! Morir sì giovine"
16. La traviata / Act 3 - "Ah, Violetta!" "Voi? Signor?"
17. La traviata / Act 3 - "Prendi, quest'è l'immagine"
Исполнители:
La traviata by Giuseppe Verdi performed in Italian
Conductor Georg Solti - 1994(LI)
Orchestra - Covent Garden
Chorus - Covent Garden
Violetta Valery - Angela Gheorghiu
Flora Bervoix - Leah-Marian Jones
Annina - Gillian Knight
Alfredo Germont - Frank Lopardo
Giorgio Germont - Leo Nucci
Gastone - Robin Leggate
Dottore Grenvil - Mark Beesley
Barone Douphol - Richard Van Allan
Marchese d'Obigny - Roderick Earle

Лог создания рипа

La Traviata cd 1.log

Exact Audio Copy V1.0 beta 3 from 29. August 2011
EAC extraction logfile from 30. December 2014, 18:47
Angela Gheorghiu, Frank Lopardo, Leo Nucci / La Traviata cd 1
Used drive : hp DVDRAM GT50N Adapter: 0 ID: 0
Read mode : Secure
Utilize accurate stream : Yes
Defeat audio cache : Yes
Make use of C2 pointers : No
Read offset correction : 103
Overread into Lead-In and Lead-Out : No
Fill up missing offset samples with silence : Yes
Delete leading and trailing silent blocks : No
Null samples used in CRC calculations : Yes
Used interface : Native Win32 interface for Win NT & 2000
Used output format : User Defined Encoder
Selected bitrate : 128 kBit/s
Quality : High
Add ID3 tag : No
Command line compressor : C:\Program Files\Exact Audio Copy\APE\MAC.exe
Additional command line options : %source% %dest% -c3000
TOC of the extracted CD
Track | Start | Length | Start sector | End sector
---------------------------------------------------------
1 | 0:00.32 | 3:32.50 | 32 | 15981
2 | 3:33.07 | 4:49.50 | 15982 | 37706
3 | 8:22.57 | 3:00.73 | 37707 | 51279
4 | 11:23.55 | 2:31.07 | 51280 | 62611
5 | 13:54.62 | 3:22.08 | 62612 | 77769
6 | 17:16.70 | 1:24.05 | 77770 | 84074
7 | 18:41.00 | 1:36.70 | 84075 | 91344
8 | 20:17.70 | 5:59.00 | 91345 | 118269
9 | 26:16.70 | 4:58.25 | 118270 | 140644
10 | 31:15.20 | 3:51.37 | 140645 | 158006
11 | 35:06.57 | 3:58.38 | 158007 | 175894
12 | 39:05.20 | 3:39.12 | 175895 | 192331
13 | 42:44.32 | 1:45.13 | 192332 | 200219
14 | 44:29.45 | 2:07.62 | 200220 | 209806
15 | 46:37.32 | 2:34.08 | 209807 | 221364
16 | 49:11.40 | 4:15.67 | 221365 | 240556
17 | 53:27.32 | 4:50.00 | 240557 | 262306
18 | 58:17.32 | 1:44.25 | 262307 | 270131
19 | 60:01.57 | 2:20.68 | 270132 | 280699
20 | 62:22.50 | 2:22.20 | 280700 | 291369
21 | 64:44.70 | 4:15.12 | 291370 | 310506
22 | 69:00.07 | 4:10.50 | 310507 | 329306
Range status and errors
Selected range
Filename D:\Temp\Верди - La Traviata - Angela Gheorghiu, Frank Lopardo, Leo Nucci - Solti\La Traviata cd 1.wav
Peak level 99.6 %
Extraction speed 4.4 X
Range quality 100.0 %
Test CRC B633E094
Copy CRC B633E094
Copy OK
No errors occurred
AccurateRip summary
Track 1 accurately ripped (confidence 9) [63D75EEA] (AR v2)
Track 2 accurately ripped (confidence 9) [45FE1C3A] (AR v2)
Track 3 accurately ripped (confidence 9) [BB9F4FEA] (AR v2)
Track 4 accurately ripped (confidence 9) [0BD0D288] (AR v2)
Track 5 accurately ripped (confidence 9) [8B4FB1F4] (AR v2)
Track 6 accurately ripped (confidence 9) [16E9CB79] (AR v2)
Track 7 accurately ripped (confidence 9) [7C250C36] (AR v2)
Track 8 accurately ripped (confidence 8) [9792E640] (AR v2)
Track 9 accurately ripped (confidence 9) [D861E65C] (AR v2)
Track 10 accurately ripped (confidence 8) [C87B5BD3] (AR v2)
Track 11 accurately ripped (confidence 8) [F6501FC3] (AR v2)
Track 12 accurately ripped (confidence 8) [4D9FB3F2] (AR v2)
Track 13 accurately ripped (confidence 9) [8B2C9058] (AR v2)
Track 14 accurately ripped (confidence 8) [C3564A50] (AR v2)
Track 15 accurately ripped (confidence 8) [C3C50FEE] (AR v2)
Track 16 accurately ripped (confidence 8) [99D348F6] (AR v2)
Track 17 accurately ripped (confidence 9) [10A3177E] (AR v2)
Track 18 accurately ripped (confidence 8) [DF99CC76] (AR v2)
Track 19 accurately ripped (confidence 8) [BBC91F22] (AR v2)
Track 20 accurately ripped (confidence 8) [ECD886D4] (AR v2)
Track 21 accurately ripped (confidence 9) [809B871D] (AR v2)
Track 22 accurately ripped (confidence 8) [5CD7CA6A] (AR v2)
All tracks accurately ripped
End of status report
==== Log checksum 8BC9C2B48EFA5F0C9B19E8EC63DD62DD7E0BA790ECF6B5EE9EF8B6E6410947D8 ====

La Traviata cd 2.log

Exact Audio Copy V1.0 beta 3 from 29. August 2011
EAC extraction logfile from 30. December 2014, 19:47
Angela Gheorghiu, Frank Lopardo, Leo Nucci / La Traviata cd 2
Used drive : hp DVDRAM GT50N Adapter: 0 ID: 0
Read mode : Secure
Utilize accurate stream : Yes
Defeat audio cache : Yes
Make use of C2 pointers : No
Read offset correction : 103
Overread into Lead-In and Lead-Out : No
Fill up missing offset samples with silence : Yes
Delete leading and trailing silent blocks : No
Null samples used in CRC calculations : Yes
Used interface : Native Win32 interface for Win NT & 2000
Used output format : User Defined Encoder
Selected bitrate : 128 kBit/s
Quality : High
Add ID3 tag : No
Command line compressor : C:\Program Files\Exact Audio Copy\APE\MAC.exe
Additional command line options : %source% %dest% -c3000
TOC of the extracted CD
Track | Start | Length | Start sector | End sector
---------------------------------------------------------
1 | 0:00.32 | 1:02.13 | 32 | 4694
2 | 1:02.45 | 2:43.50 | 4695 | 16969
3 | 3:46.20 | 2:41.12 | 16970 | 29056
4 | 6:27.32 | 3:54.13 | 29057 | 46619
5 | 10:21.45 | 2:22.60 | 46620 | 57329
6 | 12:44.30 | 1:30.02 | 57330 | 64081
7 | 14:14.32 | 1:39.43 | 64082 | 71549
8 | 15:54.00 | 4:40.45 | 71550 | 92594
9 | 20:34.45 | 3:32.12 | 92595 | 108506
10 | 24:06.57 | 4:36.63 | 108507 | 129269
11 | 28:43.45 | 7:06.50 | 129270 | 161269
12 | 35:50.20 | 0:46.42 | 161270 | 164761
13 | 36:36.62 | 1:40.20 | 164762 | 172281
14 | 38:17.07 | 4:19.63 | 172282 | 191769
15 | 42:36.70 | 4:49.10 | 191770 | 213454
16 | 47:26.05 | 1:46.65 | 213455 | 221469
17 | 49:12.70 | 4:58.12 | 221470 | 243831
Range status and errors
Selected range
Filename D:\Temp\Верди - La Traviata - Angela Gheorghiu, Frank Lopardo, Leo Nucci - Solti\La Traviata cd 2.wav
Peak level 100.0 %
Extraction speed 3.7 X
Range quality 100.0 %
Test CRC 6E828B70
Copy CRC 6E828B70
Copy OK
No errors occurred
AccurateRip summary
Track 1 accurately ripped (confidence 9) [4C829458] (AR v2)
Track 2 accurately ripped (confidence 9) [0CE5310F] (AR v2)
Track 3 accurately ripped (confidence 9) [2A1644D1] (AR v2)
Track 4 accurately ripped (confidence 9) [3C697773] (AR v2)
Track 5 accurately ripped (confidence 9) [606BE814] (AR v2)
Track 6 accurately ripped (confidence 9) [86ABA18C] (AR v2)
Track 7 accurately ripped (confidence 9) [9E37124F] (AR v2)
Track 8 accurately ripped (confidence 9) [42BB8446] (AR v2)
Track 9 accurately ripped (confidence 9) [48F01407] (AR v2)
Track 10 accurately ripped (confidence 9) [2B81DF3E] (AR v2)
Track 11 accurately ripped (confidence 9) [00C46B38] (AR v2)
Track 12 accurately ripped (confidence 9) [D5643807] (AR v2)
Track 13 accurately ripped (confidence 9) [D834F5C9] (AR v2)
Track 14 accurately ripped (confidence 8) [F62B2D67] (AR v2)
Track 15 accurately ripped (confidence 8) [86D463B1] (AR v2)
Track 16 accurately ripped (confidence 9) [68279786] (AR v2)
Track 17 accurately ripped (confidence 9) [BECC1E81] (AR v2)
All tracks accurately ripped
End of status report
==== Log checksum 664FDE12BB4B8EBAFFC04175A85CED906A281D58BA5EF239B17B4552A71D1851 ====

Содержание индексной карты (.CUE)

La Traviata cd 1.cue

REM GENRE Opera
REM DATE 2012
REM DISCID 59112616
REM COMMENT "ExactAudioCopy v1.0b3"
PERFORMER "Angela Gheorghiu, Frank Lopardo, Leo Nucci"
TITLE "La Traviata cd 1"
FILE "La Traviata cd 1.ape" WAVE
TRACK 01 AUDIO
TITLE "Act 1: Preludio"
PERFORMER "Angela Gheorghiu, Frank Lopardo, Leo Nucci"
INDEX 00 00:00:00
INDEX 01 00:00:32
TRACK 02 AUDIO
TITLE "Act 1: Dell'invito trascorsa e gia l'ora"
PERFORMER "Angela Gheorghiu, Frank Lopardo, Leo Nucci"
INDEX 01 03:33:07
TRACK 03 AUDIO
TITLE "Act 1: Libiamo ne' lieti calici"
PERFORMER "Angela Gheorghiu, Frank Lopardo, Leo Nucci"
INDEX 01 08:22:57
TRACK 04 AUDIO
TITLE "Act 1: Che e cio?"
PERFORMER "Angela Gheorghiu, Frank Lopardo, Leo Nucci"
INDEX 01 11:23:55
TRACK 05 AUDIO
TITLE "Act 1: Un di felice"
PERFORMER "Angela Gheorghiu, Frank Lopardo, Leo Nucci"
INDEX 01 13:54:62
TRACK 06 AUDIO
TITLE "Act 1: Ebben? Che diavol fate?"
PERFORMER "Angela Gheorghiu, Frank Lopardo, Leo Nucci"
INDEX 01 17:16:70
TRACK 07 AUDIO
TITLE "Act 1: Si ridesta in ciel l'aurora"
PERFORMER "Angela Gheorghiu, Frank Lopardo, Leo Nucci"
INDEX 01 18:41:00
TRACK 08 AUDIO
TITLE "Act 1: E strano!... Ah, fors'e lui"
PERFORMER "Angela Gheorghiu, Frank Lopardo, Leo Nucci"
INDEX 00 20:16:70
INDEX 01 20:17:70
TRACK 09 AUDIO
TITLE "Act 1: Follie! Delirio vano e questo!... Sempre libera"
PERFORMER "Angela Gheorghiu, Frank Lopardo, Leo Nucci"
INDEX 01 26:16:70
TRACK 10 AUDIO
TITLE "Act 2, Scene 1: Lunge da lei... De' miei bollenti spiriti"
PERFORMER "Angela Gheorghiu, Frank Lopardo, Leo Nucci"
INDEX 00 31:12:32
INDEX 01 31:15:20
TRACK 11 AUDIO
TITLE "Act 2, Scene 1: Annina, donde vieni?... Oh mio rimorso"
PERFORMER "Angela Gheorghiu, Frank Lopardo, Leo Nucci"
INDEX 01 35:06:57
TRACK 12 AUDIO
TITLE "Act 2, Scene 1: Alfredo?"
PERFORMER "Angela Gheorghiu, Frank Lopardo, Leo Nucci"
INDEX 01 39:05:20
TRACK 13 AUDIO
TITLE "Act 2, Scene 1: Pura siccome un angelo"
PERFORMER "Angela Gheorghiu, Frank Lopardo, Leo Nucci"
INDEX 01 42:44:32
TRACK 14 AUDIO
TITLE "Act 2, Scene 1: Non sapete quale affetto"
PERFORMER "Angela Gheorghiu, Frank Lopardo, Leo Nucci"
INDEX 01 44:29:45
TRACK 15 AUDIO
TITLE "Act 2, Scene 1: Un di, quando le veneri"
PERFORMER "Angela Gheorghiu, Frank Lopardo, Leo Nucci"
INDEX 01 46:37:32
TRACK 16 AUDIO
TITLE "Act 2, Scene 1: Ah! Dite alla giovine"
PERFORMER "Angela Gheorghiu, Frank Lopardo, Leo Nucci"
INDEX 01 49:11:40
TRACK 17 AUDIO
TITLE "Act 2, Scene 1: Imponete"
PERFORMER "Angela Gheorghiu, Frank Lopardo, Leo Nucci"
INDEX 00 53:26:32
INDEX 01 53:27:32
TRACK 18 AUDIO
TITLE "Act 2, Scene 1: Dammi tu forza, o cielo!"
PERFORMER "Angela Gheorghiu, Frank Lopardo, Leo Nucci"
INDEX 01 58:17:32
TRACK 19 AUDIO
TITLE "Act 2, Scene 1: Che fai?"
PERFORMER "Angela Gheorghiu, Frank Lopardo, Leo Nucci"
INDEX 01 60:01:57
TRACK 20 AUDIO
TITLE "Act 2, Scene 1: Ah, vive sol quel core"
PERFORMER "Angela Gheorghiu, Frank Lopardo, Leo Nucci"
INDEX 01 62:22:50
TRACK 21 AUDIO
TITLE "Act 2, Scene 1: Di Provenza il mar, il suol"
PERFORMER "Angela Gheorghiu, Frank Lopardo, Leo Nucci"
INDEX 01 64:44:70
TRACK 22 AUDIO
TITLE "Act 2, Scene 1: Ne rispondi d'un padre all'affetto?"
PERFORMER "Angela Gheorghiu, Frank Lopardo, Leo Nucci"
INDEX 01 69:00:07

La Traviata cd 2.cue

REM GENRE Opera
REM DATE 2012
REM DISCID 100CB311
REM COMMENT "ExactAudioCopy v1.0b3"
PERFORMER "Angela Gheorghiu, Frank Lopardo, Leo Nucci"
TITLE "La Traviata cd 2"
FILE "La Traviata cd 2.ape" WAVE
TRACK 01 AUDIO
TITLE "Act 2, Scene 2: Avrem lieta di maschere la notte"
PERFORMER "Angela Gheorghiu, Frank Lopardo, Leo Nucci"
INDEX 00 00:00:00
INDEX 01 00:00:32
TRACK 02 AUDIO
TITLE "Act 2, Scene 2: Noi siamo zingarelle"
PERFORMER "Angela Gheorghiu, Frank Lopardo, Leo Nucci"
INDEX 01 01:02:45
TRACK 03 AUDIO
TITLE "Act 2, Scene 2: Di Madride noi siam mattadori"
PERFORMER "Angela Gheorghiu, Frank Lopardo, Leo Nucci"
INDEX 01 03:46:20
TRACK 04 AUDIO
TITLE "Act 2, Scene 2: Alfredo! Voi!"
PERFORMER "Angela Gheorghiu, Frank Lopardo, Leo Nucci"
INDEX 01 06:27:32
TRACK 05 AUDIO
TITLE "Act 2, Scene 2: Invitato a qui seguirmi"
PERFORMER "Angela Gheorghiu, Frank Lopardo, Leo Nucci"
INDEX 01 10:21:45
TRACK 06 AUDIO
TITLE "Act 2, Scene 2: Ogni suo aver tal femmina"
PERFORMER "Angela Gheorghiu, Frank Lopardo, Leo Nucci"
INDEX 01 12:44:30
TRACK 07 AUDIO
TITLE "Act 2, Scene 2: Di sprezzo degno se stesso rende"
PERFORMER "Angela Gheorghiu, Frank Lopardo, Leo Nucci"
INDEX 01 14:14:32
TRACK 08 AUDIO
TITLE "Act 2, Scene 2: Alfredo, Alfredo, di questo core"
PERFORMER "Angela Gheorghiu, Frank Lopardo, Leo Nucci"
INDEX 01 15:54:00
TRACK 09 AUDIO
TITLE "Act 3: Preludio"
PERFORMER "Angela Gheorghiu, Frank Lopardo, Leo Nucci"
INDEX 00 20:31:07
INDEX 01 20:34:45
TRACK 10 AUDIO
TITLE "Act 3: Annina? -- Comandate?"
PERFORMER "Angela Gheorghiu, Frank Lopardo, Leo Nucci"
INDEX 01 24:06:57
TRACK 11 AUDIO
TITLE "Act 3: 'Teneste la promessa...' Addio del passato"
PERFORMER "Angela Gheorghiu, Frank Lopardo, Leo Nucci"
INDEX 01 28:43:45
TRACK 12 AUDIO
TITLE "Act 3: Largo al quadrupede"
PERFORMER "Angela Gheorghiu, Frank Lopardo, Leo Nucci"
INDEX 01 35:50:20
TRACK 13 AUDIO
TITLE "Act 3: Signora...---Che t'accadde?"
PERFORMER "Angela Gheorghiu, Frank Lopardo, Leo Nucci"
INDEX 01 36:36:62
TRACK 14 AUDIO
TITLE "Act 3: Parigi, o cara"
PERFORMER "Angela Gheorghiu, Frank Lopardo, Leo Nucci"
INDEX 01 38:17:07
TRACK 15 AUDIO
TITLE "Act 3: Ah, non piu!"
PERFORMER "Angela Gheorghiu, Frank Lopardo, Leo Nucci"
INDEX 01 42:36:70
TRACK 16 AUDIO
TITLE "Act 3: Ah, Violetta! -- Voi? Signor?"
PERFORMER "Angela Gheorghiu, Frank Lopardo, Leo Nucci"
INDEX 01 47:26:05
TRACK 17 AUDIO
TITLE "Act 3: Prendi, quest'i.. l'immagine"
PERFORMER "Angela Gheorghiu, Frank Lopardo, Leo Nucci"
INDEX 00 49:11:70
INDEX 01 49:12:70



Показать сообщения:    

Текущее время: 06-Дек 17:10

Часовой пояс: UTC + 3


Вы не можете начинать темы
Вы не можете отвечать на сообщения
Вы не можете редактировать свои сообщения
Вы не можете удалять свои сообщения
Вы не можете голосовать в опросах
Вы не можете прикреплять файлы к сообщениям
Вы не можете скачивать файлы