(Classical) Теодор Дюбуа – Фортепианные трио (и проч.) / Theodore Dubois – Trios avec piano (Trio Hochelaga: Anne Robert, Benoit Loiselle, Stephane Lemelin) - 2006, FLAC (tracks+.cue) lossless


 

[Цитировать]

Теодор Дюбуа – Фортепианные трио (и проч.) / Théodore Dubois – Trios avec piano (Trio Hochelaga: Anne Robert, Benoît Loiselle, Stéphane Lemelin)
Жанр: Classical
Страна-производитель диска: Канада
Год издания диска: 2006
Издатель (лейбл): ATMA Classique
Номер по каталогу: ACD2 2362
Дата записи: 6 — 8 мая 2005 г., Квебек.
Аудиокодек: FLAC
Тип рипа: tracks+.cue
Битрейт аудио: lossless
Продолжительность: 01:02:21
Источник: W
Наличие сканов в содержимом раздачи: да
Треклист:-Франсуа-Клеман Теодор Дюбуа (1837 — 1924).
Камерная музыка с фортепиано, диск I: сочинения для фортепианного трио.-Фортепианное трио № 1 c-moll (опубл. 1904).
01. I. Mouvement modéré mais avec un sentiment agité [08:26].
02. II. Assez lent, très expressif [08:35].
03. III. Vif et très léger [04:08].
04. IV. Très large et très soutenu. — Vif et bien rythmé, très articulé, très chaleureux [05:10].
Фортепианное трио № 2 E-dur (опубл. 1911).
05. I. Allegretto con moto, avec expression et chaleur [07:41].
06. II. Allegretto, léger et bien rythmé [04:27].
07. III. Adagio [06:17].
08. IV. Allegro bien rythmé [06:10].
«Сентиментальная прогулка» (Promenade sentimentale), дуэт As-dur для скрипки и виолончели с фортепиано (опубл. 1904).
09. Andantino. — Andante. — Andantino. — Tempo I. — Andantino un peu plus lent [06:02].
Канон E-dur для фортепианного трио (опубл. 1922).
10. Andante [01:53].
Кантилена (Cantilène) D-dur для скрипки и виолончели (или валторны) с фортепиано (опубл. 1903).
11. [03:12].-Исполнители:
Trio Hochelaga:
Anne Robert (скрипка),
Benoît Loiselle (виолончель),
Stéphane Lemelin (фортепиано).-

Лог создания рипа

X Lossless Decoder version 20131102 (145.0)
XLD extraction logfile from 2013-12-19 19:44:44 -0500
DUBOIS, Theodore (1837-1924) / Werke fur Klaviertrio (Trio Hochelga)
Used drive : OPTIARC DVD RW AD-5680H (revision 3AHF)
Media type : Pressed CD
Ripper mode : XLD Secure Ripper
Disable audio cache : OK for the drive with a cache less than 1375KiB
Make use of C2 pointers : NO
Read offset correction : 48
Max retry count : 20
Gap status : Analyzed, Appended (except HTOA)
TOC of the extracted CD
Track | Start | Length | Start sector | End sector
---------------------------------------------------------
1 | 00:00:00 | 08:26:00 | 0 | 37949
2 | 08:26:00 | 08:35:19 | 37950 | 76593
3 | 17:01:19 | 04:08:59 | 76594 | 95252
4 | 21:10:03 | 05:18:68 | 95253 | 119170
5 | 26:28:71 | 07:41:61 | 119171 | 153806
6 | 34:10:57 | 04:27:63 | 153807 | 173894
7 | 38:38:45 | 06:17:45 | 173895 | 202214
8 | 44:56:15 | 06:15:44 | 202215 | 230383
9 | 51:11:59 | 06:02:70 | 230384 | 257603
10 | 57:14:54 | 01:53:64 | 257604 | 266142
11 | 59:08:43 | 03:12:18 | 266143 | 280560
AccurateRip Summary (DiscID: 001ce4c9-00f3e632-830e9c0b)
Track 01 : OK (v1+v2, confidence 5/5)
Track 02 : OK (v1+v2, confidence 5/5)
Track 03 : OK (v1+v2, confidence 5/5)
Track 04 : OK (v1+v2, confidence 5/5)
Track 05 : OK (v1+v2, confidence 5/5)
Track 06 : OK (v1+v2, confidence 5/5)
Track 07 : OK (v1+v2, confidence 5/5)
Track 08 : OK (v1+v2, confidence 5/5)
Track 09 : OK (v1+v2, confidence 5/5)
Track 10 : OK (v1+v2, confidence 5/5)
Track 11 : OK (v1+v2, confidence 5/5)
->All tracks accurately ripped.
All Tracks
Album gain : 2.57 dB
Peak : 0.980560
Statistics
Read error : 0
Jitter error (maybe fixed) : 0
Retry sector count : 1
Damaged sector count : 0
Track 01
Filename : /Volumes/Big Daddy II/XLD rips/DUBOIS, Theodore (1837-1924) - Werke fur Klaviertrio (Trio Hochelga) (2005) [FLAC]/01 Klaviertrio Nr.1 c-moll - I - Mouvement modere mais avec un sentiment agite.flac
Pre-gap length : 00:02:00
Track gain : 0.92 dB
Peak : 0.931854
CRC32 hash (test run) : BA33E135
CRC32 hash : BA33E135
CRC32 hash (skip zero) : EEB6A2C2
AccurateRip v1 signature : E5950E98
AccurateRip v2 signature : D2E3BDC9
->Accurately ripped (v1+v2, confidence 3+2/5)
Statistics
Read error : 0
Jitter error (maybe fixed) : 0
Retry sector count : 0
Damaged sector count : 0
Track 02
Filename : /Volumes/Big Daddy II/XLD rips/DUBOIS, Theodore (1837-1924) - Werke fur Klaviertrio (Trio Hochelga) (2005) [FLAC]/02 Klaviertrio Nr.1 c-moll - II - Assez lent, tres expressif.flac
Track gain : 4.22 dB
Peak : 0.775055
CRC32 hash (test run) : D5D9D0B3
CRC32 hash : D5D9D0B3
CRC32 hash (skip zero) : FBBF8BD7
AccurateRip v1 signature : 9F8694E3
AccurateRip v2 signature : F05E6FED
->Accurately ripped (v1+v2, confidence 3+2/5)
Statistics
Read error : 0
Jitter error (maybe fixed) : 0
Retry sector count : 0
Damaged sector count : 0
Track 03
Filename : /Volumes/Big Daddy II/XLD rips/DUBOIS, Theodore (1837-1924) - Werke fur Klaviertrio (Trio Hochelga) (2005) [FLAC]/03 Klaviertrio Nr.1 c-moll - III - Vif et tres leger.flac
Track gain : 3.22 dB
Peak : 0.693298
CRC32 hash (test run) : AB3B4339
CRC32 hash : AB3B4339
CRC32 hash (skip zero) : B34549BB
AccurateRip v1 signature : 183ADC18
AccurateRip v2 signature : 4BD311AA
->Accurately ripped (v1+v2, confidence 3+2/5)
Statistics
Read error : 0
Jitter error (maybe fixed) : 0
Retry sector count : 0
Damaged sector count : 0
Track 04
Filename : /Volumes/Big Daddy II/XLD rips/DUBOIS, Theodore (1837-1924) - Werke fur Klaviertrio (Trio Hochelga) (2005) [FLAC]/04 Klaviertrio Nr.1 c-moll - IV - Tres large et tres soutenu - vif et bien rythme, tres articule, tres chaleureux.flac
Track gain : 0.58 dB
Peak : 0.980560
CRC32 hash (test run) : E87DA4B5
CRC32 hash : E87DA4B5
CRC32 hash (skip zero) : AE9FF982
AccurateRip v1 signature : BDD5121A
AccurateRip v2 signature : 4E37D18A
->Accurately ripped (v1+v2, confidence 3+2/5)
Statistics
Read error : 0
Jitter error (maybe fixed) : 0
Retry sector count : 0
Damaged sector count : 0
Track 05
Filename : /Volumes/Big Daddy II/XLD rips/DUBOIS, Theodore (1837-1924) - Werke fur Klaviertrio (Trio Hochelga) (2005) [FLAC]/05 Klaviertrio Nr.2 E-dur - I - Allegretto con moto, avec expression et chaleur.flac
Pre-gap length : 00:08:13
Track gain : 2.33 dB
Peak : 0.742432
CRC32 hash (test run) : DA9C1F6E
CRC32 hash : DA9C1F6E
CRC32 hash (skip zero) : CE7F4A94
AccurateRip v1 signature : A289D0C1
AccurateRip v2 signature : ED087ACE
->Accurately ripped (v1+v2, confidence 3+2/5)
Statistics
Read error : 0
Jitter error (maybe fixed) : 0
Retry sector count : 0
Damaged sector count : 0
Track 06
Filename : /Volumes/Big Daddy II/XLD rips/DUBOIS, Theodore (1837-1924) - Werke fur Klaviertrio (Trio Hochelga) (2005) [FLAC]/06 Klaviertrio Nr.2 E-dur - II - Allegretto, leger et bien rythme.flac
Track gain : 4.09 dB
Peak : 0.611908
CRC32 hash (test run) : BF65E5B8
CRC32 hash : BF65E5B8
CRC32 hash (skip zero) : 8B44DA72
AccurateRip v1 signature : BD4CBA0C
AccurateRip v2 signature : 596A5601
->Accurately ripped (v1+v2, confidence 3+2/5)
Statistics
Read error : 0
Jitter error (maybe fixed) : 0
Retry sector count : 0
Damaged sector count : 0
Track 07
Filename : /Volumes/Big Daddy II/XLD rips/DUBOIS, Theodore (1837-1924) - Werke fur Klaviertrio (Trio Hochelga) (2005) [FLAC]/07 Klaviertrio Nr.2 E-dur - III - Adagio.flac
Track gain : 5.71 dB
Peak : 0.686310
CRC32 hash (test run) : BB5679B1
CRC32 hash : BB5679B1
CRC32 hash (skip zero) : ADC2A882
AccurateRip v1 signature : ACF12A2B
AccurateRip v2 signature : 8F2A6DF8
->Accurately ripped (v1+v2, confidence 3+2/5)
Statistics
Read error : 0
Jitter error (maybe fixed) : 0
Retry sector count : 0
Damaged sector count : 0
Track 08
Filename : /Volumes/Big Daddy II/XLD rips/DUBOIS, Theodore (1837-1924) - Werke fur Klaviertrio (Trio Hochelga) (2005) [FLAC]/08 Klaviertrio Nr.2 E-dur - IV - Allegro, bien rythme.flac
Track gain : 1.49 dB
Peak : 0.700897
CRC32 hash (test run) : 17756F0E
CRC32 hash : 17756F0E
CRC32 hash (skip zero) : 70FB53AC
AccurateRip v1 signature : A23CAB12
AccurateRip v2 signature : 899B434D
->Accurately ripped (v1+v2, confidence 3+2/5)
Statistics
Read error : 0
Jitter error (maybe fixed) : 0
Retry sector count : 0
Damaged sector count : 0
Track 09
Filename : /Volumes/Big Daddy II/XLD rips/DUBOIS, Theodore (1837-1924) - Werke fur Klaviertrio (Trio Hochelga) (2005) [FLAC]/09 Promenade sentimentale pour violon et violoncelle avec accompagnement de piano (1904).flac
Pre-gap length : 00:05:43
Track gain : 6.63 dB
Peak : 0.375488
CRC32 hash (test run) : 179CEBB6
CRC32 hash : 179CEBB6
CRC32 hash (skip zero) : 7CBDFA2E
AccurateRip v1 signature : 763D4EFC
AccurateRip v2 signature : 87697CD7
->Accurately ripped (v1+v2, confidence 3+2/5)
Statistics
Read error : 0
Jitter error (maybe fixed) : 0
Retry sector count : 0
Damaged sector count : 0
Track 10
Filename : /Volumes/Big Daddy II/XLD rips/DUBOIS, Theodore (1837-1924) - Werke fur Klaviertrio (Trio Hochelga) (2005) [FLAC]/10 Canon pour violon, violoncelle et piano (1922).flac
Track gain : 7.86 dB
Peak : 0.275055
CRC32 hash (test run) : 399C8238
CRC32 hash : 399C8238
CRC32 hash (skip zero) : F154D07F
AccurateRip v1 signature : 6C04C9C2
AccurateRip v2 signature : 95F08319
->Accurately ripped (v1+v2, confidence 3+2/5)
Statistics
Read error : 0
Jitter error (maybe fixed) : 0
Retry sector count : 1
Damaged sector count : 0
Track 11
Filename : /Volumes/Big Daddy II/XLD rips/DUBOIS, Theodore (1837-1924) - Werke fur Klaviertrio (Trio Hochelga) (2005) [FLAC]/11 Cantilene pour violon et violoncelle, avec accompagnement de piano (1903).flac
Track gain : 6.27 dB
Peak : 0.358459
CRC32 hash (test run) : 33A45CC6
CRC32 hash : 33A45CC6
CRC32 hash (skip zero) : FC6CF296
AccurateRip v1 signature : F3F34A44
AccurateRip v2 signature : 51107B49
->Accurately ripped (v1+v2, confidence 3+2/5)
Statistics
Read error : 0
Jitter error (maybe fixed) : 0
Retry sector count : 0
Damaged sector count : 0
No errors occurred
End of status report
-----BEGIN XLD SIGNATURE-----
3JQVt5UilorlfGugb4rQ67pD8rb9dQo8GkWY_bT49tLWqTC9yxcUk68t5inFpaGEuA1bnxnTGgw_CO2peRSM5Gt8I63TSt0a5HVTbs0
-----END XLD SIGNATURE-----

Содержание индексной карты (.CUE)

TITLE "Theodore Dubois – Trios avec piano – Trio Hochelaga"
PERFORMER "Trio Hochelaga"
REM GENRE "Classical"
REM DATE "2005"
REM DISCID 830E9C0B
FILE "01 Premier trio en ut mineur - I. Mouvement modere mais avec un sentiment agite.flac" WAVE
TRACK 01 AUDIO
TITLE "Premier trio en ut mineur - I. Mouvement modere mais avec un sentiment agite"
SONGWRITER "Theodore Dubois (1837-1924)"
REM REPLAYGAIN_TRACK_GAIN 0.92 dB
REM REPLAYGAIN_TRACK_PEAK 0.931854
INDEX 01 00:00:00
FILE "02 Premier trio en ut mineur - II. Assez lent, tres expressif.flac" WAVE
TRACK 02 AUDIO
TITLE "Premier trio en ut mineur - II. Assez lent, tres expressif"
SONGWRITER "Theodore Dubois (1837-1924)"
REM REPLAYGAIN_TRACK_GAIN 4.22 dB
REM REPLAYGAIN_TRACK_PEAK 0.775055
INDEX 01 00:00:00
FILE "03 Premier trio en ut mineur - III. Vif et tres leger.flac" WAVE
TRACK 03 AUDIO
TITLE "Premier trio en ut mineur - III. Vif et tres leger"
SONGWRITER "Theodore Dubois (1837-1924)"
REM REPLAYGAIN_TRACK_GAIN 3.22 dB
REM REPLAYGAIN_TRACK_PEAK 0.693298
INDEX 01 00:00:00
FILE "04 Premier trio en ut mineur - IV. Tres large et tres soutenu - Vif et bien rythme.flac" WAVE
TRACK 04 AUDIO
TITLE "Premier trio en ut mineur - IV. Tres large et tres soutenu - Мif et bien rythme, tres articule, tres chaleureux"
SONGWRITER "Theodore Dubois (1837-1924)"
REM REPLAYGAIN_TRACK_GAIN 0.58 dB
REM REPLAYGAIN_TRACK_PEAK 0.980560
INDEX 01 00:00:00
FILE "05 Deuxieme trio en mi majeur - I. Allegretto con moto, avec expression et chaleur.flac" WAVE
TRACK 05 AUDIO
TITLE "Deuxieme trio en mi majeur - I. Allegretto con moto, avec expression et chaleur"
SONGWRITER "Theodore Dubois (1837-1924)"
REM REPLAYGAIN_TRACK_GAIN 2.33 dB
REM REPLAYGAIN_TRACK_PEAK 0.742432
INDEX 01 00:00:00
FILE "06 Deuxieme trio en mi majeur - II. Allegretto, leger et bien rythme.flac" WAVE
TRACK 06 AUDIO
TITLE "Deuxieme trio en mi majeur - II. Allegretto, leger et bien rythme"
SONGWRITER "Theodore Dubois (1837-1924)"
REM REPLAYGAIN_TRACK_GAIN 4.09 dB
REM REPLAYGAIN_TRACK_PEAK 0.611908
INDEX 01 00:00:00
FILE "07 Deuxieme trio en mi majeur - III. Adagio.flac" WAVE
TRACK 07 AUDIO
TITLE "Deuxieme trio en mi majeur - III. Adagio"
SONGWRITER "Theodore Dubois (1837-1924)"
REM REPLAYGAIN_TRACK_GAIN 5.71 dB
REM REPLAYGAIN_TRACK_PEAK 0.686310
INDEX 01 00:00:00
FILE "08 Deuxieme trio en mi majeur - IV. Allegro, bien rythme.flac" WAVE
TRACK 08 AUDIO
TITLE "Deuxieme trio en mi majeur - IV. Allegro, bien rythme"
SONGWRITER "Theodore Dubois (1837-1924)"
REM REPLAYGAIN_TRACK_GAIN 1.49 dB
REM REPLAYGAIN_TRACK_PEAK 0.700897
INDEX 01 00:00:00
FILE "09 Promenade sentimentale pour violon et violoncelle avec accompagnement de piano (1904).flac" WAVE
TRACK 09 AUDIO
TITLE "Promenade sentimentale pour violon et violoncelle avec accompagnement de piano (1904)"
SONGWRITER "Theodore Dubois (1837-1924)"
REM REPLAYGAIN_TRACK_GAIN 6.63 dB
REM REPLAYGAIN_TRACK_PEAK 0.375488
INDEX 01 00:00:00
FILE "10 Canon pour violon, violoncelle et piano (1922).flac" WAVE
TRACK 10 AUDIO
TITLE "Canon pour violon, violoncelle et piano (1922)"
SONGWRITER "Theodore Dubois (1837-1924)"
REM REPLAYGAIN_TRACK_GAIN 7.86 dB
REM REPLAYGAIN_TRACK_PEAK 0.275055
INDEX 01 00:00:00
FILE "11 Cantilene pour violon et violoncelle avec accompagnement de piano (1903).flac" WAVE
TRACK 11 AUDIO
TITLE "Cantilene pour violon et violoncelle avec accompagnement de piano (1903)"
SONGWRITER "Theodore Dubois (1837-1924)"
REM REPLAYGAIN_TRACK_GAIN 6.27 dB
REM REPLAYGAIN_TRACK_PEAK 0.358459
INDEX 01 00:00:00

Вариант индексной карты (.CUE) с выставленными зазорами

TITLE "Theodore Dubois – Trios avec piano – Trio Hochelaga"
PERFORMER "Trio Hochelaga"
REM GENRE "Classical"
REM DATE "2005"
REM DISCID 830E9C0B
FILE "01 Premier trio en ut mineur - I. Mouvement modere mais avec un sentiment agite.flac" WAVE
TRACK 01 AUDIO
TITLE "Premier trio en ut mineur - I. Mouvement modere mais avec un sentiment agite"
SONGWRITER "Theodore Dubois (1837-1924)"
REM REPLAYGAIN_TRACK_GAIN 0.92 dB
REM REPLAYGAIN_TRACK_PEAK 0.931854
INDEX 01 00:00:00
FILE "02 Premier trio en ut mineur - II. Assez lent, tres expressif.flac" WAVE
TRACK 02 AUDIO
TITLE "Premier trio en ut mineur - II. Assez lent, tres expressif"
SONGWRITER "Theodore Dubois (1837-1924)"
REM REPLAYGAIN_TRACK_GAIN 4.22 dB
REM REPLAYGAIN_TRACK_PEAK 0.775055
INDEX 01 00:00:00
FILE "03 Premier trio en ut mineur - III. Vif et tres leger.flac" WAVE
TRACK 03 AUDIO
TITLE "Premier trio en ut mineur - III. Vif et tres leger"
SONGWRITER "Theodore Dubois (1837-1924)"
REM REPLAYGAIN_TRACK_GAIN 3.22 dB
REM REPLAYGAIN_TRACK_PEAK 0.693298
INDEX 01 00:00:00
FILE "04 Premier trio en ut mineur - IV. Tres large et tres soutenu - Vif et bien rythme.flac" WAVE
TRACK 04 AUDIO
TITLE "Premier trio en ut mineur - IV. Tres large et tres soutenu - Мif et bien rythme, tres articule, tres chaleureux"
SONGWRITER "Theodore Dubois (1837-1924)"
REM REPLAYGAIN_TRACK_GAIN 0.58 dB
REM REPLAYGAIN_TRACK_PEAK 0.980560
INDEX 01 00:00:00
TRACK 05 AUDIO
INDEX 00 05:12:68
FILE "05 Deuxieme trio en mi majeur - I. Allegretto con moto, avec expression et chaleur.flac" WAVE
TITLE "Deuxieme trio en mi majeur - I. Allegretto con moto, avec expression et chaleur"
SONGWRITER "Theodore Dubois (1837-1924)"
REM REPLAYGAIN_TRACK_GAIN 2.33 dB
REM REPLAYGAIN_TRACK_PEAK 0.742432
INDEX 01 00:00:00
FILE "06 Deuxieme trio en mi majeur - II. Allegretto, leger et bien rythme.flac" WAVE
TRACK 06 AUDIO
TITLE "Deuxieme trio en mi majeur - II. Allegretto, leger et bien rythme"
SONGWRITER "Theodore Dubois (1837-1924)"
REM REPLAYGAIN_TRACK_GAIN 4.09 dB
REM REPLAYGAIN_TRACK_PEAK 0.611908
INDEX 01 00:00:00
FILE "07 Deuxieme trio en mi majeur - III. Adagio.flac" WAVE
TRACK 07 AUDIO
TITLE "Deuxieme trio en mi majeur - III. Adagio"
SONGWRITER "Theodore Dubois (1837-1924)"
REM REPLAYGAIN_TRACK_GAIN 5.71 dB
REM REPLAYGAIN_TRACK_PEAK 0.686310
INDEX 01 00:00:00
FILE "08 Deuxieme trio en mi majeur - IV. Allegro, bien rythme.flac" WAVE
TRACK 08 AUDIO
TITLE "Deuxieme trio en mi majeur - IV. Allegro, bien rythme"
SONGWRITER "Theodore Dubois (1837-1924)"
REM REPLAYGAIN_TRACK_GAIN 1.49 dB
REM REPLAYGAIN_TRACK_PEAK 0.700897
INDEX 01 00:00:00
TRACK 09 AUDIO
INDEX 00 06:10:00
FILE "09 Promenade sentimentale pour violon et violoncelle avec accompagnement de piano (1904).flac" WAVE
TITLE "Promenade sentimentale pour violon et violoncelle avec accompagnement de piano (1904)"
SONGWRITER "Theodore Dubois (1837-1924)"
REM REPLAYGAIN_TRACK_GAIN 6.63 dB
REM REPLAYGAIN_TRACK_PEAK 0.375488
INDEX 01 00:00:00
TRACK 10 AUDIO
INDEX 00 05:59:51
FILE "10 Canon pour violon, violoncelle et piano (1922).flac" WAVE
TITLE "Canon pour violon, violoncelle et piano (1922)"
SONGWRITER "Theodore Dubois (1837-1924)"
REM REPLAYGAIN_TRACK_GAIN 7.86 dB
REM REPLAYGAIN_TRACK_PEAK 0.275055
INDEX 01 00:00:00
TRACK 11 AUDIO
INDEX 00 01:49:67
FILE "11 Cantilene pour violon et violoncelle avec accompagnement de piano (1903).flac" WAVE
TITLE "Cantilene pour violon et violoncelle avec accompagnement de piano (1903)"
SONGWRITER "Theodore Dubois (1837-1924)"
REM REPLAYGAIN_TRACK_GAIN 6.27 dB
REM REPLAYGAIN_TRACK_PEAK 0.358459
INDEX 01 00:00:00
INDEX 02 03:10:21
-



Показать сообщения:    

Текущее время: 04-Дек 06:54

Часовой пояс: UTC + 3


Вы не можете начинать темы
Вы не можете отвечать на сообщения
Вы не можете редактировать свои сообщения
Вы не можете удалять свои сообщения
Вы не можете голосовать в опросах
Вы не можете прикреплять файлы к сообщениям
Вы не можете скачивать файлы