(Classical,Oboe) Теодор Дюбуа – Фортепианные квартет и квинтет (с гобоем) / Theodore Dubois – Quatuor et quintette avec piano / Quartet & Quintet (Trio Hochelaga: Anne Robert, Benoit Loiselle, Stephane Lemelin) - 2007, FLAC (tracks+.cue) lossless


 

[Цитировать]

Теодор Дюбуа – Фортепианные квартет и квинтет (с гобоем) / Théodore Dubois – Quatuor et quintette avec piano / Quartet & Quintet (Trio Hochelaga: Anne Robert, Benoît Loiselle, Stéphane Lemelin)
Жанр: Classical, oboe (hautbois)
Страна-производитель диска: Канада
Год издания диска: 2007
Издатель (лейбл): ATMA Classique
Номер по каталогу: ACD2 2385
Дата записи: 16 — 18 мая 2006 г., Квебек.
Аудиокодек: FLAC
Тип рипа: tracks+.cue
Битрейт аудио: lossless
Продолжительность: 01:00:07
Источник: W
Наличие сканов в содержимом раздачи: да
Треклист:-Франсуа-Клеман Теодор Дюбуа (1837 — 1924).
Камерная музыка с фортепиано, диск II: квартет и квинтет.-Фортепианный квартет a-moll (опубл. 1907).
01. I. Allegro agitato con calore [11:19].
02. II. Andante molto espressivo [08:51].
03. III. Allegro leggiero [04:02].
04. IV. Allegro con fuoco [07:10].
Квинтет F-dur для скрипки, гобоя, альта, виолончели и фортепиано (опубл. 1905).
05. I. Allegro [07:48].
06. II. Canzonetta. Tranquillo [04:40].
07. III. Adagio non troppo [07:35].
08. IV. Allegro con fuoco. — Tranquillo (Mouvement de la Canzonetta). — Adagio non troppo. — Primo moto [08:28].-Исполнители:
Trio Hochelaga:
Anne Robert (скрипка),
Benoît Loiselle (виолончель),
Stéphane Lemelin (фортепиано).-

Лог создания рипа

X Lossless Decoder version 20131102 (145.0)
XLD extraction logfile from 2013-11-23 22:17:50 -0500
Theodore Dubois / Quatuor et quintette avec piano
Used drive : OPTIARC DVD RW AD-5680H (revision 3AHF)
Media type : Pressed CD
Ripper mode : XLD Secure Ripper
Disable audio cache : OK for the drive with a cache less than 1375KiB
Make use of C2 pointers : NO
Read offset correction : 48
Max retry count : 20
Gap status : Analyzed, Appended (except HTOA)
TOC of the extracted CD
Track | Start | Length | Start sector | End sector
---------------------------------------------------------
1 | 00:00:00 | 11:20:30 | 0 | 51029
2 | 11:20:30 | 08:50:58 | 51030 | 90837
3 | 20:11:13 | 04:03:01 | 90838 | 109063
4 | 24:14:14 | 07:18:05 | 109064 | 141918
5 | 31:32:19 | 07:46:74 | 141919 | 176942
6 | 39:19:18 | 04:41:42 | 176943 | 198059
7 | 44:00:60 | 07:36:13 | 198060 | 232272
8 | 51:36:73 | 08:29:59 | 232273 | 270506
AccurateRip Summary
Disc not found in AccurateRip DB.
All Tracks
Album gain : 3.26 dB
Peak : 0.816406
Statistics
Read error : 0
Jitter error (maybe fixed) : 0
Retry sector count : 3
Damaged sector count : 0
Track 01
Filename : /Volumes/Big Daddy II/XLD rips/Theodore Dubois - Quatuor et quintette avec piano (2006) [FLAC]/01 Quatuor en la mineur pour piano et cordes - Allegro agitato.flac
Pre-gap length : 00:02:00
Track gain : 2.65 dB
Peak : 0.816406
CRC32 hash (test run) : AA75BF14
CRC32 hash : AA75BF14
CRC32 hash (skip zero) : 36718970
AccurateRip v1 signature : 2497EB51
AccurateRip v2 signature : 999AECAB
->Track not present in AccurateRip database.
Statistics
Read error : 0
Jitter error (maybe fixed) : 0
Retry sector count : 0
Damaged sector count : 0
Track 02
Filename : /Volumes/Big Daddy II/XLD rips/Theodore Dubois - Quatuor et quintette avec piano (2006) [FLAC]/02 Quatuor en la mineur pour piano et cordes - Andante molto espressivo.flac
Track gain : 5.34 dB
Peak : 0.573578
CRC32 hash (test run) : AA8DF692
CRC32 hash : AA8DF692
CRC32 hash (skip zero) : 6A56DAB1
AccurateRip v1 signature : 8F096201
AccurateRip v2 signature : 534F40C5
->Track not present in AccurateRip database.
Statistics
Read error : 0
Jitter error (maybe fixed) : 0
Retry sector count : 0
Damaged sector count : 0
Track 03
Filename : /Volumes/Big Daddy II/XLD rips/Theodore Dubois - Quatuor et quintette avec piano (2006) [FLAC]/03 Quatuor en la mineur pour piano et cordes - Allegro leggiero.flac
Track gain : 5.27 dB
Peak : 0.520538
CRC32 hash (test run) : 56983C47
CRC32 hash : 56983C47
CRC32 hash (skip zero) : C5734467
AccurateRip v1 signature : E2721CFB
AccurateRip v2 signature : C7CA4B86
->Track not present in AccurateRip database.
Statistics
Read error : 0
Jitter error (maybe fixed) : 0
Retry sector count : 0
Damaged sector count : 0
Track 04
Filename : /Volumes/Big Daddy II/XLD rips/Theodore Dubois - Quatuor et quintette avec piano (2006) [FLAC]/04 Quatuor en la mineur pour piano et cordes - Allegro con fuoco.flac
Track gain : 2.95 dB
Peak : 0.713257
CRC32 hash (test run) : 00470D2F
CRC32 hash : 00470D2F
CRC32 hash (skip zero) : 91394538
AccurateRip v1 signature : 611A2E84
AccurateRip v2 signature : 3D668440
->Track not present in AccurateRip database.
Statistics
Read error : 0
Jitter error (maybe fixed) : 0
Retry sector count : 3
Damaged sector count : 0
Track 05
Filename : /Volumes/Big Daddy II/XLD rips/Theodore Dubois - Quatuor et quintette avec piano (2006) [FLAC]/05 Quintette pour piano, violon, hautbois et violoncelle - Allegro.flac
Pre-gap length : 00:09:13
Track gain : 2.23 dB
Peak : 0.578766
CRC32 hash (test run) : 8DC57024
CRC32 hash : 8DC57024
CRC32 hash (skip zero) : CB96391D
AccurateRip v1 signature : DA3D1D77
AccurateRip v2 signature : AE0424DB
->Track not present in AccurateRip database.
Statistics
Read error : 0
Jitter error (maybe fixed) : 0
Retry sector count : 0
Damaged sector count : 0
Track 06
Filename : /Volumes/Big Daddy II/XLD rips/Theodore Dubois - Quatuor et quintette avec piano (2006) [FLAC]/06 Quintette pour piano, violon, hautbois et violoncelle - Canzonetta.flac
Track gain : 8.97 dB
Peak : 0.332031
CRC32 hash (test run) : C9BDC98F
CRC32 hash : C9BDC98F
CRC32 hash (skip zero) : 8663BDBF
AccurateRip v1 signature : 40EA8DF7
AccurateRip v2 signature : 07D8EF55
->Track not present in AccurateRip database.
Statistics
Read error : 0
Jitter error (maybe fixed) : 0
Retry sector count : 0
Damaged sector count : 0
Track 07
Filename : /Volumes/Big Daddy II/XLD rips/Theodore Dubois - Quatuor et quintette avec piano (2006) [FLAC]/07 Quintette pour piano, violon, hautbois et violoncelle - Adagio non troppo.flac
Track gain : 6.61 dB
Peak : 0.443268
CRC32 hash (test run) : B5D48156
CRC32 hash : B5D48156
CRC32 hash (skip zero) : 855B0011
AccurateRip v1 signature : 39E77A31
AccurateRip v2 signature : D61684D4
->Track not present in AccurateRip database.
Statistics
Read error : 0
Jitter error (maybe fixed) : 0
Retry sector count : 0
Damaged sector count : 0
Track 08
Filename : /Volumes/Big Daddy II/XLD rips/Theodore Dubois - Quatuor et quintette avec piano (2006) [FLAC]/08 Quintette pour piano, violon, hautbois et violoncelle - Allegro con fuoco.flac
Track gain : 2.37 dB
Peak : 0.582001
CRC32 hash (test run) : 6BDF5844
CRC32 hash : 6BDF5844
CRC32 hash (skip zero) : 90BE55E3
AccurateRip v1 signature : 548E5DF0
AccurateRip v2 signature : 7368719A
->Track not present in AccurateRip database.
Statistics
Read error : 0
Jitter error (maybe fixed) : 0
Retry sector count : 0
Damaged sector count : 0
No errors occurred
End of status report
-----BEGIN XLD SIGNATURE-----
Ag_D0_TVBgIRp_NXRwkG_2xXVkRkIMh6V8LhqUZZUogoPHt9GULcWIwbWrNNci8kamwZDMfMy6dy5I4a_iFW0XXzw0W7sSV75_TxOyi
-----END XLD SIGNATURE-----

Содержание индексной карты (.CUE)

TITLE "Theodore Dubois – Quatuor et quintette avec piano – Trio Hochelaga"
PERFORMER "Theodore Dubois"
REM GENRE "Classical"
REM DATE "2006"
REM DISCID 6D0E1608
REM REPLAYGAIN_ALBUM_GAIN 3.26 dB
REM REPLAYGAIN_ALBUM_PEAK 0.816406
FILE "01 Quatuor en la mineur pour piano et cordes - I. Allegro agitato.flac" WAVE
TRACK 01 AUDIO
TITLE "Quatuor en la mineur pour piano et cordes - I. Allegro agitato"
ISRC CAJ720738501
REM REPLAYGAIN_TRACK_GAIN 2.65 dB
REM REPLAYGAIN_TRACK_PEAK 0.816406
INDEX 01 00:00:00
FILE "02 Quatuor en la mineur pour piano et cordes - II. Andante molto espressivo.flac" WAVE
TRACK 02 AUDIO
TITLE "Quatuor en la mineur pour piano et cordes - II. Andante molto espressivo"
ISRC CAJ720738502
REM REPLAYGAIN_TRACK_GAIN 5.34 dB
REM REPLAYGAIN_TRACK_PEAK 0.573578
INDEX 01 00:00:00
FILE "03 Quatuor en la mineur pour piano et cordes - III. Allegro leggiero.flac" WAVE
TRACK 03 AUDIO
TITLE "Quatuor en la mineur pour piano et cordes - III. Allegro leggiero"
ISRC CAJ720738503
REM REPLAYGAIN_TRACK_GAIN 5.27 dB
REM REPLAYGAIN_TRACK_PEAK 0.520538
INDEX 01 00:00:00
FILE "04 Quatuor en la mineur pour piano et cordes - IV. Allegro con fuoco.flac" WAVE
TRACK 04 AUDIO
TITLE "Quatuor en la mineur pour piano et cordes - IV. Allegro con fuoco"
ISRC CAJ720738504
REM REPLAYGAIN_TRACK_GAIN 2.95 dB
REM REPLAYGAIN_TRACK_PEAK 0.713257
INDEX 01 00:00:00
TRACK 05 AUDIO
TITLE "Quintette pour piano, violon, hautbois et violoncelle - I. Allegro"
ISRC CAJ720738505
REM REPLAYGAIN_TRACK_GAIN 2.23 dB
REM REPLAYGAIN_TRACK_PEAK 0.578766
INDEX 00 07:08:67
FILE "05 Quintette pour piano, violon, hautbois et violoncelle - I. Allegro.flac" WAVE
INDEX 01 00:00:00
FILE "06 Quintette pour piano, violon, hautbois et violoncelle - II. Canzonetta.flac" WAVE
TRACK 06 AUDIO
TITLE "Quintette pour piano, violon, hautbois et violoncelle - II. Canzonetta"
ISRC CAJ720738506
REM REPLAYGAIN_TRACK_GAIN 8.97 dB
REM REPLAYGAIN_TRACK_PEAK 0.332031
INDEX 01 00:00:00
FILE "07 Quintette pour piano, violon, hautbois et violoncelle - III. Adagio non troppo.flac" WAVE
TRACK 07 AUDIO
TITLE "Quintette pour piano, violon, hautbois et violoncelle - III. Adagio non troppo"
ISRC CAJ720738507
REM REPLAYGAIN_TRACK_GAIN 6.61 dB
REM REPLAYGAIN_TRACK_PEAK 0.443268
INDEX 01 00:00:00
FILE "08 Quintette pour piano, violon, hautbois et violoncelle - IV. Allegro con fuoco.flac" WAVE
TRACK 08 AUDIO
TITLE "Quintette pour piano, violon, hautbois et violoncelle - IV. Allegro con fuoco"
ISRC CAJ720738508
REM REPLAYGAIN_TRACK_GAIN 2.37 dB
REM REPLAYGAIN_TRACK_PEAK 0.582001
INDEX 01 00:00:00



Показать сообщения:    

Текущее время: 03-Дек 22:48

Часовой пояс: UTC + 3


Вы не можете начинать темы
Вы не можете отвечать на сообщения
Вы не можете редактировать свои сообщения
Вы не можете удалять свои сообщения
Вы не можете голосовать в опросах
Вы не можете прикреплять файлы к сообщениям
Вы не можете скачивать файлы