(Classical) Теодор Дюбуа – Сонаты скрипичная и виолончельная (и проч.) / Theodore Dubois – Musique de chambre / Chamber music for violin/cello & piano (Trio Hochelaga:Anne Robert,Benoit Loiselle,Stephane Lemelin) -2008,FLAC (tracks+.cue) lossless


 

[Цитировать]

Теодор Дюбуа – Сонаты скрипичная и виолончельная (и проч.) / Théodore Dubois – Musique de chambre / Chamber music for piano & violin or cello: sonatas etc. (Trio Hochelaga: Anne Robert, Benoît Loiselle, Stéphane Lemelin)
Жанр: Classical
Страна-производитель диска: Канада
Год издания диска: 2008
Издатель (лейбл): ATMA Classique
Номер по каталогу: ACD2 2380
Дата записи: 12 — 14 октября 2005 г., Квебек.
Аудиокодек: FLAC
Тип рипа: tracks+.cue
Битрейт аудио: lossless
Продолжительность: 01:21:04
Источник: W
Наличие сканов в содержимом раздачи: да
Треклист:-Франсуа-Клеман Теодор Дюбуа (1837 — 1924).
Камерная музыка с фортепиано, диск III: сочинения для двух инструментов.-Соната D-dur для виолончели и фортепиано (первое исп. 1905, опубл. 1906).
01. I. Allegretto con moto e con calore [08:58].
02. II. Andante con variazioni. Andante [08:09].
03. III. Allegro bien rythmé. Народная тема (Air populair) [06:36].
Баллада H-dur для скрипки с фортепиано (опубл. 1909).
04. Andante. — Un peu animé. — Allegro scherzando. — Primo moto [06:54].
Ноктюрн E-dur для виолончели с фортепиано (опубл. 1903/1905).
05. Andante [05:02].
Мелодия (Mélodie) G-dur для скрипки с фортепиано (опубл. 1866/1882).
06. [03:59].
Andante appassionato F-dur для виолончели и фортепиано (опубл. 1925).
07. Andante [02:44].
Соната A-dur для скрипки и фортепиано (опубл. 1900).
08. I. Allegro appassionato. — [Coda.] Poco più lento. — Tempo I [09:19].
09. II. Andante quasi adagio [06:43].
10. III. Allegro deciso, con fuoco [07:33].
Andante cantabile G-dur для виолончели с оркестром, оригинальная версия с фортепиано (опубл. 1899).
11. Andante [03:58].
Размышление и скерцетто для скрипки с фортепиано (опубл. 1912).
12. I. Размышление (Méditation) h-moll. Andante [04:56].
13. II. Скерцетто D-dur. Allegro vivo e leggiero [02:51].
Каватина C-dur для виолончели с фортепиано (опубл. 1886).
14. Andantino [02:36].-Исполнители:
[Trio Hochelaga:]
Anne Robert (скрипка),
Benoît Loiselle (виолончель),
Stéphane Lemelin (фортепиано).-

Лог создания рипа

X Lossless Decoder version 20131102 (145.0)
XLD extraction logfile from 2013-12-02 22:26:24 -0500
Various Artists / Dubois: Musique de chambre
Used drive : OPTIARC DVD RW AD-5680H (revision 3AHF)
Media type : Pressed CD
Ripper mode : XLD Secure Ripper
Disable audio cache : OK for the drive with a cache less than 1375KiB
Make use of C2 pointers : NO
Read offset correction : 48
Max retry count : 20
Gap status : Analyzed, Appended (except HTOA)
TOC of the extracted CD
Track | Start | Length | Start sector | End sector
---------------------------------------------------------
1 | 00:00:00 | 08:58:19 | 0 | 40368
2 | 08:58:19 | 08:11:38 | 40369 | 77231
3 | 17:09:57 | 06:42:02 | 77232 | 107383
4 | 23:51:59 | 06:59:19 | 107384 | 138827
5 | 30:51:03 | 05:06:53 | 138828 | 161830
6 | 35:57:56 | 04:03:50 | 161831 | 180105
7 | 40:01:31 | 02:50:61 | 180106 | 192916
8 | 42:52:17 | 09:19:41 | 192917 | 234882
9 | 52:11:58 | 06:43:11 | 234883 | 265118
10 | 58:54:69 | 07:40:05 | 265119 | 299623
11 | 66:34:74 | 04:01:69 | 299624 | 317767
12 | 70:36:68 | 04:56:05 | 317768 | 339972
13 | 75:32:73 | 02:54:59 | 339973 | 353081
14 | 78:27:57 | 02:36:33 | 353082 | 364814
AccurateRip Summary (DiscID: 002ee78b-01e7111e-c313000e)
Track 01 : OK (v2, confidence 1/1)
Track 02 : OK (v2, confidence 1/1)
Track 03 : OK (v2, confidence 1/1)
Track 04 : OK (v2, confidence 1/1)
Track 05 : OK (v2, confidence 1/1)
Track 06 : OK (v2, confidence 1/1)
Track 07 : OK (v2, confidence 1/1)
Track 08 : OK (v2, confidence 1/1)
Track 09 : OK (v2, confidence 1/1)
Track 10 : OK (v2, confidence 1/1)
Track 11 : OK (v2, confidence 1/1)
Track 12 : OK (v2, confidence 1/1)
Track 13 : OK (v2, confidence 1/1)
Track 14 : OK (v2, confidence 1/1)
->All tracks accurately ripped.
All Tracks
Album gain : 0.66 dB
Peak : 0.903473
Statistics
Read error : 0
Jitter error (maybe fixed) : 0
Retry sector count : 0
Damaged sector count : 0
Track 01
Filename : /Volumes/Big Daddy II/XLD rips/Compilations - Dubois: Musique de chambre (2008) [FLAC]/01 .Allegretto con moto e con calore.flac
Pre-gap length : 00:02:00
Track gain : 2.48 dB
Peak : 0.713287
CRC32 hash (test run) : FEA944B2
CRC32 hash : FEA944B2
CRC32 hash (skip zero) : 1BDDBDA0
AccurateRip v1 signature : A83318CB
AccurateRip v2 signature : 9A5C621B
->Accurately ripped (v2, confidence 1/1)
Statistics
Read error : 0
Jitter error (maybe fixed) : 0
Retry sector count : 0
Damaged sector count : 0
Track 02
Filename : /Volumes/Big Daddy II/XLD rips/Compilations - Dubois: Musique de chambre (2008) [FLAC]/02 II.Andante con variazioni.flac
Track gain : 3.00 dB
Peak : 0.852325
CRC32 hash (test run) : E9FB714E
CRC32 hash : E9FB714E
CRC32 hash (skip zero) : FED4607A
AccurateRip v1 signature : A7852099
AccurateRip v2 signature : 26E102D5
->Accurately ripped (v2, confidence 1/1)
Statistics
Read error : 0
Jitter error (maybe fixed) : 0
Retry sector count : 0
Damaged sector count : 0
Track 03
Filename : /Volumes/Big Daddy II/XLD rips/Compilations - Dubois: Musique de chambre (2008) [FLAC]/03 III.Allegro bien rythme.flac
Track gain : -0.50 dB
Peak : 0.786194
CRC32 hash (test run) : C8B588C1
CRC32 hash : C8B588C1
CRC32 hash (skip zero) : 337E1D41
AccurateRip v1 signature : 62595C5E
AccurateRip v2 signature : 07DCD47A
->Accurately ripped (v2, confidence 1/1)
Statistics
Read error : 0
Jitter error (maybe fixed) : 0
Retry sector count : 0
Damaged sector count : 0
Track 04
Filename : /Volumes/Big Daddy II/XLD rips/Compilations - Dubois: Musique de chambre (2008) [FLAC]/04 ????.flac
Track gain : 1.77 dB
Peak : 0.782501
CRC32 hash (test run) : E3D9B70E
CRC32 hash : E3D9B70E
CRC32 hash (skip zero) : 5B8A1B48
AccurateRip v1 signature : 4CE7E478
AccurateRip v2 signature : CD79F925
->Accurately ripped (v2, confidence 1/1)
Statistics
Read error : 0
Jitter error (maybe fixed) : 0
Retry sector count : 0
Damaged sector count : 0
Track 05
Filename : /Volumes/Big Daddy II/XLD rips/Compilations - Dubois: Musique de chambre (2008) [FLAC]/05 ???.flac
Track gain : 4.94 dB
Peak : 0.542816
CRC32 hash (test run) : 03EAF28D
CRC32 hash : 03EAF28D
CRC32 hash (skip zero) : 3301C4DA
AccurateRip v1 signature : C0DA32FE
AccurateRip v2 signature : D4D982DF
->Accurately ripped (v2, confidence 1/1)
Statistics
Read error : 0
Jitter error (maybe fixed) : 0
Retry sector count : 0
Damaged sector count : 0
Track 06
Filename : /Volumes/Big Daddy II/XLD rips/Compilations - Dubois: Musique de chambre (2008) [FLAC]/06 ????.flac
Track gain : 1.50 dB
Peak : 0.600677
CRC32 hash (test run) : 0171BD4B
CRC32 hash : 0171BD4B
CRC32 hash (skip zero) : 0FD2FE39
AccurateRip v1 signature : 3437BAFF
AccurateRip v2 signature : A3C0EF94
->Accurately ripped (v2, confidence 1/1)
Statistics
Read error : 0
Jitter error (maybe fixed) : 0
Retry sector count : 0
Damaged sector count : 0
Track 07
Filename : /Volumes/Big Daddy II/XLD rips/Compilations - Dubois: Musique de chambre (2008) [FLAC]/07 ??????????????.flac
Track gain : 4.05 dB
Peak : 0.464020
CRC32 hash (test run) : 8D4D9F96
CRC32 hash : 8D4D9F96
CRC32 hash (skip zero) : F79232F3
AccurateRip v1 signature : 30B9BEA1
AccurateRip v2 signature : 1108C66F
->Accurately ripped (v2, confidence 1/1)
Statistics
Read error : 0
Jitter error (maybe fixed) : 0
Retry sector count : 0
Damaged sector count : 0
Track 08
Filename : /Volumes/Big Daddy II/XLD rips/Compilations - Dubois: Musique de chambre (2008) [FLAC]/08 ?????????? ??? I.Allegro appassionato.flac
Track gain : -1.26 dB
Peak : 0.903473
CRC32 hash (test run) : DCEF89DD
CRC32 hash : DCEF89DD
CRC32 hash (skip zero) : 380E4535
AccurateRip v1 signature : 9137A076
AccurateRip v2 signature : F684B225
->Accurately ripped (v2, confidence 1/1)
Statistics
Read error : 0
Jitter error (maybe fixed) : 0
Retry sector count : 0
Damaged sector count : 0
Track 09
Filename : /Volumes/Big Daddy II/XLD rips/Compilations - Dubois: Musique de chambre (2008) [FLAC]/09 II.Andante quasi adagio(??????????).flac
Track gain : 1.50 dB
Peak : 0.765930
CRC32 hash (test run) : 31385725
CRC32 hash : 31385725
CRC32 hash (skip zero) : 7E459B87
AccurateRip v1 signature : 653520C1
AccurateRip v2 signature : CC273BB2
->Accurately ripped (v2, confidence 1/1)
Statistics
Read error : 0
Jitter error (maybe fixed) : 0
Retry sector count : 0
Damaged sector count : 0
Track 10
Filename : /Volumes/Big Daddy II/XLD rips/Compilations - Dubois: Musique de chambre (2008) [FLAC]/10 III.Allegro deciso e fuoco(??????????).flac
Track gain : -1.22 dB
Peak : 0.834839
CRC32 hash (test run) : 0289F8A2
CRC32 hash : 0289F8A2
CRC32 hash (skip zero) : F3E143FF
AccurateRip v1 signature : 21230F7B
AccurateRip v2 signature : 125F20A9
->Accurately ripped (v2, confidence 1/1)
Statistics
Read error : 0
Jitter error (maybe fixed) : 0
Retry sector count : 0
Damaged sector count : 0
Track 11
Filename : /Volumes/Big Daddy II/XLD rips/Compilations - Dubois: Musique de chambre (2008) [FLAC]/11 ????????????.flac
Track gain : 4.09 dB
Peak : 0.701111
CRC32 hash (test run) : F133919B
CRC32 hash : F133919B
CRC32 hash (skip zero) : C2B63B54
AccurateRip v1 signature : BDFF2BF5
AccurateRip v2 signature : 4B05E9D8
->Accurately ripped (v2, confidence 1/1)
Statistics
Read error : 0
Jitter error (maybe fixed) : 0
Retry sector count : 0
Damaged sector count : 0
Track 12
Filename : /Volumes/Big Daddy II/XLD rips/Compilations - Dubois: Musique de chambre (2008) [FLAC]/12 ??????????? I.Meditation.flac
Track gain : 5.65 dB
Peak : 0.400787
CRC32 hash (test run) : BE1B7863
CRC32 hash : BE1B7863
CRC32 hash (skip zero) : DDF2B5ED
AccurateRip v1 signature : DF968436
AccurateRip v2 signature : B7045D9A
->Accurately ripped (v2, confidence 1/1)
Statistics
Read error : 0
Jitter error (maybe fixed) : 0
Retry sector count : 0
Damaged sector count : 0
Track 13
Filename : /Volumes/Big Daddy II/XLD rips/Compilations - Dubois: Musique de chambre (2008) [FLAC]/13 II.Scherzetto(???????????).flac
Track gain : 3.16 dB
Peak : 0.642517
CRC32 hash (test run) : 645B6A09
CRC32 hash : 645B6A09
CRC32 hash (skip zero) : 7342D11D
AccurateRip v1 signature : 3C4ADFAF
AccurateRip v2 signature : A5597338
->Accurately ripped (v2, confidence 1/1)
Statistics
Read error : 0
Jitter error (maybe fixed) : 0
Retry sector count : 0
Damaged sector count : 0
Track 14
Filename : /Volumes/Big Daddy II/XLD rips/Compilations - Dubois: Musique de chambre (2008) [FLAC]/14 ???????.flac
Track gain : 3.15 dB
Peak : 0.487762
CRC32 hash (test run) : 8696288A
CRC32 hash : 8696288A
CRC32 hash (skip zero) : 40CA2BDA
AccurateRip v1 signature : 4477F6E5
AccurateRip v2 signature : DA8A4869
->Accurately ripped (v2, confidence 1/1)
Statistics
Read error : 0
Jitter error (maybe fixed) : 0
Retry sector count : 0
Damaged sector count : 0
No errors occurred
End of status report
-----BEGIN XLD SIGNATURE-----
PTUnSpW3.un.POJb8XebqKRo47ZpayUNFLqnLyDdK4vY0b2jOU6cfyeo2LXUU6KZGErqUi8ExuMfpipRym7qIJ3gzRwU2WSltUk5elW
-----END XLD SIGNATURE-----

Содержание индексной карты (.CUE)

TITLE "Theodore Dubois – Musique de chambre – Lemelin, Robert & Loiselle"
REM GENRE "Classical"
REM DATE "2009"
REM DISCNUMBER 1
REM TOTALDISCS 1
REM DISCID C313000E
FILE "01 Cello Sonata in D major - I. Allegretto con moto e con calore.flac" WAVE
TRACK 01 AUDIO
TITLE "Cello Sonata in D major - I. Allegretto con moto e con calore"
PERFORMER "Benoit Loiselle, Stephane Lemelin"
SONGWRITER "Theodore Dubois"
ISRC CAJ720838001
REM REPLAYGAIN_TRACK_GAIN 2.48 dB
REM REPLAYGAIN_TRACK_PEAK 0.713287
INDEX 01 00:00:00
FILE "02 Cello Sonata in D major - II. Andante con variazioni.flac" WAVE
TRACK 02 AUDIO
TITLE "Cello Sonata in D major - II. Andante con variazioni"
PERFORMER "Benoit Loiselle, Stephane Lemelin"
SONGWRITER "Theodore Dubois"
ISRC CAJ720838002
REM REPLAYGAIN_TRACK_GAIN 3.00 dB
REM REPLAYGAIN_TRACK_PEAK 0.852325
INDEX 01 00:00:00
FILE "03 Cello Sonata in D major - III. Allegro bien rythme.flac" WAVE
TRACK 03 AUDIO
TITLE "Cello Sonata in D major - III. Allegro bien rythme"
PERFORMER "Benoit Loiselle, Stephane Lemelin"
SONGWRITER "Theodore Dubois"
ISRC CAJ720838003
REM REPLAYGAIN_TRACK_GAIN -0.50 dB
REM REPLAYGAIN_TRACK_PEAK 0.786194
INDEX 01 00:00:00
FILE "04 Ballade for violin & piano.flac" WAVE
TRACK 04 AUDIO
TITLE "Ballade for violin & piano"
PERFORMER "Anne Robert, Stephane Lemelin"
SONGWRITER "Theodore Dubois"
ISRC CAJ720838004
REM REPLAYGAIN_TRACK_GAIN 1.77 dB
REM REPLAYGAIN_TRACK_PEAK 0.782501
INDEX 01 00:00:00
FILE "05 Nocturne for cello & piano.flac" WAVE
TRACK 05 AUDIO
TITLE "Nocturne for cello & piano"
PERFORMER "Benoit Loiselle, Stephane Lemelin"
SONGWRITER "Theodore Dubois"
ISRC CAJ720838005
REM REPLAYGAIN_TRACK_GAIN 4.94 dB
REM REPLAYGAIN_TRACK_PEAK 0.542816
INDEX 01 00:00:00
FILE "06 Melodie for violin & piano.flac" WAVE
TRACK 06 AUDIO
TITLE "Melodie for violin & piano"
PERFORMER "Anne Robert, Stephane Lemelin"
SONGWRITER "Theodore Dubois"
ISRC CAJ720838006
REM REPLAYGAIN_TRACK_GAIN 1.50 dB
REM REPLAYGAIN_TRACK_PEAK 0.600677
INDEX 01 00:00:00
FILE "07 Andante appassionato for cello & piano.flac" WAVE
TRACK 07 AUDIO
TITLE "Andante appassionato for cello & piano"
PERFORMER "Benoit Loiselle, Stephane Lemelin"
SONGWRITER "Theodore Dubois"
ISRC CAJ720838007
REM REPLAYGAIN_TRACK_GAIN 4.05 dB
REM REPLAYGAIN_TRACK_PEAK 0.464020
INDEX 01 00:00:00
FILE "08 Violin Sonata in A major - I. Allegro appassionato.flac" WAVE
TRACK 08 AUDIO
TITLE "Violin Sonata in A major - I. Allegro appassionato"
PERFORMER "Anne Robert, Stephane Lemelin"
SONGWRITER "Theodore Dubois"
ISRC CAJ720838008
REM REPLAYGAIN_TRACK_GAIN -1.26 dB
REM REPLAYGAIN_TRACK_PEAK 0.903473
INDEX 01 00:00:00
FILE "09 Violin Sonata in A major - II. Andante quasi adagio.flac" WAVE
TRACK 09 AUDIO
TITLE "Violin Sonata in A major - II. Andante quasi adagio"
PERFORMER "Anne Robert, Stephane Lemelin"
SONGWRITER "Theodore Dubois"
ISRC CAJ720838009
REM REPLAYGAIN_TRACK_GAIN 1.50 dB
REM REPLAYGAIN_TRACK_PEAK 0.765930
INDEX 01 00:00:00
FILE "10 Violin Sonata in A major - III. Allegro deciso e fuoco.flac" WAVE
TRACK 10 AUDIO
TITLE "Violin Sonata in A major - III. Allegro deciso e fuoco"
PERFORMER "Anne Robert, Stephane Lemelin"
SONGWRITER "Theodore Dubois"
ISRC CAJ720838010
REM REPLAYGAIN_TRACK_GAIN -1.22 dB
REM REPLAYGAIN_TRACK_PEAK 0.834839
INDEX 01 00:00:00
FILE "11 Andante cantabile for cello & piano.flac" WAVE
TRACK 11 AUDIO
TITLE "Andante cantabile for cello & piano"
PERFORMER "Benoit Loiselle, Stephane Lemelin"
SONGWRITER "Theodore Dubois"
ISRC CAJ720838011
REM REPLAYGAIN_TRACK_GAIN 4.09 dB
REM REPLAYGAIN_TRACK_PEAK 0.701111
INDEX 01 00:00:00
FILE "12 Meditation et Scherzetto for violin & piano - I. Meditation.flac" WAVE
TRACK 12 AUDIO
TITLE "Meditation et Scherzetto for violin & piano - I. Meditation"
PERFORMER "Anne Robert, Stephane Lemelin"
SONGWRITER "Theodore Dubois"
ISRC CAJ720838012
REM REPLAYGAIN_TRACK_GAIN 5.65 dB
REM REPLAYGAIN_TRACK_PEAK 0.400787
INDEX 01 00:00:00
FILE "13 Meditation et Scherzetto for violin & piano - II. Scherzetto.flac" WAVE
TRACK 13 AUDIO
TITLE "Meditation et Scherzetto for violin & piano - II. Scherzetto"
PERFORMER "Anne Robert, Stephane Lemelin"
SONGWRITER "Theodore Dubois"
ISRC CAJ720838013
REM REPLAYGAIN_TRACK_GAIN 3.16 dB
REM REPLAYGAIN_TRACK_PEAK 0.642517
INDEX 01 00:00:00
FILE "14 Cavatine for cello & piano.flac" WAVE
TRACK 14 AUDIO
TITLE "Cavatine for cello & piano"
PERFORMER "Benoit Loiselle, Stephane Lemelin"
SONGWRITER "Theodore Dubois"
ISRC CAJ720838014
REM REPLAYGAIN_TRACK_GAIN 3.15 dB
REM REPLAYGAIN_TRACK_PEAK 0.487762
INDEX 01 00:00:00

Вариант индексной карты (.CUE) с выставленными зазорами

TITLE "Theodore Dubois – Musique de chambre – Lemelin, Robert & Loiselle"
REM GENRE "Classical"
REM DATE "2009"
REM DISCNUMBER 1
REM TOTALDISCS 1
REM DISCID C313000E
FILE "01 Cello Sonata in D major - I. Allegretto con moto e con calore.flac" WAVE
TRACK 01 AUDIO
TITLE "Cello Sonata in D major - I. Allegretto con moto e con calore"
PERFORMER "Benoit Loiselle, Stephane Lemelin"
SONGWRITER "Theodore Dubois"
ISRC CAJ720838001
REM REPLAYGAIN_TRACK_GAIN 2.48 dB
REM REPLAYGAIN_TRACK_PEAK 0.713287
INDEX 01 00:00:00
FILE "02 Cello Sonata in D major - II. Andante con variazioni.flac" WAVE
TRACK 02 AUDIO
TITLE "Cello Sonata in D major - II. Andante con variazioni"
PERFORMER "Benoit Loiselle, Stephane Lemelin"
SONGWRITER "Theodore Dubois"
ISRC CAJ720838002
REM REPLAYGAIN_TRACK_GAIN 3.00 dB
REM REPLAYGAIN_TRACK_PEAK 0.852325
INDEX 01 00:00:00
FILE "03 Cello Sonata in D major - III. Allegro bien rythme.flac" WAVE
TRACK 03 AUDIO
TITLE "Cello Sonata in D major - III. Allegro bien rythme"
PERFORMER "Benoit Loiselle, Stephane Lemelin"
SONGWRITER "Theodore Dubois"
ISRC CAJ720838003
REM REPLAYGAIN_TRACK_GAIN -0.50 dB
REM REPLAYGAIN_TRACK_PEAK 0.786194
INDEX 01 00:00:00
TRACK 04 AUDIO
INDEX 00 06:38:16
FILE "04 Ballade for violin & piano.flac" WAVE
TITLE "Ballade for violin & piano"
PERFORMER "Anne Robert, Stephane Lemelin"
SONGWRITER "Theodore Dubois"
ISRC CAJ720838004
REM REPLAYGAIN_TRACK_GAIN 1.77 dB
REM REPLAYGAIN_TRACK_PEAK 0.782501
INDEX 01 00:00:00
TRACK 05 AUDIO
INDEX 00 06:56:73
FILE "05 Nocturne for cello & piano.flac" WAVE
TITLE "Nocturne for cello & piano"
PERFORMER "Benoit Loiselle, Stephane Lemelin"
SONGWRITER "Theodore Dubois"
ISRC CAJ720838005
REM REPLAYGAIN_TRACK_GAIN 4.94 dB
REM REPLAYGAIN_TRACK_PEAK 0.542816
INDEX 01 00:00:00
TRACK 06 AUDIO
INDEX 00 05:04:55
FILE "06 Melodie for violin & piano.flac" WAVE
TITLE "Melodie for violin & piano"
PERFORMER "Anne Robert, Stephane Lemelin"
SONGWRITER "Theodore Dubois"
ISRC CAJ720838006
REM REPLAYGAIN_TRACK_GAIN 1.50 dB
REM REPLAYGAIN_TRACK_PEAK 0.600677
INDEX 01 00:00:00
TRACK 07 AUDIO
INDEX 00 03:59:73
FILE "07 Andante appassionato for cello & piano.flac" WAVE
TITLE "Andante appassionato for cello & piano"
PERFORMER "Benoit Loiselle, Stephane Lemelin"
SONGWRITER "Theodore Dubois"
ISRC CAJ720838007
REM REPLAYGAIN_TRACK_GAIN 4.05 dB
REM REPLAYGAIN_TRACK_PEAK 0.464020
INDEX 01 00:00:00
TRACK 08 AUDIO
INDEX 00 02:46:03
FILE "08 Violin Sonata in A major - I. Allegro appassionato.flac" WAVE
TITLE "Violin Sonata in A major - I. Allegro appassionato"
PERFORMER "Anne Robert, Stephane Lemelin"
SONGWRITER "Theodore Dubois"
ISRC CAJ720838008
REM REPLAYGAIN_TRACK_GAIN -1.26 dB
REM REPLAYGAIN_TRACK_PEAK 0.903473
INDEX 01 00:00:00
FILE "09 Violin Sonata in A major - II. Andante quasi adagio.flac" WAVE
TRACK 09 AUDIO
TITLE "Violin Sonata in A major - II. Andante quasi adagio"
PERFORMER "Anne Robert, Stephane Lemelin"
SONGWRITER "Theodore Dubois"
ISRC CAJ720838009
REM REPLAYGAIN_TRACK_GAIN 1.50 dB
REM REPLAYGAIN_TRACK_PEAK 0.765930
INDEX 01 00:00:00
FILE "10 Violin Sonata in A major - III. Allegro deciso e fuoco.flac" WAVE
TRACK 10 AUDIO
TITLE "Violin Sonata in A major - III. Allegro deciso e fuoco"
PERFORMER "Anne Robert, Stephane Lemelin"
SONGWRITER "Theodore Dubois"
ISRC CAJ720838010
REM REPLAYGAIN_TRACK_GAIN -1.22 dB
REM REPLAYGAIN_TRACK_PEAK 0.834839
INDEX 01 00:00:00
TRACK 11 AUDIO
INDEX 00 07:35:08
FILE "11 Andante cantabile for cello & piano.flac" WAVE
TITLE "Andante cantabile for cello & piano"
PERFORMER "Benoit Loiselle, Stephane Lemelin"
SONGWRITER "Theodore Dubois"
ISRC CAJ720838011
REM REPLAYGAIN_TRACK_GAIN 4.09 dB
REM REPLAYGAIN_TRACK_PEAK 0.701111
INDEX 01 00:00:00
TRACK 12 AUDIO
INDEX 00 04:01:07
FILE "12 Meditation et Scherzetto for violin & piano - I. Meditation.flac" WAVE
TITLE "Meditation et Scherzetto for violin & piano - I. Meditation"
PERFORMER "Anne Robert, Stephane Lemelin"
SONGWRITER "Theodore Dubois"
ISRC CAJ720838012
REM REPLAYGAIN_TRACK_GAIN 5.65 dB
REM REPLAYGAIN_TRACK_PEAK 0.400787
INDEX 01 00:00:00
FILE "13 Meditation et Scherzetto for violin & piano - II. Scherzetto.flac" WAVE
TRACK 13 AUDIO
TITLE "Meditation et Scherzetto for violin & piano - II. Scherzetto"
PERFORMER "Anne Robert, Stephane Lemelin"
SONGWRITER "Theodore Dubois"
ISRC CAJ720838013
REM REPLAYGAIN_TRACK_GAIN 3.16 dB
REM REPLAYGAIN_TRACK_PEAK 0.642517
INDEX 01 00:00:00
TRACK 14 AUDIO
INDEX 00 02:52:74
FILE "14 Cavatine for cello & piano.flac" WAVE
TITLE "Cavatine for cello & piano"
PERFORMER "Benoit Loiselle, Stephane Lemelin"
SONGWRITER "Theodore Dubois"
ISRC CAJ720838014
REM REPLAYGAIN_TRACK_GAIN 3.15 dB
REM REPLAYGAIN_TRACK_PEAK 0.487762
INDEX 01 00:00:00



Показать сообщения:    

Текущее время: 11-Дек 07:14

Часовой пояс: UTC + 3


Вы не можете начинать темы
Вы не можете отвечать на сообщения
Вы не можете редактировать свои сообщения
Вы не можете удалять свои сообщения
Вы не можете голосовать в опросах
Вы не можете прикреплять файлы к сообщениям
Вы не можете скачивать файлы