[TR24][OF] Maurice Ravel: Boléro (Bolero); Claude Debussy: La Mer; Modest Mussorgsky/Модест Мусоргский: Pictures At An Exhibition/Картинки с выставки - Berliner Philharmoniker, Herbert von Karajan - 1995/2015 (Classical)

DL-List and Torrent activity [Update пиров]
Size:  1.43 GB   |    Registered:  7 months 3 days   |    Completed:  0 times

Seeder not seen: Never



Ravel: Boléro
Debussy: La Mer
Mussorgsky: Pictures At An Exhibition

Herbert von Karajan & Berliner Philharmoniker
-Год издания/переиздания диска: 1995/2015
Жанр: Classical | Издатель: Deutsche Grammophon
Продолжительность: 01:14:59
Релизер: error404
Наличие сканов: Sleeve, Digital Booklet- -Контейнер: FLAC (*.flac) | Тип рипа: tracks
Разрядность: 24bit / 96kHz | Количество каналов: 2.0
Claude Debussy (1862-1918)
La Mer, L.109
01.1. From Dawn Till Noon On The Sea (8:38)
02. 2. Play Of The Waves (6:13)
03. 3. Dialogue Of The Wind And The Sea (7:58)
Modest Mussorgsky (1839-1881)
Pictures at an Exhibition
Orchestrated By Maurice Ravel
04. Promenade (1:50)
05. Gnomus (2:45)
06. Promenade (1:15)
07. The Old Castle (4:36)
08. Promenade (0:42)
09. The Tuileries Gardens (1:04)
10. Bydlo (2:51)
11. Promenade (1:01)
12. Ballet Of The Chickens In Their Shells (1:12)
13. Samuel Goldenberg And Schmuyle (2:18)
14. The Market-place At Limoges (1:27)
15. The Catacombs (Sepulchrum romanum) (2:14)
16. Cum mortuis in lingua mortua (2:22)
17. The Hut On Fowl's Legs (Baba-Yaga) (3:31)
18. The Great Gate Of Kiev (6:53)
Maurice Ravel (1875-1937)
Boléro, M.81
19. Boléro (16:10)

О релизе

„Here are examples of 'The Karajan Effect' at its most positive, and sounding, in these new transfers, fractionally more open, focused and fresh than before, with the billowing bass moderated and the dynamic range extended. Along with Karajan's own imaginative deployment of orchestral colour (to take one example: the extra gong with barely damped striker at the end of Pictures), the Berlin Jesus-Christus Kirche acoustics of these 1964-6 recordings add their own wonderful coloration and atmosphere (dark and cavernous at appropriate moments in Pictures). The 1980s Berlin Philharmonic DG remakes (in their remastered 'Karajan Gold' format) offer something closer to concert-hall reality (a cleaner more neutral sound) but, on the whole, the imaginative daring and the excited discovery of new realms of creative and technical possibility are missing; certainly the 1980s performances are less given to spontaneous ignition.
For those unfamiliar with these 1960s accounts, Bolero is slow and steady (but Karajan risks floating the early solos), and Pictures is broader and grander than Karajan's previous and subsequent recordings (and most others). But how does one do justice to this La mer in a single sentence? Well, you can either be seduced by some of the most sheerly beautiful orchestral sound ever recorded, or appreciate it for its wide-ranging imagery and its properly mobile pacing; but whichever way you look at it, it is one of the great recorded La mers and one of the classics of the gramophone.“ John Steane, Gramophone)
Berliner Philharmoniker
Herbert von Karajan, conductor
Recorded 1965/1966 at Jesus-Christus-Kirche, Berlin, Germany
Engineered by Günter Hermanns
Produced by Hans Weber (tracks: 4 to 19), Otto Ernst Wohlert (tracks: 1 to 3)
Digitally remastered

ОтчётыДинамический диапазон

foobar2000 1.3.8 / Dynamic Range Meter 1.1.1
log date: 2015-07-27 10:57:07
Analyzed: Herbert von Karajan, Berliner Philharmoniker / Ravel: Boléro / Debussy: La Mer / Mussorgsky: Pictures At An Exhibition
DR Peak RMS Duration Track
DR15 -0.84 dB -23.83 dB 8:38 01-La Mer, L.109: 1. From Dawn Till Noon On The Sea
DR15 -2.22 dB -23.53 dB 6:13 02-La Mer, L.109: 2. Play Of The Waves
DR12 -0.78 dB -19.58 dB 7:58 03-La Mer, L.109: 3. Dialogue Of The Wind And The Sea
DR10 -3.10 dB -17.56 dB 1:50 04-Pictures at an Exhibition: Promenade
DR13 -1.36 dB -19.07 dB 2:45 05-Pictures at an Exhibition: Gnomus
DR11 -17.13 dB -34.64 dB 1:15 06-Pictures at an Exhibition: Promenade
DR13 -12.12 dB -30.88 dB 4:36 07-Pictures at an Exhibition: The Old Castle
DR9 -5.07 dB -19.66 dB 0:42 08-Pictures at an Exhibition: Promenade
DR12 -6.32 dB -27.51 dB 1:04 09-Pictures at an Exhibition: The Tuileries Gardens
DR10 -3.22 dB -18.61 dB 2:51 10-Pictures at an Exhibition: Bydlo
DR10 -7.80 dB -24.28 dB 1:01 11-Pictures at an Exhibition: Promenade
DR11 -12.92 dB -31.25 dB 1:12 12-Pictures at an Exhibition: Ballet Of The Chickens In Their Shells
DR12 -2.84 dB -19.98 dB 2:18 13-Pictures at an Exhibition: Samuel Goldenberg And Schmuyle
DR12 -3.85 dB -19.77 dB 1:27 14-Pictures at an Exhibition: The Market-place At Limoges
DR10 -0.84 dB -17.23 dB 2:14 15-Pictures at an Exhibition: The Catacombs (Sepulchrum romanum)
DR11 -18.89 dB -35.90 dB 2:22 16-Pictures at an Exhibition: Cum mortuis in lingua mortua
DR13 -1.32 dB -19.18 dB 3:31 17-Pictures at an Exhibition: The Hut On Fowl's Legs (Baba-Yaga)
DR10 -0.63 dB -14.27 dB 6:53 18-Pictures at an Exhibition: The Great Gate Of Kiev
DR14 -2.38 dB -22.70 dB 16:10 19-Boléro, M.81
Number of tracks: 19
Official DR value: DR12
Samplerate: 96000 Hz
Channels: 2
Bits per sample: 24
Bitrate: 2744 kbps
Codec: FLAC

Скриншот спектра частот

Доп. информация

При скачивании, если необходимо, переименуйте папку, в которой будет находиться альбомБольшая просьба к скачавшим поддерживать раздачу! Помогайте другим, ведь вам тоже может понадобиться помощь!Не забываем говорить "Спасибо"!Комментарии приветствуются!
Herbert von Karajan Hi-Res
Torrent: Registered [ 2016-03-20 12:51 ] · D4ACAD3FC460B78D22C348C9BA4E32B16E54676D

Download .torrent


16 KB

Status: checked
Completed: 0 times
Size: 1.43 GB

Quick Reply


Heads necessary to send messages to enable JavaScript
Display posts:    

Current time is: 24-Oct 02:53

All times are UTC + 3

You can post new topics in this forum
You can reply to topics in this forum
You cannot edit your posts in this forum
You cannot delete your posts in this forum
You cannot vote in polls in this forum
You cannot attach files in this forum
You can download files in this forum