(Classical / Vocal) Robert Schumann - Dichterliebe • Liederkreis, Op. 24 / Роберт Шуманн - Любовь поэта • Круг песен, Соч. 24 (Matthias Goerne, Vladimir Ashkenazy / Владимир Ашкенази, 1997) - 1998, FLAC (tracks+.cue) lossless


 

[Цитировать]

Robert Schumann | Роберт Шуманн
(1810–1856)



Dichterliebe | Liederkreis (Op. 24)
Любовь поэта | Круг песен (Соч. 24)


Matthias Goerne baritoneВладимир Ашкенази piano


Жанр: Classical / Vocal
Дата и место записи: Stadthalle, Winterthur, Switzerland, April 1997
Формат записи: DDD, Stereo
Год издания диска: 1998
Издатель (лейбл): Decca
Номер по каталогу: 458 265-2
Аудиокодек: FLAC
Тип рипа: tracks+.cue
Битрейт аудио: lossless
Продолжительность: 50:13
Наличие сканов в содержимом раздачи: нет
Источник: What.CD
Релизёр: denti


Tracklist / Треклист
«Dichterliebe» (Heine), Op. 48 - 28:59
Nr. 1. «Im wunderschönen Monat Mai» - 1:34
  • Nr. 2. «Aus meinen Tränen sprießen» - 1:07
  • Nr. 3. «Die Rose, die Lilie, die Taube, die Sonne» - 0:35
  • Nr. 4. «Wenn ich in deine Augen seh'» - 1:43
  • Nr. 5. «Ich will meine Seele tauchen» - 1:02
  • Nr. 6. «Im Rhein, im heiligen Strome» - 1:56
  • Nr. 7. «Ich grolle nicht» - 1:40
  • Nr. 8. «Und wüßten's die Blumen, die kleinen» - 1:09
  • Nr. 9. «Das ist ein Flöten und Geigen» - 1:29
  • Nr. 10. «Hör' ich das Liedchen klingen» - 2:17
  • Nr. 11. «Ein Jüngling liebt ein Mädchen» - 1:08
  • Nr. 12. «Am leuchtenden Sommermorgen» - 2:30
  • Nr. 13. «Ich hab' im Traum geweinet» - 2:46
  • Nr. 14. «Allnächtlich im Traume» - 1:28
  • Nr. 15. «Aus alten Märchen» - 2:18
  • Nr. 16. «Die alten, bösen Lieder» - 4:17
    «Liederkreis» (Heine), Op. 24 - 21:15
    Nr. 1. «Morgens steh' ich auf und frage» - 1:00
  • Nr. 2. «Es treibt mich hin» - 1:12
  • Nr. 3. «Ich wandelte unter den Bäumen» - 4:04
  • Nr. 4. «Lieb' Liebchen, leg's Händchen auf's Herze mein» - 1:00
  • Nr. 5. «Schöne Wiege meiner Leiden» - 3:36
  • Nr. 6. «Warte, warte, wilder Schiffmann» - 1:58
  • Nr. 7. «Berg' und Burgen schau'n herunter» - 3:35
  • Nr. 8. «Anfangs wollt' ich fast verzagen» - 0:51
  • Nr. 9. «Mit Myrthen und Rosen» - 3:58

    -

    EAC log / Отчёт EAC

    Exact Audio Copy V1.0 beta 1 from 15. November 2010
    EAC extraction logfile from 26. April 2011, 8:16
    Robert Schumann / Dichterliebe, Liederkreis op. 24 (Goerne, Ashkenazy)
    Used drive : TSSTcorpCD/DVDW SH-S182D Adapter: 1 ID: 0
    Read mode : Secure
    Utilize accurate stream : Yes
    Defeat audio cache : Yes
    Make use of C2 pointers : No
    Read offset correction : 6
    Overread into Lead-In and Lead-Out : No
    Fill up missing offset samples with silence : Yes
    Delete leading and trailing silent blocks : No
    Null samples used in CRC calculations : Yes
    Used interface : Native Win32 interface for Win NT & 2000
    Gap handling : Appended to previous track
    Used output format : User Defined Encoder
    Selected bitrate : 128 kBit/s
    Quality : High
    Add ID3 tag : No
    Command line compressor : C:\Program Files\Exact Audio Copy\Flac\flac.exe
    Additional command line options : -V -8 -T "artist=%a" -T "title=%t" -T "album=%g" -T "date=%y" -T "tracknumber=%n" -T "genre=%m" %s
    TOC of the extracted CD
    Track | Start | Length | Start sector | End sector
    ---------------------------------------------------------
    1 | 0:00.32 | 1:34.25 | 32 | 7106
    2 | 1:34.57 | 1:07.25 | 7107 | 12156
    3 | 2:42.07 | 0:34.50 | 12157 | 14756
    4 | 3:16.57 | 1:42.38 | 14757 | 22444
    5 | 4:59.20 | 1:01.62 | 22445 | 27081
    6 | 6:01.07 | 1:56.25 | 27082 | 35806
    7 | 7:57.32 | 1:40.25 | 35807 | 43331
    8 | 9:37.57 | 1:08.38 | 43332 | 48469
    9 | 10:46.20 | 1:29.00 | 48470 | 55144
    10 | 12:15.20 | 2:16.50 | 55145 | 65394
    11 | 14:31.70 | 1:07.62 | 65395 | 70481
    12 | 15:39.57 | 2:29.63 | 70482 | 81719
    13 | 18:09.45 | 2:46.12 | 81720 | 94181
    14 | 20:55.57 | 1:28.13 | 94182 | 100794
    15 | 22:23.70 | 2:17.62 | 100795 | 111131
    16 | 24:41.57 | 4:17.13 | 111132 | 130419
    17 | 28:58.70 | 1:00.30 | 130420 | 134949
    18 | 29:59.25 | 1:11.50 | 134950 | 140324
    19 | 31:11.00 | 4:03.45 | 140325 | 158594
    20 | 35:14.45 | 1:00.37 | 158595 | 163131
    21 | 36:15.07 | 3:35.38 | 163132 | 179294
    22 | 39:50.45 | 1:58.25 | 179295 | 188169
    23 | 41:48.70 | 3:35.37 | 188170 | 204331
    24 | 45:24.32 | 0:50.63 | 204332 | 208144
    25 | 46:15.20 | 3:58.37 | 208145 | 226031
    Track 1
    Filename F:\EACrips\Robert Schumann - 1998 - Dichterliebe, Liederkreis op. 24 (Goerne, Ashkenazy)\01 - Im wunderschönen Monat Main.wav
    Pre-gap length 0:00:02.42
    Peak level 54.7 %
    Extraction speed 3.3 X
    Track quality 100.0 %
    Test CRC 954C8659
    Copy CRC 954C8659
    Track not present in AccurateRip database
    Copy OK
    Track 2
    Filename F:\EACrips\Robert Schumann - 1998 - Dichterliebe, Liederkreis op. 24 (Goerne, Ashkenazy)\02 - Aus meinen Tränen sprießen.wav
    Peak level 25.8 %
    Extraction speed 3.1 X
    Track quality 100.0 %
    Test CRC 6A6C30D4
    Copy CRC 6A6C30D4
    Track not present in AccurateRip database
    Copy OK
    Track 3
    Filename F:\EACrips\Robert Schumann - 1998 - Dichterliebe, Liederkreis op. 24 (Goerne, Ashkenazy)\03 - Die Rose, die Lilie, die Taube, die Sonne.wav
    Peak level 53.8 %
    Extraction speed 2.4 X
    Track quality 100.0 %
    Test CRC D93FF76F
    Copy CRC D93FF76F
    Track not present in AccurateRip database
    Copy OK
    Track 4
    Filename F:\EACrips\Robert Schumann - 1998 - Dichterliebe, Liederkreis op. 24 (Goerne, Ashkenazy)\04 - Wenn ich in deine Augen seh'.wav
    Pre-gap length 0:00:01.00
    Peak level 54.9 %
    Extraction speed 3.8 X
    Track quality 100.0 %
    Test CRC AC9C1E4F
    Copy CRC AC9C1E4F
    Track not present in AccurateRip database
    Copy OK
    Track 5
    Filename F:\EACrips\Robert Schumann - 1998 - Dichterliebe, Liederkreis op. 24 (Goerne, Ashkenazy)\05 - Ich will meinen Seele tauchen.wav
    Peak level 30.0 %
    Extraction speed 3.3 X
    Track quality 100.0 %
    Test CRC CDC6702E
    Copy CRC CDC6702E
    Track not present in AccurateRip database
    Copy OK
    Track 6
    Filename F:\EACrips\Robert Schumann - 1998 - Dichterliebe, Liederkreis op. 24 (Goerne, Ashkenazy)\06 - Im Rhein, im heiligen Strome.wav
    Peak level 66.8 %
    Extraction speed 4.2 X
    Track quality 100.0 %
    Test CRC E68237B7
    Copy CRC E68237B7
    Track not present in AccurateRip database
    Copy OK
    Track 7
    Filename F:\EACrips\Robert Schumann - 1998 - Dichterliebe, Liederkreis op. 24 (Goerne, Ashkenazy)\07 - Ich grolle nicht.wav
    Peak level 78.3 %
    Extraction speed 4.2 X
    Track quality 100.0 %
    Test CRC 7259A5E4
    Copy CRC 7259A5E4
    Track not present in AccurateRip database
    Copy OK
    Track 8
    Filename F:\EACrips\Robert Schumann - 1998 - Dichterliebe, Liederkreis op. 24 (Goerne, Ashkenazy)\08 - Und wüßten's die Blumen, die kleinen.wav
    Peak level 68.4 %
    Extraction speed 3.8 X
    Track quality 100.0 %
    Test CRC EDA0DAB7
    Copy CRC EDA0DAB7
    Track not present in AccurateRip database
    Copy OK
    Track 9
    Filename F:\EACrips\Robert Schumann - 1998 - Dichterliebe, Liederkreis op. 24 (Goerne, Ashkenazy)\09 - Das ist ein Flöten und Geigen.wav
    Peak level 99.9 %
    Extraction speed 3.2 X
    Track quality 99.8 %
    Test CRC 8F7FDB71
    Copy CRC 8F7FDB71
    Track not present in AccurateRip database
    Copy OK
    Track 10
    Filename F:\EACrips\Robert Schumann - 1998 - Dichterliebe, Liederkreis op. 24 (Goerne, Ashkenazy)\10 - Hör' ich das Liedchen klingen.wav
    Pre-gap length 0:00:03.17
    Peak level 24.2 %
    Extraction speed 4.9 X
    Track quality 100.0 %
    Test CRC A214FB83
    Copy CRC A214FB83
    Track not present in AccurateRip database
    Copy OK
    Track 11
    Filename F:\EACrips\Robert Schumann - 1998 - Dichterliebe, Liederkreis op. 24 (Goerne, Ashkenazy)\11 - Ein Jüngling liebt ein Mädchen.wav
    Peak level 98.9 %
    Extraction speed 4.1 X
    Track quality 100.0 %
    Test CRC 90B4A1FB
    Copy CRC 90B4A1FB
    Track not present in AccurateRip database
    Copy OK
    Track 12
    Filename F:\EACrips\Robert Schumann - 1998 - Dichterliebe, Liederkreis op. 24 (Goerne, Ashkenazy)\12 - Am leuchtenden Sommermorgen.wav
    Peak level 23.4 %
    Extraction speed 5.3 X
    Track quality 100.0 %
    Test CRC 92DEDF47
    Copy CRC 92DEDF47
    Track not present in AccurateRip database
    Copy OK
    Track 13
    Filename F:\EACrips\Robert Schumann - 1998 - Dichterliebe, Liederkreis op. 24 (Goerne, Ashkenazy)\13 - Ich hab' im Traum geweinet.wav
    Pre-gap length 0:00:00.84
    Peak level 91.5 %
    Extraction speed 5.7 X
    Track quality 100.0 %
    Test CRC F3663104
    Copy CRC F3663104
    Track not present in AccurateRip database
    Copy OK
    Track 14
    Filename F:\EACrips\Robert Schumann - 1998 - Dichterliebe, Liederkreis op. 24 (Goerne, Ashkenazy)\14 - Allnächtlich im Traume.wav
    Peak level 57.4 %
    Extraction speed 4.9 X
    Track quality 100.0 %
    Test CRC 28E9BE44
    Copy CRC 28E9BE44
    Track not present in AccurateRip database
    Copy OK
    Track 15
    Filename F:\EACrips\Robert Schumann - 1998 - Dichterliebe, Liederkreis op. 24 (Goerne, Ashkenazy)\15 - Aus alten Märchen.wav
    Peak level 93.8 %
    Extraction speed 4.7 X
    Track quality 99.9 %
    Test CRC BA4C093C
    Copy CRC BA4C093C
    Track not present in AccurateRip database
    Copy OK
    Track 16
    Filename F:\EACrips\Robert Schumann - 1998 - Dichterliebe, Liederkreis op. 24 (Goerne, Ashkenazy)\16 - Die alten, bösen Lieder.wav
    Pre-gap length 0:00:01.00
    Peak level 99.8 %
    Extraction speed 6.7 X
    Track quality 100.0 %
    Test CRC 6AB37AD0
    Copy CRC 6AB37AD0
    Track not present in AccurateRip database
    Copy OK
    Track 17
    Filename F:\EACrips\Robert Schumann - 1998 - Dichterliebe, Liederkreis op. 24 (Goerne, Ashkenazy)\17 - Morgens steh' ich auf und frage.wav
    Pre-gap length 0:00:07.33
    Peak level 39.7 %
    Extraction speed 4.7 X
    Track quality 100.0 %
    Test CRC B75B45D3
    Copy CRC B75B45D3
    Track not present in AccurateRip database
    Copy OK
    Track 18
    Filename F:\EACrips\Robert Schumann - 1998 - Dichterliebe, Liederkreis op. 24 (Goerne, Ashkenazy)\18 - Es treibt mich hin.wav
    Peak level 99.9 %
    Extraction speed 5.0 X
    Track quality 100.0 %
    Test CRC BEFC7D6F
    Copy CRC BEFC7D6F
    Track not present in AccurateRip database
    Copy OK
    Track 19
    Filename F:\EACrips\Robert Schumann - 1998 - Dichterliebe, Liederkreis op. 24 (Goerne, Ashkenazy)\19 - Ich wandelte unter den Bäumen.wav
    Peak level 33.8 %
    Extraction speed 7.0 X
    Track quality 100.0 %
    Test CRC F26F3016
    Copy CRC F26F3016
    Track not present in AccurateRip database
    Copy OK
    Track 20
    Filename F:\EACrips\Robert Schumann - 1998 - Dichterliebe, Liederkreis op. 24 (Goerne, Ashkenazy)\20 - Lieb' Liebchen.wav
    Pre-gap length 0:00:01.00
    Peak level 38.0 %
    Extraction speed 5.0 X
    Track quality 100.0 %
    Test CRC 86CC05DF
    Copy CRC 86CC05DF
    Track not present in AccurateRip database
    Copy OK
    Track 21
    Filename F:\EACrips\Robert Schumann - 1998 - Dichterliebe, Liederkreis op. 24 (Goerne, Ashkenazy)\21 - Schöne Wiege meiner Lieden.wav
    Peak level 91.9 %
    Extraction speed 6.2 X
    Track quality 99.9 %
    Test CRC 0EA2871E
    Copy CRC 0EA2871E
    Track not present in AccurateRip database
    Copy OK
    Track 22
    Filename F:\EACrips\Robert Schumann - 1998 - Dichterliebe, Liederkreis op. 24 (Goerne, Ashkenazy)\22 - Warte, warte, wilder Schiffsmann.wav
    Pre-gap length 0:00:01.66
    Peak level 100.0 %
    Extraction speed 6.5 X
    Track quality 100.0 %
    Test CRC 9D20377B
    Copy CRC 9D20377B
    Track not present in AccurateRip database
    Copy OK
    Track 23
    Filename F:\EACrips\Robert Schumann - 1998 - Dichterliebe, Liederkreis op. 24 (Goerne, Ashkenazy)\23 - Berg' und Burgen schaun herunter.wav
    Pre-gap length 0:00:02.33
    Peak level 79.6 %
    Extraction speed 6.6 X
    Track quality 99.9 %
    Test CRC 9EB1F2E4
    Copy CRC 9EB1F2E4
    Track not present in AccurateRip database
    Copy OK
    Track 24
    Filename F:\EACrips\Robert Schumann - 1998 - Dichterliebe, Liederkreis op. 24 (Goerne, Ashkenazy)\24 - Anfangs wollt' ich fast verzagen.wav
    Pre-gap length 0:00:00.82
    Peak level 63.8 %
    Extraction speed 5.0 X
    Track quality 100.0 %
    Test CRC E9A4DD71
    Copy CRC E9A4DD71
    Track not present in AccurateRip database
    Copy OK
    Track 25
    Filename F:\EACrips\Robert Schumann - 1998 - Dichterliebe, Liederkreis op. 24 (Goerne, Ashkenazy)\25 - Mit Myrten und Rosen.wav
    Peak level 80.5 %
    Extraction speed 7.9 X
    Track quality 100.0 %
    Test CRC A6577F0C
    Copy CRC A6577F0C
    Track not present in AccurateRip database
    Copy OK
    None of the tracks are present in the AccurateRip database
    No errors occurred
    End of status report
    ==== Log checksum 406896D5DA0A201E4BC51BECA83197E58BC107FAC723FDCAD85FD32915B3B9D8 ====

    auCDtect Task Manager log / Отчёт auCDtect Task Manager

    -----------------------
    DON'T MODIFY THIS FILE
    -----------------------
    PERFORMER: auCDtect Task Manager, ver. 1.5.1RC3 build 1.5.1.4
    Copyright (c) 2008-2010 y-soft. All rights reserved
    ANALYZER: auCDtect: CD records authenticity detector, version 0.8.2
    Copyright (c) 2004 Oleg Berngardt. All rights reserved.
    Copyright (c) 2004 Alexander Djourik. All rights reserved.
    FILE: 22 - Liederkreis (Heine), Op. 24 - Nr. 6. Warte, warte, wilder Schiffmann.flac
    Size: 8662650 Hash: 7263AC7A28062CAA0346D10E7CEF32CF Accuracy: -m0
    Conclusion: CDDA 43%
    Signature: BD1A790D1D3DD250452679B4DCE6FDABB6E7F0D4
    FILE: 21 - Liederkreis (Heine), Op. 24 - Nr. 5. Schoene Wiege meiner Leiden.flac
    Size: 14627663 Hash: 3682A1A91830A4C93063E55639DB1EFE Accuracy: -m0
    Conclusion: MPEG 91%
    Signature: 56B30351116E2110CBCA6138AE7D4BC7D712853B
    FILE: 20 - Liederkreis (Heine), Op. 24 - Nr. 4. Lieb' Liebchen, leg's Haendchen auf's Herze mein.flac
    Size: 3844972 Hash: 878687B892F50E74F09C20177094CBF1 Accuracy: -m0
    Conclusion: CDDA 43%
    Signature: 78689A647C27E8074F665349CB7D22BFD5030CAA
    FILE: 19 - Liederkreis (Heine), Op. 24 - Nr. 3. Ich wandelte unter den Baeumen.flac
    Size: 13641197 Hash: 99213DB6DA3D088F03AB0434E193B331 Accuracy: -m0
    Conclusion: MPEG 100%
    Signature: D49A7BC340E1FCA1F5914A4EB514C08B1B468D91
    FILE: 18 - Liederkreis (Heine), Op. 24 - Nr. 2. Es treibt mich hin.flac
    Size: 5235895 Hash: 5A7357BB5D974BE4BA9410A1EE1D0704 Accuracy: -m0
    Conclusion: CDDA 86%
    Signature: B70ED81C4E065774E8EE1DDD83178009C512AAF9
    FILE: 17 - Liederkreis (Heine), Op. 24 - Nr. 1. Morgens steh' ich auf und frage.flac
    Size: 3706074 Hash: 2567B4FEB25E0201439CC2CF5532FBA1 Accuracy: -m0
    Conclusion: MPEG 100%
    Signature: F641BCA1C4A31136F9B3F18CA91903EFFF94661B
    FILE: 16 - Dichterliebe (Heine), Op. 48 - Nr. 16. Die alten, boesen Lieder.flac
    Size: 15796349 Hash: 478FA3C8AF071C1BEC632E4DB0B9115D Accuracy: -m0
    Conclusion: MPEG 99%
    Signature: CF29AA4F941D763AC19C61C4AEDB2CD806DA53C9
    FILE: 15 - Dichterliebe (Heine), Op. 48 - Nr. 15. Aus alten Maerchen.flac
    Size: 9504199 Hash: 3F8B531663EA25C120368AC69B11134B Accuracy: -m0
    Conclusion: MPEG 89%
    Signature: 5FC034046A248A6515180C61D895960D06681658
    FILE: 14 - Dichterliebe (Heine), Op. 48 - Nr. 14. Allnaechtlich im Traume.flac
    Size: 5801372 Hash: 6F172E4434465FA8A95A3EB694F1610E Accuracy: -m0
    Conclusion: MPEG 89%
    Signature: 9497B08E33C2FA245982D59A29E66D8368F7E0C0
    FILE: 13 - Dichterliebe (Heine), Op. 48 - Nr. 13. Ich hab' im Traum geweinet.flac
    Size: 8926514 Hash: D259E85BBFB35A2FD62069BB0DFD1A3F Accuracy: -m0
    Conclusion: MPEG 100%
    Signature: B9C11F83E7BC41ECE7030D0F3ABDB0D6D915FF1B
    FILE: 12 - Dichterliebe (Heine), Op. 48 - Nr. 12. Am leuchtenden Sommermorgen.flac
    Size: 7667928 Hash: BAA66A74323E745CB4C121FD5992BB09 Accuracy: -m0
    Conclusion: MPEG 100%
    Signature: A503C09D4F6D88E2C89E1051C3C40974E8FE9573
    FILE: 11 - Dichterliebe (Heine), Op. 48 - Nr. 11. Ein Juengling liebt ein Maedchen.flac
    Size: 5030384 Hash: 5C5349649B78757D1BB1A122D494B77F Accuracy: -m0
    Conclusion: MPEG 90%
    Signature: 95FF0E96C36CD61EDB6FAA89E64AE2E5AC9DED76
    FILE: 10 - Dichterliebe (Heine), Op. 48 - Nr. 10. Hoer' ich das Liedchen klingen.flac
    Size: 6946145 Hash: 2B70D0663A4DB661281D7E644D39BDD8 Accuracy: -m0
    Conclusion: MPEG 100%
    Signature: 3825C43101DA43A7773511EFBCCF5DBF620B9F15
    FILE: 09 - Dichterliebe (Heine), Op. 48 - Nr. 9. Das ist ein Floeten und Geigen.flac
    Size: 6563478 Hash: B15C278F8186C890F7B1B2AA1CACB1DE Accuracy: -m0
    Conclusion: CDDA 43%
    Signature: 81337ABAE7AAFFD722AAAFAD4234890A09EF3C3D
    FILE: 08 - Dichterliebe (Heine), Op. 48 - Nr. 8. Und wuessten's die Blumen, die kleinen.flac
    Size: 4867483 Hash: F58721C27D8B102861265843AF8E949F Accuracy: -m0
    Conclusion: MPEG 89%
    Signature: 6264663A40B107F158EB60AEDACA14E76E465018
    FILE: 07 - Dichterliebe (Heine), Op. 48 - Nr. 7. Ich grolle nicht.flac
    Size: 7768854 Hash: B27DCF67173068639892935733A3BF14 Accuracy: -m0
    Conclusion: CDDA 94%
    Signature: AA22D2E7B4D438AE36426B656820B7A2CFC61D67
    FILE: 06 - Dichterliebe (Heine), Op. 48 - Nr. 6. Im Rhein, im heiligen Strome.flac
    Size: 8023652 Hash: 040CF0D46A2EE821080A141C485768D5 Accuracy: -m0
    Conclusion: MPEG 90%
    Signature: 9B7B0C7274F1B183E43C5A4931C009DDE149D7E5
    FILE: 05 - Dichterliebe (Heine), Op. 48 - Nr. 5. Ich will meine Seele tauchen.flac
    Size: 3737781 Hash: 41A74307834BCCF39D80E80D3F3302B3 Accuracy: -m0
    Conclusion: MPEG 100%
    Signature: E0B749FF551D1C77E8B2D38AFB4EE09C0D4C809E
    FILE: 04 - Dichterliebe (Heine), Op. 48 - Nr. 4. Wenn ich in deine Augen seh'.flac
    Size: 5863115 Hash: 8DF576E6631E16C77786F4D2D5966035 Accuracy: -m0
    Conclusion: MPEG 100%
    Signature: 57967B7B257E078E6ACC2A1B0BF3500770665629
    FILE: 03 - Dichterliebe (Heine), Op. 48 - Nr. 3. Die Rose, die Lilie, die Taube, die Sonne.flac
    Size: 2314006 Hash: 68C2E2684B0E85D6CBA61EA23816D43F Accuracy: -m0
    Conclusion: CDDA 62%
    Signature: BB9F440702E58C38957B74183AFDBF8DED0B61BE
    FILE: 02 - Dichterliebe (Heine), Op. 48 - Nr. 2. Aus meinen Traenen spriessen.flac
    Size: 3883355 Hash: F33AA20A9B3004462D5884EED54AE1EF Accuracy: -m0
    Conclusion: MPEG 100%
    Signature: 71C24DB209CF3F402BE82CF12FAD9DA934A230D5
    FILE: 01 - Dichterliebe (Heine), Op. 48 - Nr. 1. Im wunderschoenen Monat Mai.flac
    Size: 5302102 Hash: 9852E0E49EA4CBE53329316B5FE0A1A3 Accuracy: -m0
    Conclusion: MPEG 100%
    Signature: 5B33834C1C8A74DD71F6360C8D5FBA83DE7F07B1
    FILE: 25 - Liederkreis (Heine), Op. 24 - Nr. 9. Mit Myrthen und Rosen.flac
    Size: 15087001 Hash: 3BEB0726A44BE1B71D4B92EB806474D8 Accuracy: -m0
    Conclusion: MPEG 99%
    Signature: 0A9DCFEB061F74708BB960578C6645D07B54D8B0
    FILE: 24 - Liederkreis (Heine), Op. 24 - Nr. 8. Anfangs wollt' ich fast verzagen.flac
    Size: 3127050 Hash: 398CA69437DFA5CCCDAECD0C5EAC65C4 Accuracy: -m0
    Conclusion: MPEG 93%
    Signature: D27F6E6988FBA9FBC45B2C09C044060F51462577
    FILE: 23 - Liederkreis (Heine), Op. 24 - Nr. 7. Berg' und Burgen schau'n herunter.flac
    Size: 14053201 Hash: 731EAED2D9B686F01EAB910DB69D60A8 Accuracy: -m0
    Conclusion: MPEG 100%
    Signature: 5B2731B83548A1FD4617EF7CD0B6599B6B8AC7A1

    CUETools log / Отчёт CUETools

    [CUETools log; Date: 27.07.2015 19:07:35; Version: 2.1.4]
    Pregap length 00:00:32.
    [AccurateRip ID: 0026812c-02d2d891-660bc519] found.
    Track [ CRC | V2 ] Status
    01 [27084c44|1d16775b] (00+00/08) No match
    02 [01c7c77a|26d7e114] (00+00/08) No match
    03 [db7f601d|a7edcfa5] (00+00/08) No match
    04 [f2992418|52ba3d28] (00+00/08) No match
    05 [be9a11d5|0066e109] (00+00/08) No match
    06 [d511b770|90a8997e] (00+00/08) No match
    07 [2ea6c86f|6e3bcd79] (00+00/08) No match
    08 [cb3b37fb|3fa55c0b] (00+00/08) No match
    09 [f40815b0|fb6a5f09] (00+02/10) Accurately ripped
    10 [50cd5cc4|f0c98f40] (00+00/08) No match
    11 [6bd1f0e0|bfca9620] (00+02/10) Accurately ripped
    12 [967e2164|502fa864] (00+02/10) Accurately ripped
    13 [f44a28de|db9ff1b8] (00+00/08) No match
    14 [b95979c2|f4b25e63] (00+00/08) No match
    15 [f987175a|8d7e7c18] (00+00/08) No match
    16 [c4c3d5a0|f5b56294] (00+00/08) No match
    17 [7bcf240b|722db51b] (00+00/08) No match
    18 [47c9e983|cb7f3590] (00+00/08) No match
    19 [ef972ac9|1a960c0f] (00+00/08) No match
    20 [4e35194c|d795baa6] (00+00/08) No match
    21 [1daa5c10|949c6cbd] (00+00/08) No match
    22 [4cca6804|8f614c9c] (00+00/08) No match
    23 [6199f5ac|c3ad3de0] (00+00/08) No match
    24 [c92a98a6|dba37e3d] (00+00/08) No match
    25 [206a4486|50f0a7f1] (00+00/08) No match
    Offsetted by -727:
    01 [c0a01f5f] (00/08) No match
    02 [88e89cf8] (00/08) No match
    03 [52e48447] (00/08) No match
    04 [1feb68d2] (00/08) No match
    05 [50f251bd] (00/08) No match
    06 [884918ff] (00/08) No match
    07 [98cea7be] (00/08) No match
    08 [a96acf4b] (00/08) No match
    09 [15e79375] (00/10) No match
    10 [227cb36d] (00/08) No match
    11 [6a9bda0e] (00/10) No match
    12 [c8b02dcd] (00/10) No match (V2 was not tested)
    13 [389df619] (00/08) No match
    14 [d7583048] (00/08) No match
    15 [f8bc7ada] (00/08) No match
    16 [0f03ce36] (00/08) No match
    17 [e638453d] (00/08) No match
    18 [9b3094db] (00/08) No match
    19 [99d009e2] (00/08) No match
    20 [2de3e780] (00/08) No match
    21 [910f15a2] (00/08) No match
    22 [417b16e1] (00/08) No match
    23 [c1906f7a] (00/08) No match
    24 [473398e4] (00/08) No match
    25 [9d5f03f1] (00/08) No match
    Offsetted by -310:
    01 [94ca21b7] (00/08) No match (V2 was not tested)
    02 [af433b83] (00/08) No match (V2 was not tested)
    03 [502acd08] (00/08) No match (V2 was not tested)
    04 [5929da4e] (00/08) No match (V2 was not tested)
    05 [b75b0900] (00/08) No match (V2 was not tested)
    06 [02f38f74] (00/08) No match (V2 was not tested)
    07 [bfa96be1] (00/08) No match (V2 was not tested)
    08 [735590db] (00/08) No match (V2 was not tested)
    09 [670c3b1f] (00/10) No match (V2 was not tested)
    10 [511ea553] (00/08) No match (V2 was not tested)
    11 [1bdaa586] (00/10) No match (V2 was not tested)
    12 [7939cdf9] (00/10) No match
    13 [58be3fb2] (00/08) No match (V2 was not tested)
    14 [dd5a46fb] (00/08) No match (V2 was not tested)
    15 [1d182c90] (00/08) No match (V2 was not tested)
    16 [6e71d9aa] (00/08) No match (V2 was not tested)
    17 [4033cce6] (00/08) No match (V2 was not tested)
    18 [d9ed7880] (00/08) No match (V2 was not tested)
    19 [fd010dec] (00/08) No match (V2 was not tested)
    20 [6d7a2b6e] (00/08) No match (V2 was not tested)
    21 [fb2c2681] (00/08) No match (V2 was not tested)
    22 [197e6e01] (00/08) No match (V2 was not tested)
    23 [5cef564b] (00/08) No match (V2 was not tested)
    24 [94a2341d] (00/08) No match (V2 was not tested)
    25 [09996cfe] (00/08) No match (V2 was not tested)
    Offsetted by -63:
    01 [9bfa8463] (00/08) No match
    02 [46897975] (00/08) No match
    03 [87619211] (00/08) No match
    04 [cdaca85c] (00/08) No match
    05 [d786a5b8] (00/08) No match
    06 [6b256166] (00/08) No match
    07 [969df8fc] (00/08) No match
    08 [86083da1] (00/08) No match
    09 [94ab4d2d] (00/10) No match
    10 [0f87da10] (00/08) No match
    11 [7770da86] (00/10) No match
    12 [48c9a245] (00/10) No match (V2 was not tested)
    13 [837bb0a5] (00/08) No match
    14 [0921b1dd] (00/08) No match
    15 [933dc6df] (00/08) No match
    16 [e2abfb5c] (00/08) No match
    17 [8ac14688] (00/08) No match
    18 [64b06114] (00/08) No match
    19 [7ccd370b] (00/08) No match
    20 [010b0e92] (00/08) No match
    21 [99d5c7cf] (00/08) No match
    22 [a0599d5b] (00/08) No match
    23 [9655718b] (00/08) No match
    24 [9570d85c] (00/08) No match
    25 [63c695cb] (00/08) No match
    Offsetted by 352:
    01 [425fe591] (00/08) No match
    02 [df1db7ee] (00/08) No match
    03 [b1136d9d] (00/08) No match
    04 [8ac9a095] (00/08) No match
    05 [e764f27e] (00/08) No match
    06 [9a90dfe2] (00/08) No match
    07 [4dba2c8d] (00/08) No match
    08 [164538fb] (00/08) No match
    09 [12971607] (00/10) No match
    10 [e807d5bf] (00/08) No match
    11 [86866aa3] (00/10) No match
    12 [9322e06c] (00/10) No match (V2 was not tested)
    13 [20f44c65] (00/08) No match
    14 [f1385dd6] (00/08) No match
    15 [e9436a06] (00/08) No match
    16 [9d84b2a2] (00/08) No match
    17 [80fc17cc] (00/08) No match
    18 [aefae234] (00/08) No match
    19 [be3a8801] (00/08) No match
    20 [54eb68fb] (00/08) No match
    21 [49f595c4] (00/08) No match
    22 [97ce9d33] (00/08) No match
    23 [88482c94] (00/08) No match
    24 [63b9c929] (00/08) No match
    25 [aec8a24a] (00/08) No match
    Offsetted by 354:
    01 [a64345aa] (03/08) Accurately ripped
    02 [48c6c794] (03/08) Accurately ripped
    03 [6986f071] (03/08) Accurately ripped
    04 [30d6845d] (03/08) Accurately ripped
    05 [07d7890f] (03/08) Accurately ripped
    06 [989d02ac] (03/08) Accurately ripped
    07 [83dccbfb] (03/08) Accurately ripped
    08 [938ddb43] (03/08) Accurately ripped
    09 [b01d1689] (03/10) Accurately ripped
    10 [bb811538] (03/08) Accurately ripped
    11 [ebf3e5c9] (00/10) No match (V2 was not tested)
    12 [c4fd50da] (00/10) No match
    13 [054563fc] (03/08) Accurately ripped
    14 [15b2cb47] (03/08) Accurately ripped
    15 [6e74a056] (03/08) Accurately ripped
    16 [f9346b2f] (03/08) Accurately ripped
    17 [8fe8a796] (03/08) Accurately ripped
    18 [5d30bf4f] (03/08) Accurately ripped
    19 [a4056b5f] (03/08) Accurately ripped
    20 [52345a17] (03/08) Accurately ripped
    21 [a7ab4ae9] (03/08) Accurately ripped
    22 [c412e25a] (03/08) Accurately ripped
    23 [f6c54565] (03/08) Accurately ripped
    24 [98c7f4f2] (03/08) Accurately ripped
    25 [61832de7] (03/08) Accurately ripped
    Offsetted by 769:
    01 [d4046e69] (00/08) No match (V2 was not tested)
    02 [8fe66840] (00/08) No match (V2 was not tested)
    03 [e8f812e9] (00/08) No match (V2 was not tested)
    04 [a8597ca0] (00/08) No match (V2 was not tested)
    05 [c6e7919c] (00/08) No match (V2 was not tested)
    06 [d3e0bdb1] (00/08) No match (V2 was not tested)
    07 [936f0cd2] (00/08) No match (V2 was not tested)
    08 [1afb26c7] (00/08) No match (V2 was not tested)
    09 [4a5bc55b] (00/10) No match (V2 was not tested)
    10 [9d718325] (00/08) No match (V2 was not tested)
    11 [79f2a5f0] (00/10) No match (V2 was not tested)
    12 [0e7e5395] (00/10) No match
    13 [c450d1de] (00/08) No match (V2 was not tested)
    14 [540ae3e2] (00/08) No match (V2 was not tested)
    15 [6f828e82] (00/08) No match (V2 was not tested)
    16 [7b72e269] (00/08) No match (V2 was not tested)
    17 [d371e985] (00/08) No match (V2 was not tested)
    18 [4455f09f] (00/08) No match (V2 was not tested)
    19 [836a26f9] (00/08) No match (V2 was not tested)
    20 [fa72b5bb] (00/08) No match (V2 was not tested)
    21 [b545619f] (00/08) No match (V2 was not tested)
    22 [ca9e96c0] (00/08) No match (V2 was not tested)
    23 [9cfa1213] (00/08) No match (V2 was not tested)
    24 [8a813a4a] (00/08) No match (V2 was not tested)
    25 [5c6ceea3] (00/08) No match (V2 was not tested)
    Track Peak [ CRC32 ] [W/O NULL] [ LOG ]
    -- 100,0 [41411701] [7ADA5B87]
    01 54,7 [954C8659] [1D7B36DF] CRC32
    02 25,8 [6A6C30D4] [6509BD62] CRC32
    03 53,8 [D93FF76F] [293E5FB5] CRC32
    04 54,9 [AC9C1E4F] [8F359E85] CRC32
    05 30,0 [CDC6702E] [221F535D] CRC32
    06 66,8 [E68237B7] [719E1A30] CRC32
    07 78,3 [7259A5E4] [477597C5] CRC32
    08 68,4 [EDA0DAB7] [F24A2BA0] CRC32
    09 99,9 [8F7FDB71] [2DCD617C] CRC32
    10 24,2 [A214FB83] [6566D9F1] CRC32
    11 98,9 [90B4A1FB] [63F9EAEA] CRC32
    12 23,4 [92DEDF47] [9CFF019D] CRC32
    13 91,5 [F3663104] [160CED3E] CRC32
    14 57,4 [28E9BE44] [4E914143] CRC32
    15 93,8 [BA4C093C] [B00E80A8] CRC32
    16 99,8 [6AB37AD0] [45BCFFB4] CRC32
    17 39,7 [B75B45D3] [5A11BF89] CRC32
    18 99,9 [BEFC7D6F] [2D0065F0] CRC32
    19 33,8 [F26F3016] [D46EFD55] CRC32
    20 38,0 [86CC05DF] [518EB203] CRC32
    21 91,9 [0EA2871E] [15F956FF] CRC32
    22 100,0 [9D20377B] [19194C96] CRC32
    23 79,6 [9EB1F2E4] [48BE3D5C] CRC32
    24 63,8 [E9A4DD71] [A5B7E8A4] CRC32
    25 80,5 [A6577F0C] [3A2E6759] CRC32

    CUE sheet

    TITLE "Robert Schumann: «Dichterliebe» • «Liederkreis», Op. 24"
    PERFORMER "Matthias Goerne"
    REM GENRE Classical
    REM DISCID 660BC519
    REM COMMENT "ExactAudioCopy v1.0b1"
    FILE "01 - Dichterliebe (Heine), Op. 48 - Nr. 1. Im wunderschoenen Monat Mai.flac" WAVE
    TRACK 01 AUDIO
    TITLE "«Dichterliebe» (Heine), Op. 48: Nr. 1. «Im wunderschönen Monat Mai»"
    PERFORMER "Matthias Goerne (baritone), Vladimir Ashkenazy (piano)"
    REM DATE 1997
    PREGAP 00:00:32
    INDEX 01 00:00:00
    FILE "02 - Dichterliebe (Heine), Op. 48 - Nr. 2. Aus meinen Traenen spriessen.flac" WAVE
    TRACK 02 AUDIO
    TITLE "«Dichterliebe» (Heine), Op. 48: Nr. 2. «Aus meinen Tränen sprießen»"
    PERFORMER "Matthias Goerne (baritone), Vladimir Ashkenazy (piano)"
    REM DATE 1997
    INDEX 01 00:00:00
    FILE "03 - Dichterliebe (Heine), Op. 48 - Nr. 3. Die Rose, die Lilie, die Taube, die Sonne.flac" WAVE
    TRACK 03 AUDIO
    TITLE "«Dichterliebe» (Heine), Op. 48: Nr. 3. «Die Rose, die Lilie, die Taube, die Sonne»"
    PERFORMER "Matthias Goerne (baritone), Vladimir Ashkenazy (piano)"
    REM DATE 1997
    INDEX 01 00:00:00
    TRACK 04 AUDIO
    TITLE "«Dichterliebe» (Heine), Op. 48: Nr. 4. «Wenn ich in deine Augen seh'»"
    PERFORMER "Matthias Goerne (baritone), Vladimir Ashkenazy (piano)"
    REM DATE 1997
    INDEX 00 00:33:50
    FILE "04 - Dichterliebe (Heine), Op. 48 - Nr. 4. Wenn ich in deine Augen seh'.flac" WAVE
    INDEX 01 00:00:00
    FILE "05 - Dichterliebe (Heine), Op. 48 - Nr. 5. Ich will meine Seele tauchen.flac" WAVE
    TRACK 05 AUDIO
    TITLE "«Dichterliebe» (Heine), Op. 48: Nr. 5. «Ich will meine Seele tauchen»"
    PERFORMER "Matthias Goerne (baritone), Vladimir Ashkenazy (piano)"
    REM DATE 1997
    INDEX 01 00:00:00
    FILE "06 - Dichterliebe (Heine), Op. 48 - Nr. 6. Im Rhein, im heiligen Strome.flac" WAVE
    TRACK 06 AUDIO
    TITLE "«Dichterliebe» (Heine), Op. 48: Nr. 6. «Im Rhein, im heiligen Strome»"
    PERFORMER "Matthias Goerne (baritone), Vladimir Ashkenazy (piano)"
    REM DATE 1997
    INDEX 01 00:00:00
    FILE "07 - Dichterliebe (Heine), Op. 48 - Nr. 7. Ich grolle nicht.flac" WAVE
    TRACK 07 AUDIO
    TITLE "«Dichterliebe» (Heine), Op. 48: Nr. 7. «Ich grolle nicht»"
    PERFORMER "Matthias Goerne (baritone), Vladimir Ashkenazy (piano)"
    REM DATE 1997
    INDEX 01 00:00:00
    FILE "08 - Dichterliebe (Heine), Op. 48 - Nr. 8. Und wuessten's die Blumen, die kleinen.flac" WAVE
    TRACK 08 AUDIO
    TITLE "«Dichterliebe» (Heine), Op. 48: Nr. 8. «Und wüßten's die Blumen, die kleinen»"
    PERFORMER "Matthias Goerne (baritone), Vladimir Ashkenazy (piano)"
    REM DATE 1997
    INDEX 01 00:00:00
    FILE "09 - Dichterliebe (Heine), Op. 48 - Nr. 9. Das ist ein Floeten und Geigen.flac" WAVE
    TRACK 09 AUDIO
    TITLE "«Dichterliebe» (Heine), Op. 48: Nr. 9. «Das ist ein Flöten und Geigen»"
    PERFORMER "Matthias Goerne (baritone), Vladimir Ashkenazy (piano)"
    REM DATE 1997
    INDEX 01 00:00:00
    TRACK 10 AUDIO
    TITLE "«Dichterliebe» (Heine), Op. 48: Nr. 10. «Hör' ich das Liedchen klingen»"
    PERFORMER "Matthias Goerne (baritone), Vladimir Ashkenazy (piano)"
    REM DATE 1997
    INDEX 00 01:25:62
    FILE "10 - Dichterliebe (Heine), Op. 48 - Nr. 10. Hoer' ich das Liedchen klingen.flac" WAVE
    INDEX 01 00:00:00
    FILE "11 - Dichterliebe (Heine), Op. 48 - Nr. 11. Ein Juengling liebt ein Maedchen.flac" WAVE
    TRACK 11 AUDIO
    TITLE "«Dichterliebe» (Heine), Op. 48: Nr. 11. «Ein Jüngling liebt ein Mädchen»"
    PERFORMER "Matthias Goerne (baritone), Vladimir Ashkenazy (piano)"
    REM DATE 1997
    INDEX 01 00:00:00
    FILE "12 - Dichterliebe (Heine), Op. 48 - Nr. 12. Am leuchtenden Sommermorgen.flac" WAVE
    TRACK 12 AUDIO
    TITLE "«Dichterliebe» (Heine), Op. 48: Nr. 12. «Am leuchtenden Sommermorgen»"
    PERFORMER "Matthias Goerne (baritone), Vladimir Ashkenazy (piano)"
    REM DATE 1997
    INDEX 01 00:00:00
    TRACK 13 AUDIO
    TITLE "«Dichterliebe» (Heine), Op. 48: Nr. 13. «Ich hab' im Traum geweinet»"
    PERFORMER "Matthias Goerne (baritone), Vladimir Ashkenazy (piano)"
    REM DATE 1997
    INDEX 00 02:29:00
    FILE "13 - Dichterliebe (Heine), Op. 48 - Nr. 13. Ich hab' im Traum geweinet.flac" WAVE
    INDEX 01 00:00:00
    FILE "14 - Dichterliebe (Heine), Op. 48 - Nr. 14. Allnaechtlich im Traume.flac" WAVE
    TRACK 14 AUDIO
    TITLE "«Dichterliebe» (Heine), Op. 48: Nr. 14. «Allnächtlich im Traume»"
    PERFORMER "Matthias Goerne (baritone), Vladimir Ashkenazy (piano)"
    REM DATE 1997
    INDEX 01 00:00:00
    FILE "15 - Dichterliebe (Heine), Op. 48 - Nr. 15. Aus alten Maerchen.flac" WAVE
    TRACK 15 AUDIO
    TITLE "«Dichterliebe» (Heine), Op. 48: Nr. 15. «Aus alten Märchen»"
    PERFORMER "Matthias Goerne (baritone), Vladimir Ashkenazy (piano)"
    REM DATE 1997
    INDEX 01 00:00:00
    TRACK 16 AUDIO
    TITLE "«Dichterliebe» (Heine), Op. 48: Nr. 16. «Die alten, bösen Lieder»"
    PERFORMER "Matthias Goerne (baritone), Vladimir Ashkenazy (piano)"
    REM DATE 1997
    INDEX 00 02:16:62
    FILE "16 - Dichterliebe (Heine), Op. 48 - Nr. 16. Die alten, boesen Lieder.flac" WAVE
    INDEX 01 00:00:00
    TRACK 17 AUDIO
    TITLE "«Liederkreis» (Heine), Op. 24: Nr. 1. «Morgens steh' ich auf und frage»"
    PERFORMER "Matthias Goerne (baritone), Vladimir Ashkenazy (piano)"
    REM DATE 1997
    INDEX 00 04:09:63
    FILE "17 - Liederkreis (Heine), Op. 24 - Nr. 1. Morgens steh' ich auf und frage.flac" WAVE
    INDEX 01 00:00:00
    FILE "18 - Liederkreis (Heine), Op. 24 - Nr. 2. Es treibt mich hin.flac" WAVE
    TRACK 18 AUDIO
    TITLE "«Liederkreis» (Heine), Op. 24: Nr. 2. «Es treibt mich hin»"
    PERFORMER "Matthias Goerne (baritone), Vladimir Ashkenazy (piano)"
    REM DATE 1997
    INDEX 01 00:00:00
    FILE "19 - Liederkreis (Heine), Op. 24 - Nr. 3. Ich wandelte unter den Baeumen.flac" WAVE
    TRACK 19 AUDIO
    TITLE "«Liederkreis» (Heine), Op. 24: Nr. 3. «Ich wandelte unter den Bäumen»"
    PERFORMER "Matthias Goerne (baritone), Vladimir Ashkenazy (piano)"
    REM DATE 1997
    INDEX 01 00:00:00
    TRACK 20 AUDIO
    TITLE "«Liederkreis» (Heine), Op. 24: Nr. 4. «Lieb' Liebchen, leg's Händchen auf's Herze mein»"
    PERFORMER "Matthias Goerne (baritone), Vladimir Ashkenazy (piano)"
    REM DATE 1997
    INDEX 00 04:02:45
    FILE "20 - Liederkreis (Heine), Op. 24 - Nr. 4. Lieb' Liebchen, leg's Haendchen auf's Herze mein.flac" WAVE
    INDEX 01 00:00:00
    FILE "21 - Liederkreis (Heine), Op. 24 - Nr. 5. Schoene Wiege meiner Leiden.flac" WAVE
    TRACK 21 AUDIO
    TITLE "«Liederkreis» (Heine), Op. 24: Nr. 5. «Schöne Wiege meiner Leiden»"
    PERFORMER "Matthias Goerne (baritone), Vladimir Ashkenazy (piano)"
    REM DATE 1997
    INDEX 01 00:00:00
    TRACK 22 AUDIO
    TITLE "«Liederkreis» (Heine), Op. 24: Nr. 6. «Warte, warte, wilder Schiffmann»"
    PERFORMER "Matthias Goerne (baritone), Vladimir Ashkenazy (piano)"
    REM DATE 1997
    INDEX 00 03:33:63
    FILE "22 - Liederkreis (Heine), Op. 24 - Nr. 6. Warte, warte, wilder Schiffmann.flac" WAVE
    INDEX 01 00:00:00
    TRACK 23 AUDIO
    TITLE "«Liederkreis» (Heine), Op. 24: Nr. 7. «Berg' und Burgen schau'n herunter»"
    PERFORMER "Matthias Goerne (baritone), Vladimir Ashkenazy (piano)"
    REM DATE 1997
    INDEX 00 01:56:00
    FILE "23 - Liederkreis (Heine), Op. 24 - Nr. 7. Berg' und Burgen schau'n herunter.flac" WAVE
    INDEX 01 00:00:00
    TRACK 24 AUDIO
    TITLE "«Liederkreis» (Heine), Op. 24: Nr. 8. «Anfangs wollt' ich fast verzagen»"
    PERFORMER "Matthias Goerne (baritone), Vladimir Ashkenazy (piano)"
    REM DATE 1997
    INDEX 00 03:34:50
    FILE "24 - Liederkreis (Heine), Op. 24 - Nr. 8. Anfangs wollt' ich fast verzagen.flac" WAVE
    INDEX 01 00:00:00
    FILE "25 - Liederkreis (Heine), Op. 24 - Nr. 9. Mit Myrthen und Rosen.flac" WAVE
    TRACK 25 AUDIO
    TITLE "«Liederkreis» (Heine), Op. 24: Nr. 9. «Mit Myrthen und Rosen»"
    PERFORMER "Matthias Goerne (baritone), Vladimir Ashkenazy (piano)"
    REM DATE 1997
    INDEX 01 00:00:00
    -



  • Показать сообщения:    

    Текущее время: 08-Дек 14:58

    Часовой пояс: UTC + 3


    Вы не можете начинать темы
    Вы не можете отвечать на сообщения
    Вы не можете редактировать свои сообщения
    Вы не можете удалять свои сообщения
    Вы не можете голосовать в опросах
    Вы не можете прикреплять файлы к сообщениям
    Вы не можете скачивать файлы