(Classical) Arvo Pärt (Part) - Tintinnabuli: Magnificat; Triodion; Sieben Magnificat-Antiphonen; Nunc dimittis; Tribute to Caesar; Which Was the Son of ... - The Tallis Scholars, Peter Phillips - 2015, FLAC (image+.cue) lossless


Статистика раздачи [Обновить пиров]
Размер:  207 MB   |    Зарегистрирован:  8 месяцев 21 день   |    Скачан:  0 раз

Полного источника не было: Никогда

 
   
 
 
 

[Цитировать]

Arvo Pärt (Part) - Tintinnabuli: Magnificat; Triodion; Sieben Magnificat-Antiphonen; Nunc dimittis; Tribute to Caesar; Which Was the Son of ... - The Tallis Scholars, Peter Phillips
Жанр: Classical
Страна-производитель диска: UK
Год издания диска: 2015
Издатель (лейбл): Gimell Records
Номер по каталогу: CDGIM 049
Дата записи: 2015
Аудиокодек: FLAC
Тип рипа: image+.cue
Битрейт аудио: lossless
Продолжительность: 67:06
Источник: собственный рип
Наличие сканов в содержимом раздачи: да
Треклист:
Arvo Pärt (b.1935)
[1]-[7] Sieben Magnificat-Antiphonen
[8] Magnificat
[9] Which Was the Son of ...
[10]-[12] Nunc dimittis
[13]-[15] The Woman with the Alabaster Box
[16]-[17] Tribute to Caesar
[18] I Am the True Vine
[19]-[23] Triodion
Исполнители:
The Tallis Scholars
Directed by Peter Phillips

Лог создания рипа

Exact Audio Copy V1.0 beta 3 from 29. August 2011
EAC extraction logfile from 22. July 2015, 0:57
The Tallis Scholars, Peter Phillips / Arvo Pärt - Tintinnabuli
Used drive : HL-DT-STDVDRAM GU70N Adapter: 0 ID: 0
Read mode : Secure
Utilize accurate stream : Yes
Defeat audio cache : Yes
Make use of C2 pointers : No
Read offset correction : 48
Overread into Lead-In and Lead-Out : No
Fill up missing offset samples with silence : Yes
Delete leading and trailing silent blocks : No
Null samples used in CRC calculations : Yes
Used interface : Native Win32 interface for Win NT & 2000
Used output format : User Defined Encoder
Selected bitrate : 128 kBit/s
Quality : High
Add ID3 tag : No
Command line compressor : C:\Program Files (x86)\Exact Audio Copy\Flac\flac.exe
Additional command line options : -V -8 -T "Date=%year%" -T "Genre=%genre%" %source%
TOC of the extracted CD
Track | Start | Length | Start sector | End sector
---------------------------------------------------------
1 | 0:00.00 | 1:27.59 | 0 | 6583
2 | 1:27.59 | 2:28.47 | 6584 | 17730
3 | 3:56.31 | 1:00.37 | 17731 | 22267
4 | 4:56.68 | 2:01.38 | 22268 | 31380
5 | 6:58.31 | 2:02.43 | 31381 | 40573
6 | 9:00.74 | 1:10.28 | 40574 | 45851
7 | 10:11.27 | 3:17.07 | 45852 | 60633
8 | 13:28.34 | 7:13.30 | 60634 | 93138
9 | 20:41.64 | 7:37.14 | 93139 | 127427
10 | 28:19.03 | 1:44.20 | 127428 | 135247
11 | 30:03.23 | 2:47.02 | 135248 | 147774
12 | 32:50.25 | 1:18.38 | 147775 | 153662
13 | 34:08.63 | 2:27.08 | 153663 | 164695
14 | 36:35.71 | 1:16.23 | 164696 | 170418
15 | 37:52.19 | 1:45.44 | 170419 | 178337
16 | 39:37.63 | 3:42.22 | 178338 | 195009
17 | 43:20.10 | 2:47.56 | 195010 | 207590
18 | 46:07.66 | 7:10.10 | 207591 | 239850
19 | 53:18.01 | 0:23.08 | 239851 | 241583
20 | 53:41.09 | 3:34.09 | 241584 | 257642
21 | 57:15.18 | 4:37.22 | 257643 | 278439
22 | 61:52.40 | 4:12.09 | 278440 | 297348
23 | 66:04.49 | 1:01.26 | 297349 | 301949
Range status and errors
Selected range
Filename C:\temp\Part - Tintinnabuli\Arvo Part - Tintinnabuli.wav
Peak level 97.2 %
Extraction speed 5.4 X
Range quality 100.0 %
Test CRC 7C8290B6
Copy CRC 7C8290B6
Copy OK
No errors occurred
AccurateRip summary
Track 1 accurately ripped (confidence 3) [F9101906] (AR v2)
Track 2 accurately ripped (confidence 3) [D8AA6BC0] (AR v2)
Track 3 accurately ripped (confidence 3) [962D84DE] (AR v2)
Track 4 accurately ripped (confidence 3) [C9C888B3] (AR v2)
Track 5 accurately ripped (confidence 3) [4A847BC4] (AR v2)
Track 6 accurately ripped (confidence 3) [311EF192] (AR v2)
Track 7 accurately ripped (confidence 3) [3D13500E] (AR v2)
Track 8 accurately ripped (confidence 3) [1240EA31] (AR v2)
Track 9 accurately ripped (confidence 3) [CEC4AD59] (AR v2)
Track 10 accurately ripped (confidence 3) [61A3A451] (AR v2)
Track 11 accurately ripped (confidence 3) [018C5011] (AR v2)
Track 12 accurately ripped (confidence 3) [40925FB7] (AR v2)
Track 13 accurately ripped (confidence 3) [C180D69F] (AR v2)
Track 14 accurately ripped (confidence 3) [39527C95] (AR v2)
Track 15 accurately ripped (confidence 3) [8D3740D5] (AR v2)
Track 16 accurately ripped (confidence 3) [DE5877E2] (AR v2)
Track 17 accurately ripped (confidence 3) [C203BF61] (AR v2)
Track 18 accurately ripped (confidence 3) [D8CAD197] (AR v2)
Track 19 accurately ripped (confidence 3) [D39BC9B6] (AR v2)
Track 20 accurately ripped (confidence 3) [113A2372] (AR v2)
Track 21 accurately ripped (confidence 3) [CC8AB8B3] (AR v2)
Track 22 accurately ripped (confidence 3) [28377FBE] (AR v2)
Track 23 accurately ripped (confidence 3) [F412063E] (AR v2)
All tracks accurately ripped
End of status report
==== Log checksum 65819B773DB0BFD84808B3B6A7B3D8941B5ED0859CDA4BE5197F2296BD080247 ====
[teatrix.ru].t21860.torrent 
Торрент: Зарегистрирован [ 2016-03-20 12:51 ] · 5C909E200B5C75CEDFC57BAD7963735A9DE14BD8

Скачать .torrent

Скачать

33 KB

Статус: проверено
Скачан: 0 раз
Размер: 207 MB
terms.php



Быстрый ответ

Имя:

      
Для отправки сообщений необходимо включить JavaScript
Показать сообщения:    

Текущее время: 11-Дек 09:11

Часовой пояс: UTC + 3


Вы можете начинать темы
Вы можете отвечать на сообщения
Вы не можете редактировать свои сообщения
Вы не можете удалять свои сообщения
Вы не можете голосовать в опросах
Вы не можете прикреплять файлы к сообщениям
Вы можете скачивать файлы