Менины / Las Meninas (Игорь Подольчак / Ihor Podolchak, Дин Карр / Dean Karr) [2008, Украина, психологическая драма, сюрреализм, DVB-AVC]


Статистика раздачи [Обновить пиров]
Размер:  426 MB   |    Зарегистрирован:  9 месяцев 30 дней   |    Скачан:  1 раз

Полного источника не было: 2 месяца 5 дней

 
   
 
 
 

[Цитировать]

Менины
Las Meninas- Страна: Украина
Жанр: психологическая драма, сюрреализм
Год выпуска: 2008
Продолжительность: 01:38:52
Перевод: Не требуется
Cубтитры: нет
Оригинальная аудиодорожка: русскийРежиссер: Игорь Подольчак / Ihor Podolchak, Дин Карр / Dean Karr
В ролях: Мыкола Вересень (Отец), Любов Тимошевская (Мать), Анна Яровенко (Дочь), Дмитрий Чернявский (Сын), Илона Арсентьева (Дочка-девочка), Стас Арсентьев (Сын-мальчик), Виктория Ульянченко (Мать в молодости), Валерия Ульянченко (Мать в молодости)
Описание: Семья из четырёх человек (Отец, Мать, Дочь и Сын) обитает в почти полной социальной изоляции в загородном доме, который кажется лабиринтом из комнат и зеркальных отражений. Это замкнутое пространство настолько запутано, что превращается в неориентируемую поверхность наподобие "ленты Мебиуса". Из-за этого временная ось также искривляется, следствием чего является переплетение прошлого и настоящего — в этом доме не существует различия между направлением "вперёд" и "назад" во времени, как не существует различия между смутными воспоминаниями и фактическими событиями.
Доп. информация: Filmbox Arthouse IPTV
Награды: номинация на премию "Тигр" лучшему молодому режиссеру Rotterdam International Film Festival 2008; номинация на премию за лучшее "Кино Востока" Art Film Festival 2008; номинация на специальный приз Kinoshok Festival 2008; номинация на Гран-при Split International Festival of New Film 2008; др. награды. Участник Московского международного кинофестиваля 2008.

Качество видео: DVB-AVC
Формат видео: MKV
Видео: AVC (H.264), 720x576@1024x576 (16:9), 25 fps, ~463 kbps avg, 0.049 bit/pixel
Аудио: MPEG Audio 2, 2 ch, 48 kHz, ~128.00 kbps avg

MediaInfo

Общее
Уникальный идентификатор : 177770337269607756616606900657453595507 (0x85BD5252E110782A8EF19881B598FB73)
Полное имя : F:\My Torrents 3\[apreder]Las_Meninas(2008)DVB.mkv
Формат : Matroska
Версия формата : Version 2
Размер файла : 426 Мбайт
Продолжительность : 1 ч. 38 м.
Общий поток : 603 Кбит/сек
Дата кодирования : UTC 2015-07-27 18:17:41
Программа кодирования : mkvmerge v8.2.0 ('World of Adventure') 64bit
Библиотека кодирования : libebml v1.3.1 + libmatroska v1.4.2
Attachements : cover.jpg / cover_small.jpg
Видео
Идентификатор : 2
Формат : AVC
Формат/Информация : Advanced Video Codec
Профиль формата : Main@L3
Параметр CABAC формата : Да
Параметр ReFrames формата : 3 кадра
Параметр GOP формата : M=4, N=32
Идентификатор кодека : V_MPEG4/ISO/AVC
Продолжительность : 1 ч. 38 м.
Битрейт : 463 Кбит/сек
Ширина : 720 пикселей
Высота : 576 пикселей
Соотношение сторон : 16:9
Соотношение сторон в оригинале : 16:9
Режим частоты кадров : Постоянный
Частота кадров : 22,762 кадра/сек
Частота кадров в оригинале : 25,000 кадров/сек
Стандарт вещания : Component
Цветовое пространство : YUV
Субдискретизация насыщенности : 4:2:0
Битовая глубина : 8 бит
Тип развёртки : Чересстрочная
Порядок развёртки : Верхнее поле первое
Бит/(Пиксели*Кадры) : 0.049
Размер потока : 327 Мбайт (77%)
Default : Да
Forced : Нет
colour_range : Limited
Основные цвета : BT.601 PAL
Характеристики трансфера : BT.470 System B, BT.470 System G
Коэффициенты матрицы : BT.601
Аудио
Идентификатор : 1
Формат : MPEG Audio
Версия формата : Version 1
Профиль формата : Layer 2
Идентификатор кодека : A_MPEG/L2
Идентификатор кодека/Подсказка : MP2
Продолжительность : 1 ч. 38 м.
Вид битрейта : Постоянный
Битрейт : 128 Кбит/сек
Каналы : 2 канала
Частота : 48,0 КГц
Метод сжатия : С потерями
Задержка видео : -9 мс.
Размер потока : 90,5 Мбайт (21%)
Язык : Russian
Default : Да
Forced : Нет

Скриншот c названием фильма

Скриншоты


Резервные скриншоты


-[2'499]
[teatrix.ru].t21862.torrent 
Торрент: Зарегистрирован [ 2016-03-20 12:51 ] · DD7AB9E0D4A7DDABC0AD60BDE1C0642BB2526481

Скачать .torrent

Скачать

17 KB

Статус: проверено
Скачан: 1 раз
Размер: 426 MB
terms.php



Быстрый ответ

Имя:

      
Для отправки сообщений необходимо включить JavaScript
Показать сообщения:    

Текущее время: 19-Янв 22:15

Часовой пояс: UTC + 3


Вы можете начинать темы
Вы можете отвечать на сообщения
Вы не можете редактировать свои сообщения
Вы не можете удалять свои сообщения
Вы не можете голосовать в опросах
Вы не можете прикреплять файлы к сообщениям
Вы можете скачивать файлы