(Classical / Sacred / Masses) Arvo Part - Berliner Messe, The Beatitudes, Seven Magnificat Antiphons, Annum Per Annum, De Profundis (Andrew Lucas, Polyphony, Stephen Layton) - 2014, FLAC (tracks+.cue) lossless


Статистика раздачи [Обновить пиров]
Размер:  228 MB   |    Зарегистрирован:  8 месяцев 17 дней   |    Скачан:  1 раз

Полного источника не было: 17 дней

 
   
 
 
 

[Цитировать]

Arvo Part - Berliner Messe, Magnificat Antiphons and other works

Жанр: Classical / Spiritual / Masses
Страна-производитель диска: Made in France
Год издания диска: 2014
Издатель (лейбл): Hyperion Records
Номер по каталогу: CDH55408
Дата записи: 1998
Аудиокодек: FLAC
Тип рипа: tracks+.cue
Битрейт аудио: lossless
Продолжительность: 73'37
Источник: релизер
сайт-источник/ник/другое: ruskaval, рип не его
Наличие сканов в содержимом раздачи: да
Треклист:

скрытый текст

01 - Berliner Messe - 1. Kyrie
02 - 2. Gloria
03 - 3. Erster Alleluiavers
04 - 4. Zweiter Alleluiavers
05 - 5. Veni Sancte Spiritus
06 - 6. Credo
07 - 7. Sanctus
08 - 8. Agnus Dei
09 - The Beatitudes
10 - Annum Per Annum - 1. Einleitung
11 - 2. Kyrie
12 - 3. Gloria
13 - 4. Credo
14 - 5. Sanctus
15 - 6. Agnus
16 - 7. Coda
17 - Magnificat
18 - 7 Magnificat-Antiphonen - 1. O Weisheit
19 - 2. O Adonai
20 - 3. O Spross Aus Isais Wurzel
21 - 4. O Schlussel Davids
22 - 5. O Morgenstern
23 - 6. O Konig Aller Volker
24 - 7. O Immanuel
25 - De Profundis
Исполнители:

скрытый текст

Arvo Pärt (born in 1935)
Berliner Messe & Magnificat
Andrew Lucas (organ)
Polyphony, Stephen Layton (conductor)

Лог создания рипа

Exact Audio Copy V1.0 beta 3 from 29. August 2011
EAC extraction logfile from 13. December 2014, 18:40
Arvo Part / Berliner Messe, Magnificat Antiphons and other works
Used drive : TSSTcorpCDDVDW SH-224DB Adapter: 2 ID: 0
Read mode : Secure
Utilize accurate stream : Yes
Defeat audio cache : Yes
Make use of C2 pointers : No
Read offset correction : 6
Overread into Lead-In and Lead-Out : No
Fill up missing offset samples with silence : Yes
Delete leading and trailing silent blocks : No
Null samples used in CRC calculations : Yes
Used interface : Native Win32 interface for Win NT & 2000
Gap handling : Appended to previous track
Used output format : User Defined Encoder
Selected bitrate : 768 kBit/s
Quality : High
Add ID3 tag : No
Command line compressor : C:\Program Files (x86)\Exact Audio Copy\FLAC\FLAC.EXE
Additional command line options : -8 -V -T "ARTIST=%artist%" -T "TITLE=%title%" -T "ALBUM=%albumtitle%" -T "DATE=%year%" -T "TRACKNUMBER=%tracknr%" -T "TOTALTRACKS=%numtracks%" -T "GENRE=%genre%" -T "ALBUMARTIST=%albumartist%" -T "ALBUM ARTIST=%albumartist%" -T "COMMENT=EAC Secure Mode, Test & Copy, AccurateRip, FLAC -8" %source%
TOC of the extracted CD
Track | Start | Length | Start sector | End sector
---------------------------------------------------------
1 | 0:00.27 | 3:26.18 | 27 | 15494
2 | 3:26.45 | 3:42.07 | 15495 | 32151
3 | 7:08.52 | 0:54.55 | 32152 | 36256
4 | 8:03.32 | 1:09.73 | 36257 | 41504
5 | 9:13.30 | 5:33.72 | 41505 | 66551
6 | 14:47.27 | 3:52.53 | 66552 | 84004
7 | 18:40.05 | 3:23.25 | 84005 | 99254
8 | 22:03.30 | 3:08.30 | 99255 | 113384
9 | 25:11.60 | 7:01.17 | 113385 | 144976
10 | 32:13.02 | 1:15.00 | 144977 | 150601
11 | 33:28.02 | 1:46.43 | 150602 | 158594
12 | 35:14.45 | 1:34.37 | 158595 | 165681
13 | 36:49.07 | 1:38.50 | 165682 | 173081
14 | 38:27.57 | 1:39.25 | 173082 | 180531
15 | 40:07.07 | 2:53.45 | 180532 | 193551
16 | 43:00.52 | 1:11.13 | 193552 | 198889
17 | 44:11.65 | 7:04.47 | 198890 | 230736
18 | 51:16.37 | 2:00.13 | 230737 | 239749
19 | 53:16.50 | 2:22.70 | 239750 | 250469
20 | 55:39.45 | 1:06.45 | 250470 | 255464
21 | 56:46.15 | 2:30.50 | 255465 | 266764
22 | 59:16.65 | 2:27.50 | 266765 | 277839
23 | 61:44.40 | 1:19.07 | 277840 | 283771
24 | 63:03.47 | 3:14.50 | 283772 | 298371
25 | 66:18.22 | 7:19.10 | 298372 | 331306
Track 1
Filename g:\eac\01 - Berliner Messe - 1. Kyrie.wav
Pre-gap length 0:00:02.27
Peak level 28.1 %
Extraction speed 2.0 X
Track quality 100.0 %
Test CRC A2BB4820
Copy CRC A2BB4820
Cannot be verified as accurate (confidence 10) [6B99D9D4], AccurateRip returned [0959E33F] (AR v2)
Copy OK
Track 2
Filename g:\eac\02 - Berliner Messe - 2. Gloria.wav
Pre-gap length 0:00:03.10
Peak level 64.4 %
Extraction speed 1.7 X
Track quality 99.9 %
Test CRC 5D38DB9C
Copy CRC 5D38DB9C
Cannot be verified as accurate (confidence 11) [2217D582], AccurateRip returned [E7F85281] (AR v2)
Copy OK
Track 3
Filename g:\eac\03 - Berliner Messe - 3. Erster Alleluiavers.wav
Pre-gap length 0:00:04.20
Peak level 53.2 %
Extraction speed 0.9 X
Track quality 99.8 %
Test CRC CB5494F9
Copy CRC CB5494F9
Cannot be verified as accurate (confidence 11) [13E70E81], AccurateRip returned [3E3804F7] (AR v2)
Copy OK
Track 4
Filename g:\eac\04 - Berliner Messe - 4. Zweiter Alleluiavers.wav
Pre-gap length 0:00:00.52
Peak level 13.9 %
Extraction speed 1.5 X
Track quality 100.0 %
Test CRC 44A87C72
Copy CRC 44A87C72
Cannot be verified as accurate (confidence 11) [02BBEA64], AccurateRip returned [1D703FD7] (AR v2)
Copy OK
Track 5
Filename g:\eac\05 - Berliner Messe - 5. Veni Sancte Spiritus.wav
Pre-gap length 0:00:04.13
Peak level 16.6 %
Extraction speed 1.9 X
Track quality 99.9 %
Test CRC 7E246BDF
Copy CRC 7E246BDF
Cannot be verified as accurate (confidence 11) [6829F073], AccurateRip returned [05706201] (AR v2)
Copy OK
Track 6
Filename g:\eac\06 - Berliner Messe - 6. Credo.wav
Pre-gap length 0:00:04.12
Peak level 54.3 %
Extraction speed 1.8 X
Track quality 99.9 %
Test CRC 09AC8459
Copy CRC 09AC8459
Cannot be verified as accurate (confidence 11) [8F7A33A0], AccurateRip returned [4BEEE21C] (AR v2)
Copy OK
Track 7
Filename g:\eac\07 - Berliner Messe - 7. Sanctus.wav
Pre-gap length 0:00:04.49
Peak level 18.2 %
Extraction speed 2.0 X
Track quality 100.0 %
Test CRC A28FB603
Copy CRC A28FB603
Cannot be verified as accurate (confidence 11) [8CB74F73], AccurateRip returned [57B6F332] (AR v2)
Copy OK
Track 8
Filename g:\eac\08 - Berliner Messe - 8. Agnus Dei.wav
Pre-gap length 0:00:04.58
Peak level 17.4 %
Extraction speed 2.0 X
Track quality 100.0 %
Test CRC 6B232E90
Copy CRC 6B232E90
Cannot be verified as accurate (confidence 11) [B5DF45FB], AccurateRip returned [C0AB356F] (AR v2)
Copy OK
Track 9
Filename g:\eac\09 - The Beatitudes.wav
Pre-gap length 0:00:11.08
Peak level 74.7 %
Extraction speed 2.2 X
Track quality 100.0 %
Test CRC CFB38B95
Copy CRC CFB38B95
Cannot be verified as accurate (confidence 11) [AD041F13], AccurateRip returned [F6FBB867] (AR v2)
Copy OK
Track 10
Filename g:\eac\10 - Annum Per Annum - 1. Einleitung.wav
Pre-gap length 0:00:10.42
Peak level 74.8 %
Extraction speed 1.2 X
Track quality 99.8 %
Test CRC D9710C56
Copy CRC D9710C56
Cannot be verified as accurate (confidence 11) [75A6D95D], AccurateRip returned [C33AB4F4] (AR v2)
Copy OK
Track 11
Filename g:\eac\11 - Annum Per Annum - 2. K(yrie).wav
Peak level 2.4 %
Extraction speed 1.4 X
Track quality 99.9 %
Test CRC 035ED634
Copy CRC 035ED634
Cannot be verified as accurate (confidence 11) [3EC88A59], AccurateRip returned [1188A04B] (AR v2)
Copy OK
Track 12
Filename g:\eac\12 - Annum Per Annum - 3. G(loria).wav
Peak level 3.9 %
Extraction speed 1.7 X
Track quality 100.0 %
Test CRC EBA926B6
Copy CRC EBA926B6
Cannot be verified as accurate (confidence 11) [E720D32F], AccurateRip returned [7EB56170] (AR v2)
Copy OK
Track 13
Filename g:\eac\13 - Annum Per Annum - 4. C(redo).wav
Peak level 11.6 %
Extraction speed 1.8 X
Track quality 100.0 %
Test CRC 522F4A31
Copy CRC 522F4A31
Cannot be verified as accurate (confidence 11) [7CFFBAB8], AccurateRip returned [E57C9F59] (AR v2)
Copy OK
Track 14
Filename g:\eac\14 - Annum Per Annum - 5. S(anctus).wav
Peak level 29.0 %
Extraction speed 1.7 X
Track quality 100.0 %
Test CRC 19163472
Copy CRC 19163472
Cannot be verified as accurate (confidence 11) [EE2B0A80], AccurateRip returned [1F66B93A] (AR v2)
Copy OK
Track 15
Filename g:\eac\15 - Annum Per Annum - 6. A(gnus).wav
Peak level 2.5 %
Extraction speed 1.7 X
Track quality 99.9 %
Test CRC 42957A43
Copy CRC 42957A43
Cannot be verified as accurate (confidence 11) [B095D771], AccurateRip returned [AAC69F9A] (AR v2)
Copy OK
Track 16
Filename g:\eac\16 - Annum Per Annum - 7. Coda.wav
Peak level 87.7 %
Extraction speed 1.6 X
Track quality 100.0 %
Test CRC 0DBE114C
Copy CRC 0DBE114C
Cannot be verified as accurate (confidence 11) [12DE0685], AccurateRip returned [159DE025] (AR v2)
Copy OK
Track 17
Filename g:\eac\17 - Magnificat.wav
Pre-gap length 0:00:10.48
Peak level 70.9 %
Extraction speed 2.1 X
Track quality 99.9 %
Test CRC 337482EE
Copy CRC 337482EE
Cannot be verified as accurate (confidence 11) [E3B9C729], AccurateRip returned [DD5DF9A9] (AR v2)
Copy OK
Track 18
Filename g:\eac\18 - 7 Magnificat-Antiphonen - 1. O Weisheit.wav
Pre-gap length 0:00:07.64
Peak level 4.7 %
Extraction speed 1.5 X
Track quality 99.9 %
Test CRC CD476AA8
Copy CRC CD476AA8
Cannot be verified as accurate (confidence 11) [9C5D4055], AccurateRip returned [5F495B44] (AR v2)
Copy OK
Track 19
Filename g:\eac\19 - 7 Magnificat-Antiphonen - 2. O Adonai.wav
Pre-gap length 0:00:02.30
Peak level 11.9 %
Extraction speed 1.9 X
Track quality 100.0 %
Test CRC 41C1678B
Copy CRC 41C1678B
Cannot be verified as accurate (confidence 11) [49ADF9A5], AccurateRip returned [6A08F924] (AR v2)
Copy OK
Track 20
Filename g:\eac\20 - 7 Magnificat-Antiphonen - 3. O Spross Aus Isais Wurzel.wav
Pre-gap length 0:00:04.40
Peak level 51.1 %
Extraction speed 1.6 X
Track quality 100.0 %
Test CRC 5F6746E0
Copy CRC 5F6746E0
Cannot be verified as accurate (confidence 10) [8928B38B], AccurateRip returned [457931CA] (AR v2)
Copy OK
Track 21
Filename g:\eac\21 - 7 Magnificat-Antiphonen - 4. O Schlussel Davids.wav
Peak level 85.1 %
Extraction speed 1.9 X
Track quality 100.0 %
Test CRC EC2C3436
Copy CRC EC2C3436
Cannot be verified as accurate (confidence 10) [77A7EC1E], AccurateRip returned [ACC5F821] (AR v2)
Copy OK
Track 22
Filename g:\eac\22 - 7 Magnificat-Antiphonen - 5. O Morgenstern.wav
Peak level 6.9 %
Extraction speed 1.9 X
Track quality 100.0 %
Test CRC 7F30F69A
Copy CRC 7F30F69A
Cannot be verified as accurate (confidence 11) [EBFA9AD1], AccurateRip returned [92490E88] (AR v2)
Copy OK
Track 23
Filename g:\eac\23 - 7 Magnificat-Antiphonen - 6. O Konig Aller Volker.wav
Pre-gap length 0:00:03.55
Peak level 21.4 %
Extraction speed 1.7 X
Track quality 100.0 %
Test CRC 100F0AB0
Copy CRC 100F0AB0
Cannot be verified as accurate (confidence 11) [43CCE640], AccurateRip returned [E0DF6A47] (AR v2)
Copy OK
Track 24
Filename g:\eac\24 - 7 Magnificat-Antiphonen - 7. O Immanuel.wav
Pre-gap length 0:00:03.42
Peak level 62.3 %
Extraction speed 2.0 X
Track quality 100.0 %
Test CRC 8FFD0FBA
Copy CRC 8FFD0FBA
Cannot be verified as accurate (confidence 11) [BE9A8520], AccurateRip returned [3A4DA97E] (AR v2)
Copy OK
Track 25
Filename g:\eac\25 - De Profundis.wav
Pre-gap length 0:00:08.55
Peak level 83.2 %
Extraction speed 2.2 X
Track quality 100.0 %
Test CRC 345BF248
Copy CRC 345BF248
Cannot be verified as accurate (confidence 10) [232BB0FF], AccurateRip returned [28B9F1DB] (AR v2)
Copy OK
No tracks could be verified as accurate
You may have a different pressing from the one(s) in the database
No errors occurred
End of status report
==== Log checksum E7394D29A43447D8270116B506F5B9E83DA03272D070DD26DBEE3EB17322C954 ====

Содержание индексной карты (.CUE)

REM GENRE Classical
REM DATE 1998
REM DISCID 5C114119
REM COMMENT "ExactAudioCopy v1.0b3"
PERFORMER "Arvo Part"
TITLE "Berliner Messe, Magnificat Antiphons and other works"
FILE "01 - Berliner Messe - 1. Kyrie.wav" WAVE
TRACK 01 AUDIO
TITLE "Berliner Messe - 1. Kyrie"
PERFORMER "Arvo Part"
PREGAP 00:00:27
INDEX 01 00:00:00
TRACK 02 AUDIO
TITLE "Berliner Messe - 2. Gloria"
PERFORMER "Arvo Part"
INDEX 00 03:23:08
FILE "02 - Berliner Messe - 2. Gloria.wav" WAVE
INDEX 01 00:00:00
TRACK 03 AUDIO
TITLE "Berliner Messe - 3. Erster Alleluiavers"
PERFORMER "Arvo Part"
INDEX 00 03:37:62
FILE "03 - Berliner Messe - 3. Erster Alleluiavers.wav" WAVE
INDEX 01 00:00:00
TRACK 04 AUDIO
TITLE "Berliner Messe - 4. Zweiter Alleluiavers"
PERFORMER "Arvo Part"
INDEX 00 00:54:03
FILE "04 - Berliner Messe - 4. Zweiter Alleluiavers.wav" WAVE
INDEX 01 00:00:00
TRACK 05 AUDIO
TITLE "Berliner Messe - 5. Veni Sancte Spiritus"
PERFORMER "Arvo Part"
INDEX 00 01:05:60
FILE "05 - Berliner Messe - 5. Veni Sancte Spiritus.wav" WAVE
INDEX 01 00:00:00
TRACK 06 AUDIO
TITLE "Berliner Messe - 6. Credo"
PERFORMER "Arvo Part"
INDEX 00 05:29:60
FILE "06 - Berliner Messe - 6. Credo.wav" WAVE
INDEX 01 00:00:00
TRACK 07 AUDIO
TITLE "Berliner Messe - 7. Sanctus"
PERFORMER "Arvo Part"
INDEX 00 03:48:04
FILE "07 - Berliner Messe - 7. Sanctus.wav" WAVE
INDEX 01 00:00:00
TRACK 08 AUDIO
TITLE "Berliner Messe - 8. Agnus Dei"
PERFORMER "Arvo Part"
INDEX 00 03:18:42
FILE "08 - Berliner Messe - 8. Agnus Dei.wav" WAVE
INDEX 01 00:00:00
TRACK 09 AUDIO
TITLE "The Beatitudes"
PERFORMER "Arvo Part"
INDEX 00 02:57:22
FILE "09 - The Beatitudes.wav" WAVE
INDEX 01 00:00:00
TRACK 10 AUDIO
TITLE "Annum Per Annum - 1. Einleitung"
PERFORMER "Arvo Part"
INDEX 00 06:50:50
FILE "10 - Annum Per Annum - 1. Einleitung.wav" WAVE
INDEX 01 00:00:00
FILE "11 - Annum Per Annum - 2. K(yrie).wav" WAVE
TRACK 11 AUDIO
TITLE "Annum Per Annum - 2. K(yrie)"
PERFORMER "Arvo Part"
INDEX 01 00:00:00
FILE "12 - Annum Per Annum - 3. G(loria).wav" WAVE
TRACK 12 AUDIO
TITLE "Annum Per Annum - 3. G(loria)"
PERFORMER "Arvo Part"
INDEX 01 00:00:00
FILE "13 - Annum Per Annum - 4. C(redo).wav" WAVE
TRACK 13 AUDIO
TITLE "Annum Per Annum - 4. C(redo)"
PERFORMER "Arvo Part"
INDEX 01 00:00:00
FILE "14 - Annum Per Annum - 5. S(anctus).wav" WAVE
TRACK 14 AUDIO
TITLE "Annum Per Annum - 5. S(anctus)"
PERFORMER "Arvo Part"
INDEX 01 00:00:00
FILE "15 - Annum Per Annum - 6. A(gnus).wav" WAVE
TRACK 15 AUDIO
TITLE "Annum Per Annum - 6. A(gnus)"
PERFORMER "Arvo Part"
INDEX 01 00:00:00
FILE "16 - Annum Per Annum - 7. Coda.wav" WAVE
TRACK 16 AUDIO
TITLE "Annum Per Annum - 7. Coda"
PERFORMER "Arvo Part"
INDEX 01 00:00:00
TRACK 17 AUDIO
TITLE "Magnificat"
PERFORMER "Arvo Part"
INDEX 00 01:00:40
FILE "17 - Magnificat.wav" WAVE
INDEX 01 00:00:00
TRACK 18 AUDIO
TITLE "7 Magnificat-Antiphonen - 1. O Weisheit"
PERFORMER "Arvo Part"
INDEX 00 06:56:58
FILE "18 - 7 Magnificat-Antiphonen - 1. O Weisheit.wav" WAVE
INDEX 01 00:00:00
TRACK 19 AUDIO
TITLE "7 Magnificat-Antiphonen - 2. O Adonai"
PERFORMER "Arvo Part"
INDEX 00 01:57:58
FILE "19 - 7 Magnificat-Antiphonen - 2. O Adonai.wav" WAVE
INDEX 01 00:00:00
TRACK 20 AUDIO
TITLE "7 Magnificat-Antiphonen - 3. O Spross Aus Isais Wurzel"
PERFORMER "Arvo Part"
INDEX 00 02:18:30
FILE "20 - 7 Magnificat-Antiphonen - 3. O Spross Aus Isais Wurzel.wav" WAVE
INDEX 01 00:00:00
FILE "21 - 7 Magnificat-Antiphonen - 4. O Schlussel Davids.wav" WAVE
TRACK 21 AUDIO
TITLE "7 Magnificat-Antiphonen - 4. O Schlussel Davids"
PERFORMER "Arvo Part"
INDEX 01 00:00:00
FILE "22 - 7 Magnificat-Antiphonen - 5. O Morgenstern.wav" WAVE
TRACK 22 AUDIO
TITLE "7 Magnificat-Antiphonen - 5. O Morgenstern"
PERFORMER "Arvo Part"
INDEX 01 00:00:00
TRACK 23 AUDIO
TITLE "7 Magnificat-Antiphonen - 6. O Konig Aller Volker"
PERFORMER "Arvo Part"
INDEX 00 02:23:70
FILE "23 - 7 Magnificat-Antiphonen - 6. O Konig Aller Volker.wav" WAVE
INDEX 01 00:00:00
TRACK 24 AUDIO
TITLE "7 Magnificat-Antiphonen - 7. O Immanuel"
PERFORMER "Arvo Part"
INDEX 00 01:15:40
FILE "24 - 7 Magnificat-Antiphonen - 7. O Immanuel.wav" WAVE
INDEX 01 00:00:00
TRACK 25 AUDIO
TITLE "De Profundis"
PERFORMER "Arvo Part"
INDEX 00 03:05:70
FILE "25 - De Profundis.wav" WAVE
INDEX 01 00:00:00
[teatrix.ru].t21863.torrent 
Торрент: Зарегистрирован [ 2016-03-20 12:51 ] · BFA2881B051A209D8854B9B365521F1F4A5525B8

Скачать .torrent

Скачать

21 KB

Статус: проверено
Скачан: 1 раз
Размер: 228 MB
terms.php



Быстрый ответ

Имя:

      
Для отправки сообщений необходимо включить JavaScript
Показать сообщения:    

Текущее время: 07-Дек 11:37

Часовой пояс: UTC + 3


Вы можете начинать темы
Вы можете отвечать на сообщения
Вы не можете редактировать свои сообщения
Вы не можете удалять свои сообщения
Вы не можете голосовать в опросах
Вы не можете прикреплять файлы к сообщениям
Вы можете скачивать файлы