(Medieval, Andalusi) Alfonso X el Sabio: Cantigas de Castilla - La Mancha (Musica Antigua, dir. Eduardo Paniagua) - 2000, WavPack (image+.cue) lossless


 

[Цитировать]

Cantigas de Castilla - La Mancha
Alfonso X el Sabio 1221-1284
Eduardo Paniagua
Жанр: Medieval, Andalusí
Страна-производитель диска: Spain
Год издания диска: 2000
Издатель (лейбл): Pneuma
Номер по каталогу: PN-210
Дата записи: February 2000
Аудиокодек: WavPack
Тип рипа: image+.cue
Битрейт аудио: lossless
Продолжительность: 64:26
Источник: собственный рип
Наличие сканов в содержимом раздачи: да

Треклист

01. CSM 142: La Garza del Rio Henares (Instrumental) [2:20]
Gayda, laúd, dulcimer, flauta y agua palmeada
02. CSM 246: La Mujer de Alcazar de San Juan [8:16]
Soprano y coro - Cálamo, flauta, dulcimer, tromba marina y nacarés
03. CSM 179: La Mujer de Molina [5:26]
Tenor y coro - Zanfona, gayda, laúd, darbuga, conchas, sonajero, semillas y carraca
04. CSM 397(192): El Moro de Consuegra [8:01]
Soprano y coro - Flauta de tres agujeros con pandero cuadrado de Peñaparda, chalumeau, gayda, flauta, laúd y pandereta
05. CSM 256: La Reina Doña Beatriz [7:30]
Tenor y coro - Ajabeba, dulcimer, tromba marina, atabal y campanil
06. CSM 205: Ucles y Calatrava - La mora y su Niño [6:19]
Tenor y contratenor - Viola, salterio, santur y campanil
07. CSM 162: La Imagen de Santa María de Cañete [5:01]
Contratenor y tenor - viola, citolón, salterio, adufe y campanil
08. CSM 383: Las Pelegrinas de Sigüenza a Jerusalem [7:28]
Soprano y coro - Ajabeba, flauta, organeto, viola, pandero y agua
09. CSM 178: La Mula del Niño de Alcaraz [7:23]
Contratenor y coro - Organeto, dulcimer, viola, flauta, tromba marina y cascabeles
10. CSM 97: La Calumnia de Mateo, Privado del Rey [6:42]
Tenor y coro - Flauta de tres agujeros con tambor, salterio, dulcimer, citolón y pandereta
CSM: Cantiga de Santa María (Numeradas por W. Mettmann)

Исполнители

MÚSICA ANTIGUA
Director: Eduardo Paniagua
Paula Vega: Soprano
Luis Vincent: Contratenor
César Carazo: Tenor y viola
Wafir Sheik: Laúd y darbuga
Enrique Almendros: Flauta de tres agujeros, tambor y pandero cuadrado de Peñaparda
Jaime Muñoz: Gayda, cálamo, ajabeba y chalumeau
Luis Delgado: Organeto, zanfona, citolón, santur, pandero cuadrado y pandereta
Eduardo Paniagua: Salterio, flauta, dulcimer, campanil, atabal, nacaré, pandereta, cascabel, conchas, sonajeros, semillas, carraca y agua

log EAC

Exact Audio Copy V0.99 prebeta 4 from 23. January 2008
Отчёт EAC об извлечении, выполненном 5. февраля 2009, 13:50
Eduardo Paniagua / Cantigas de Castilla - La Mancha
Дисковод: PIONEER DVD-RW DVR-112D Adapter: 0 ID: 1
Режим чтения : Достоверность
Использование точного потока : Да
Отключение кэша аудио : Да
Использование указателей C2 : Нет
Коррекция смещения при чтении : 48
Способность читать области Lead-in и Lead-out : Нет
Заполнение пропущенных сэмплов тишиной : Да
Удаление блоков с тишиной в начале и конце : Нет
При вычислениях CRC использовались нулевые сэмплы : Да
Интерфейс : Встроенный Win32-интерфейс для Win NT/2000
Выходной формат : Внутренние WAV-операции
Формат сэмплов : 44.100 Гц; 16 бит; стерео
TOC извлечённого CD
Трек | Старт | Длительность | Начальный сектор | Конечный сектор
---------------------------------------------------------------------
1 | 0:00.00 | 2:20.28 | 0 | 10527
2 | 2:20.28 | 8:16.19 | 10528 | 47746
3 | 10:36.47 | 5:26.19 | 47747 | 72215
4 | 16:02.66 | 8:01.00 | 72216 | 108290
5 | 24:03.66 | 7:30.00 | 108291 | 142040
6 | 31:33.66 | 6:19.00 | 142041 | 170465
7 | 37:52.66 | 5:01.00 | 170466 | 193040
8 | 42:53.66 | 7:28.00 | 193041 | 226640
9 | 50:21.66 | 7:22.57 | 226641 | 259847
10 | 57:44.48 | 6:42.00 | 259848 | 289997
Характеристики диапазона извлечения и сообщения об ошибках
Выбранный диапазон
Имя файла C:\Documents and Settings\Индра\Мои документы\Моя музыка\Eduardo Paniagua - Cantigas de Castilla - La Mancha.wav
Пиковый уровень 99.9 %
Качество диапазона 100.0 %
CRC теста 448FAE49
CRC копии 448FAE49
Копирование... OK
Ошибок не произошло
AccurateRip: сводка
Трек 1 точное извлечение (доверие 1) [BC8E7A84]
Трек 2 точное извлечение (доверие 1) [FCC92F0C]
Трек 3 точное извлечение (доверие 1) [EF3F85EC]
Трек 4 точность не определена (достоверность 1) [7849788C], AccurateRip вернул [C008BDFA]
Трек 5 точное извлечение (доверие 1) [745B856E]
Трек 6 точное извлечение (доверие 1) [D24C8D71]
Трек 7 точное извлечение (доверие 1) [749631D2]
Трек 8 точное извлечение (доверие 1) [59531696]
Трек 9 точное извлечение (доверие 1) [663BDD74]
Трек 10 точное извлечение (доверие 1) [5429FE09]
9 трек(и) скопированы точно
1 трек(и) не удалось проверить на точность
Некоторые треки не прошли проверку на точность
Конец отчёта

Audiochecker

AUDIOCHECKER v2.0 beta (build 457) - by Dester - opdester@freemail.hu
~~~~~~~~~~~~~~~~~~~~~~~~~~~~~~~~~~
Начато: суббота, 25. 07. 2015. - 14:48.34
Найдено файлов: 1
1 -===- C:\Documents and Settings\Agni\Мои документы\Foobar\Eduardo Paniagua - Cantigas de Castilla - La Mancha.wav
Заключение: этот трек - CDDA с вероятностью 100%
Завершено: суббота, 25. 07. 2015. - 14:50.44 (Время операции: 0:02.10)

Audiospectre




Показать сообщения:    

Текущее время: 10-Дек 23:32

Часовой пояс: UTC + 3


Вы не можете начинать темы
Вы не можете отвечать на сообщения
Вы не можете редактировать свои сообщения
Вы не можете удалять свои сообщения
Вы не можете голосовать в опросах
Вы не можете прикреплять файлы к сообщениям
Вы не можете скачивать файлы