(Medieval, Andalusi) Alfonso X el Sabio: Santa Maria del Puerto • I (Musica Antigua, dir. Eduardo Paniagua) - 2000, WavPack (image+.cue) lossless


 

[Цитировать]

Santa María del Puerto • I
Alfonso X el Sabio 1221-1284
Eduardo Paniagua
Жанр: Medieval, Andalusí
Страна-производитель диска: Spain
Год издания диска: 2000
Издатель (лейбл): Pneuma
Номер по каталогу: PN-220
Дата записи: June 1996 / February 2000
Аудиокодек: WavPack
Тип рипа: image+.cue
Битрейт аудио: lossless
Продолжительность: 65:39
Источник: собственный рип
Наличие сканов в содержимом раздачи: да

Треклист

1. CSM 151: Clérigo lujurioso (Instrumental) [2:56]
Cítara, chifonía, flauta travesera de caña con zumbador, salterio y cántara
2. CSM 328: Alcanate - Santa María del Puerto [12:40]
Soprano, contratenor, tenor y bajo.
Flauta de tres agujeros con tambor, kaval, laúd, viola, qanun y panderete
3. CSM 358: Cantos labrados [5:44]
Tenor y coro - Viola, qanun, ajabeba, dulcimer, darbuga, espadilla y gong
4. CSM 356: Las maderas del puente [6:49]
Contratenor y coro - Cálamo, laúd , buzuq arbí, suisen, daff y crótalos
5. CSM 364: La torre [7:39]
Tenor y coro - Chirula con tambor, dulcimer, laúd flauta tenor, darbuga, cascabeles y címbalos
6. CSM 377: Villa Real [6:45]
Soprano y coro - Chalumeau, flauta de tres agujeros y tambor, laúd, flauta alto, bendir, castañuelas y platillos
7. CSM 378: San Salvador de Sevilla [8:55]
Contratenor y coro - Gaita, chalumeau, viola, darbuga, tar, cascabeles y címbalos
8. CSM 382: La heredad [9:03]
Tenor y coro - Zanfona, qanun, viola, salterio y chorus
9. CSM 385: La pedrada [5:08]
Soprano y coro - Kabal, laúd, viola, chorus, nacarés, panderete y salterio
CSM: Cantiga de Santa María (Numeradas por W. Mettmann)

Исполнители

MÚSICA ANTIGUA
Director: Eduardo Paniagua
Paula Vega: Soprano
Luis Vincent: Contratenor
César Carazo: Tenor, viola y castañuelas
Germán Torrellas: Bajo
Wafir Sheik: Laúd, suisen y darbuga
Enrique Almendros: Flauta de tres agujeros y tambor, chirula, gaita, chorus y cántara
Jaime Muñoz: Cálamo, ajabeba, kaval, chalumeau y flauta travesera de caña con zumbador
Luis Delgado: Zanfona, chifonía, buzuq arbí, panderete, bendir, daff, címbalos, cascabeles, crótalos, espadilla y gong

log EAC

Exact Audio Copy V0.99 prebeta 4 from 23. January 2008
Отчёт EAC об извлечении, выполненном 5. февраля 2009, 12:12
Eduardo Paniagua / Santa Maria del Puerto - I
Дисковод: PIONEER DVD-RW DVR-112D Adapter: 0 ID: 1
Режим чтения : Достоверность
Использование точного потока : Да
Отключение кэша аудио : Да
Использование указателей C2 : Нет
Коррекция смещения при чтении : 48
Способность читать области Lead-in и Lead-out : Нет
Заполнение пропущенных сэмплов тишиной : Да
Удаление блоков с тишиной в начале и конце : Нет
При вычислениях CRC использовались нулевые сэмплы : Да
Интерфейс : Встроенный Win32-интерфейс для Win NT/2000
Выходной формат : Внутренние WAV-операции
Формат сэмплов : 44.100 Гц; 16 бит; стерео
TOC извлечённого CD
Трек | Старт | Длительность | Начальный сектор | Конечный сектор
---------------------------------------------------------------------
1 | 0:00.00 | 2:55.53 | 0 | 13177
2 | 2:55.53 | 12:40.06 | 13178 | 70183
3 | 15:35.59 | 5:43.72 | 70184 | 95980
4 | 21:19.56 | 6:49.04 | 95981 | 126659
5 | 28:08.60 | 7:39.05 | 126660 | 161089
6 | 35:47.65 | 6:45.19 | 161090 | 191483
7 | 42:33.09 | 8:55.35 | 191484 | 231643
8 | 51:28.44 | 9:02.67 | 231644 | 272360
9 | 60:31.36 | 5:07.52 | 272361 | 295437
Характеристики диапазона извлечения и сообщения об ошибках
Выбранный диапазон
Имя файла C:\Documents and Settings\Индра\Мои документы\Моя музыка\Eduardo Paniagua - Santa Maria del Puerto - I.wav
Пиковый уровень 100.0 %
Качество диапазона 100.0 %
CRC теста 75904621
CRC копии 75904621
Копирование... OK
Ошибок не произошло
AccurateRip: сводка
Трек 1 точное извлечение (доверие 1) [B7AA0F29]
Трек 2 точное извлечение (доверие 1) [0C630816]
Трек 3 точное извлечение (доверие 1) [A4E52BBC]
Трек 4 точное извлечение (доверие 1) [0771DCCF]
Трек 5 точное извлечение (доверие 1) [6642C2C5]
Трек 6 точное извлечение (доверие 1) [5BDE5404]
Трек 7 точное извлечение (доверие 1) [48302CF3]
Трек 8 точное извлечение (доверие 1) [7883194F]
Трек 9 точное извлечение (доверие 1) [D1D65ED7]
Все треки извлечены точно
Конец отчёта

Audiochecker

AUDIOCHECKER v2.0 beta (build 457) - by Dester - opdester@freemail.hu
~~~~~~~~~~~~~~~~~~~~~~~~~~~~~~~~~~
Начато: суббота, 25. 07. 2015. - 18:28.28
Найдено файлов: 1
1 -===- C:\Documents and Settings\Agni\Мои документы\Foobar\Eduardo Paniagua - Santa Maria del Puerto - I.wav
Заключение: этот трек - CDDA с вероятностью 100%
Завершено: суббота, 25. 07. 2015. - 18:30.43 (Время операции: 0:02.14)

Audiospectre




Показать сообщения:    

Текущее время: 05-Дек 01:26

Часовой пояс: UTC + 3


Вы не можете начинать темы
Вы не можете отвечать на сообщения
Вы не можете редактировать свои сообщения
Вы не можете удалять свои сообщения
Вы не можете голосовать в опросах
Вы не можете прикреплять файлы к сообщениям
Вы не можете скачивать файлы