(Medieval, Andalusi) Alfonso X el Sabio: Cantigas del Mar Cantabrico (Musica Antigua, dir. Eduardo Paniagua) - 2009, WavPack (image+.cue) lossless


 

[Цитировать]

Cantigas del Mar CantábricoAlfonso X el Sabio 1221-1284
Eduardo Paniagua

Жанр: Medieval, Andalusí
Страна-производитель диска: Spain
Год издания диска: 2009
Издатель (лейбл): Pneuma
Номер по каталогу: PN-1170
Дата записи: 2009
Аудиокодек: WavPack
Тип рипа: image+.cue
Битрейт аудио: lossless
Продолжительность: 60:31
Источник: собственный рип
Наличие сканов в содержимом раздачи: да

Треклист

1. CSM 209: Don Alfonso de Castilla Enfermo en Vitoria «Muito faz grand' erro» [7:11]
Canto, vihuela, axabeba, flauta y campanil
2. CSM 112: Los Marineros de Colliure «Nas coitas devemos chamar» [4:47]
Canto y coro, viola, salterio, flautas, fhal, cántara y agua palmeada
3. CSM 93: Mil Ave Marías «Nuilla enfermidade» [7:17]
Canto y coro, viola, salterio, flauta y campanil
4. CSM 248: Los Marineros de Laredo «Sen muito ben que nos face» [6:50]
Canto y coro, viola, vihuela, órgano de mano, chalumeau, flauta darbuga daf y gong
5. CSM 254: Dos Monjes Renegados «O nome da Virgen santa» [5:27]
Canto y coro, violas, flauta, fhal, salterio, darbuga, platillos, crótalos y cascabeles
6. CSM 274: El Fraile de Burgos (Instrumental) [5:34]
Vihuela, órgano de mano, cálamo, salterio, darbuga y cántara
7. CSM 263: Curación en Cudeyo de Santander «Muit' é ben-aventurado» [7:51]
Canto y coro, viola, vihuela, salterio, órgano de mano, axabeba, flauta, darbuga y panderos
8. CSM 244: La Taberna de Laredo (versión cantada) «Gran dereit' é que mal venna» [7:01]
Canto, violas, chalumeau, vihuela, pandero y campanil
9. CSM 343: La Manceba de Cahors «A Madre do que o demo» [8:32]
Canto y coro, violas, salterio, flautas, darbuga y cántara
CSM = Cantiga de Santa María (Numeradas por W. Mettmann)

Исполнители

MÚSICA ANTIGUA
Director: Eduardo Paniagua
Cesar Carazo: canto y coro, viola
Luis Antonio Muñoz: canto y coro, viola
Javier Coble: órgano de mano y campanil
Felipe Sánchez: vihuela de péñola
Jaime Muñoz: axabeba, cálamo y chalumeau
Eduardo Paniagua: salterio, fhal, flautas, darbuga, cántara, agua palmeada, platillos, crótalos, cascabeles, campanil y gong
Invitado:
David Mayoral: darbugas, panderos y daf (274, 248 y 263)

log EAC

Exact Audio Copy V0.99 prebeta 5 from 4. May 2009
Отчёт EAC об извлечении, выполненном 16. марта 2013, 16:39
Eduardo Paniagua / Cantigas del Mar Cantabrico
Дисковод: PIONEER DVD-RW DVR-219L Adapter: 3 ID: 0
Режим чтения : Достоверность
Использование точного потока : Да
Отключение кэша аудио : Да
Использование указателей C2 : Нет
Коррекция смещения при чтении : 6
Способность читать области Lead-in и Lead-out : Нет
Заполнение пропущенных сэмплов тишиной : Да
Удаление блоков с тишиной в начале и конце : Нет
При вычислениях CRC использовались нулевые сэмплы : Да
Интерфейс : Встроенный Win32-интерфейс для Win NT/2000
Выходной формат : Внутренние WAV-операции
Формат сэмплов : 44.100 Гц; 16 бит; стерео
TOC извлечённого CD
Трек | Старт | Длительность | Начальный сектор | Конечный сектор
---------------------------------------------------------------------
1 | 0:00.00 | 7:11.30 | 0 | 32354
2 | 7:11.30 | 4:47.27 | 32355 | 53906
3 | 11:58.57 | 7:16.50 | 53907 | 86656
4 | 19:15.32 | 6:50.23 | 86657 | 117429
5 | 26:05.55 | 5:26.40 | 117430 | 141919
6 | 31:32.20 | 5:34.17 | 141920 | 166986
7 | 37:06.37 | 7:51.36 | 166987 | 202347
8 | 44:57.73 | 7:01.36 | 202348 | 233958
9 | 51:59.34 | 8:31.74 | 233959 | 272357
Характеристики диапазона извлечения и сообщения об ошибках
Выбранный диапазон
Имя файла C:\Documents and Settings\agni\Мои документы\EAC\Eduardo Paniagua - Cantigas del Mar Cantabrico.wav
Пиковый уровень 100.0 %
Качество диапазона 99.9 %
CRC теста 959A79FF
CRC копии 959A79FF
Копирование... OK
Ошибок не произошло
AccurateRip: сводка
Трек 1 нет в базе данных
Трек 2 нет в базе данных
Трек 3 нет в базе данных
Трек 4 нет в базе данных
Трек 5 нет в базе данных
Трек 6 нет в базе данных
Трек 7 нет в базе данных
Трек 8 нет в базе данных
Трек 9 нет в базе данных
Ни одного трека нет в базе AccurateRip
Конец отчёта

Audiochecker

AUDIOCHECKER v2.0 beta (build 457) - by Dester - opdester@freemail.hu
~~~~~~~~~~~~~~~~~~~~~~~~~~~~~~~~~~
Начато: суббота, 25. 07. 2015. - 18:07.01
Найдено файлов: 1
1 -===- C:\Documents and Settings\Agni\Мои документы\Foobar\Eduardo Paniagua - Cantigas del Mar Cantabrico.wav
Заключение: этот трек - CDDA с вероятностью 100%
Завершено: суббота, 25. 07. 2015. - 18:08.58 (Время операции: 0:01.57)

Audiospectre




Показать сообщения:    

Текущее время: 22-Янв 04:39

Часовой пояс: UTC + 3


Вы не можете начинать темы
Вы не можете отвечать на сообщения
Вы не можете редактировать свои сообщения
Вы не можете удалять свои сообщения
Вы не можете голосовать в опросах
Вы не можете прикреплять файлы к сообщениям
Вы не можете скачивать файлы