(Medieval) Alfonso X el Sabio: Cantigas de mujeres (Musica Antigua, dir. Eduardo Paniagua) - 2010, WavPack (image+.cue) lossless


 

[Цитировать]

Cantigas de mujeres
Alfonso X el Sabio 1221-1284
Eduardo Paniagua
Samira Kadiri • Cesar Carazo
Жанр: Medieval
Страна-производитель диска: Spain
Год издания диска: 2010
Издатель (лейбл): Pneuma
Номер по каталогу: PN-1230
Дата записи: 2010
Аудиокодек: WavPack
Тип рипа: image+.cue
Битрейт аудио: lossless
Продолжительность: 60:40
Источник: собственный рип
Наличие сканов в содержимом раздачи: да

Треклист

1. CSM 203: La Harina «Quen polo amor» [6:31]
Canto y coro, salterio, ajabeba, darbuga, zarb y pandereta
2. CSM 186: La Esposa Calumniada «Quen na Virgen santa» [11:04]
Canto y coro, viola, salterio, flautas, fhal, cántara y agua palmeada
3. CSM 188: Corazón de Doncella «Coraçon d' om' ou de moller» [11:43]
Canto y coro, cítara, viola y cántara
4. CSM 107: Marisaltos, La Judía de Segovia «Quen crever na Virgen santa» [6:12]
Canto y coro, salterio, flautas, fhal, ajabeba, darbuga y zarb
5. CSM 79: La Niña Musa «Ay, Santa Maria» [4:29]
Canto y coro, kaval, salamilla, bendir y tar
6. CSM 201: Virginidad Prometida (Instrumental) [6:18]
Chalumeau, ajabeba, cálamo y bendir
7. CSM 167: La Mora de Borja «Quen quer que na Virgen» [4:57]
Canto y coro, viola, ajabeba, gaita, darbuga y tar
8. CSM 94: La Monja Tesorera «De vergonna nos guardar» [9:27]
Canto y coro, salterio, flautas, fhal, ajabeba, zarb y daf
CSM: Cantiga de Santa María (Numeradas por W. Mettmann)

Исполнители

MÚSICA ANTIGUA. Director: Eduardo Paniagua
Samira Kadiri: canto
Cesar Carazo: canto y viola
Jaime Muñoz: ajabeba, cálamo, kaval y chalumeau
Alfonso Tomas: flautas
Eduardo Paniagua: salterio, cítara, fhal, salamilla, tar, darbuga y bendir
David Mayoral: cántara, darbugas, zarb, daf y pandereta
Colaboran:
Quique Almendros: gaita (167)
Luis Delgado: bendir (79), tar (167)

log EAC

Exact Audio Copy V0.99 prebeta 5 from 4. May 2009
Отчёт EAC об извлечении, выполненном 16. марта 2013, 17:25
Eduardo Paniagua / Cantigas de mujeres
Дисковод: PIONEER DVD-RW DVR-219L Adapter: 3 ID: 0
Режим чтения : Достоверность
Использование точного потока : Да
Отключение кэша аудио : Да
Использование указателей C2 : Нет
Коррекция смещения при чтении : 6
Способность читать области Lead-in и Lead-out : Нет
Заполнение пропущенных сэмплов тишиной : Да
Удаление блоков с тишиной в начале и конце : Нет
При вычислениях CRC использовались нулевые сэмплы : Да
Интерфейс : Встроенный Win32-интерфейс для Win NT/2000
Выходной формат : Внутренние WAV-операции
Формат сэмплов : 44.100 Гц; 16 бит; стерео
TOC извлечённого CD
Трек | Старт | Длительность | Начальный сектор | Конечный сектор
---------------------------------------------------------------------
1 | 0:00.00 | 6:31.08 | 0 | 29332
2 | 6:31.08 | 11:04.26 | 29333 | 79158
3 | 17:35.34 | 11:43.06 | 79159 | 131889
4 | 29:18.40 | 6:11.38 | 131890 | 159752
5 | 35:30.03 | 4:28.51 | 159753 | 179903
6 | 39:58.54 | 6:17.73 | 179904 | 208251
7 | 46:16.52 | 4:56.61 | 208252 | 230512
8 | 51:13.38 | 9:26.52 | 230513 | 273014
Характеристики диапазона извлечения и сообщения об ошибках
Выбранный диапазон
Имя файла C:\Documents and Settings\agni\Мои документы\EAC\Eduardo Paniagua - Cantigas de mujeres.wav
Пиковый уровень 100.0 %
Качество диапазона 100.0 %
CRC теста 6CBCAE21
CRC копии 6CBCAE21
Копирование... OK
Ошибок не произошло
AccurateRip: сводка
Трек 1 точность не определена (достоверность 1) [BFCEFCE2], AccurateRip вернул [AC636420]
Трек 2 точность не определена (достоверность 1) [DB462FFF], AccurateRip вернул [2821100E]
Трек 3 точность не определена (достоверность 1) [DF2D866F], AccurateRip вернул [6897FB4B]
Трек 4 точность не определена (достоверность 1) [8A4DCABF], AccurateRip вернул [B9BBD5A3]
Трек 5 точность не определена (достоверность 1) [C6B8C08B], AccurateRip вернул [9CA3E551]
Трек 6 точность не определена (достоверность 1) [1E010DEB], AccurateRip вернул [948813F3]
Трек 7 точность не определена (достоверность 1) [31E7A867], AccurateRip вернул [554BD92D]
Трек 8 точность не определена (достоверность 1) [012E60ED], AccurateRip вернул [576B5C8D]
Ни один трек не прошёл проверки на точность
В вашей базе может быть иной вариант штамповки диска
Конец отчёта

Audiochecker

AUDIOCHECKER v2.0 beta (build 457) - by Dester - opdester@freemail.hu
~~~~~~~~~~~~~~~~~~~~~~~~~~~~~~~~~~
Начато: суббота, 25. 07. 2015. - 17:55.12
Найдено файлов: 1
1 -===- C:\Documents and Settings\Agni\Мои документы\Foobar\Eduardo Paniagua - Cantigas de mujeres.wav
Заключение: этот трек - CDDA с вероятностью 100%
Завершено: суббота, 25. 07. 2015. - 17:57.18 (Время операции: 0:02.05)

Audiospectre




Показать сообщения:    

Текущее время: 03-Дек 16:47

Часовой пояс: UTC + 3


Вы не можете начинать темы
Вы не можете отвечать на сообщения
Вы не можете редактировать свои сообщения
Вы не можете удалять свои сообщения
Вы не можете голосовать в опросах
Вы не можете прикреплять файлы к сообщениям
Вы не можете скачивать файлы