(Classical) J. Obrecht, J. Dalza, J. Tinctoris, J. Desprez, M. Pesenti, G. Mena, L. de Milan, H. Isaac, D. Ortiz, B. Tromboncino, L. Compere, J. del Enzina - L'amore mi fa sollazar (Eduardo Paniagua) - 2011, WavPack (image+.cue) lossless


 

[Цитировать]

«L'amore mi fa sollazar»
Concierto de música renacentista para instrumentos diseñados por
Leonardo da Vinci
Eduardo Paniagua Жанр: Classical
Страна-производитель диска: Spain
Год издания диска: 2011
Издатель (лейбл): Pneuma
Номер по каталогу: PN-1320
Дата записи: February 2011
Аудиокодек: WavPack
Тип рипа: image+.cue
Битрейт аудио: lossless
Продолжительность: 59:25
Источник: собственный рип
Наличие сканов в содержимом раздачи: да

Треклист

01. Rompeltier. Jacob Obrecht (1430-1505) [2:12]
Órgano de Leonardo, laúd, flautas soprano y tenor, tambores, pandereta, gong y campanil
02. Tastar de corde. Joanambrosio Dalza (hacia 1500). Intabolatura de lauto, Milán 1508 [1:25]
Vihuela de mano
03. Piva a la ferrarese. Joanambrosio Dalza (hacia 1500). Intabolatura de lauto, Milán 1508 [2:14]
Órgano de Leonardo, vihuela, viola da gamba, pandero, pandereta y campanil
04. L'amor, donna, chio te porto, Anónimo. Cancionero Musical de Palacio, Bibl. Real, Madrid, siglo XV [3:42]
Canto, organetto, vihuela, viola da gamba, flauta tenor, tambores, pandereta y crótalos
05. Io mi voglio lamentare, Anónimo. Cancionero Musical de Palacio, Bibl. Real, Madrid, siglo XV [1:57]
Canto, lyra da braccio, vihuela y flauta tenor
06. Guarda, donna, il mio tormento. Anónimo. Cancionero Musical de Palacio, Bibl. Real, Madrid, siglo XV [4:01]
Canto, organetto, vihuela, viola da gamba, flautas tenor,tambor y pandereta
07. Virgo Dei trono digna. Johannes Tinctoris, (1435-1511) [2:17]
Lyra da braccio, laúd y flauta tenor
08. Lle fantazies de Joskin. Josquin Desprez (h.1450-1521) [4:09]
Órgano de Leonardo, vihuela de péñola, flautas tenor y tambor
09. Inhospitas per alpes. Michele Pesenti (h.1470-h.1524). Petrucci, Libro I, Venecia 1501 [1:56]
Canto, lyra da braccio, vihuela y flauta tenor
10. De la dulce mi enemiga. Gabriel Mena (h.1496), Cancionero Musical de Palacio, Bibl. Real, Madrid, siglo XV [2:30]
Organetto, laúd, vihuela de péñola, viola da gamba, flautas alto, tambores y gong
11. Madonna per voi ardo. Soneto, Luis de Milan (h.1500-1561) [3:36]
Canto, lyra da braccio y vihuela
12. Recordans de mia segnora. Canone doppia. Josquin Desprez (h.1450-1521) [3:31]
Órgano de Leonardo, lyra da braccio, vihuela de péñola, viola da gamba, flauta tenor, pandero, pandereta, cántara y gong
13. Carmen in fa. Henricus Isaac (h.1450-1517). Petrucci, Venecia 1501 [4:02]
Órgano de Leonardo, vihuela de péñola, viola da gamba, flauta soprano, tambor, pandereta y cántara
14. Recercadas 1 y 2 sobre la Spagna, Diego Ortiz Toledano (h.1510-h.1570), Tratado de Glosas, Roma 1553 [4:16]
Viola organista, flautas tenor y soprano, tambor, pandereta y campanil
15. Non val aqua. Frottole. Bartolomeo Tromboncino (h.1470-h.1535) [3:58]
Canto, organetto, laúd, vihuela, pandero, cántara y gong
16. Duo III. Choralis Constantinus. Heinrich Isaac (h.1450) [2:02]
Viola organista, flautas tenor y alto, pandero, pandereta y gong
17. Lasse'ín questo carnovale. Canto carnascialeschi come le foresi di Narcetri [3:33]
Texto de Lorenzo il Magnifico (1469-1492), música di Anónimo. Cod. Magliab. 141. Firenze, 1512
Canto, órgano de Leonardo, vihuela, viola da gamba, flautas soprano y alto, tambores y panderetas
18. Duo IV. Choralis Constantinus. Heinrich Isaac (h.1450) [3:15]
Viola organista, flautas alto, pandero y tambor
19. J'ay un syon sur la porte. Canone doppia, Loyset Compère (1445-1518) [2:11]
Viola organista, organetto, laúd, viola da gamba, flauta tenor y tambor
20. Fata la parte. Juan del Enzina (1468-1529), Cancionero Musical de Palacio, Bibl. Real, Madrid, siglo XV [2:38]
Canto, organetto, laúd, viola da gamba, flauta tenor, tambores, panderetas y gong

Исполнители

MÚSICA ANTIGUA
Director: Eduardo Paniagua
Luis Antonio Muñoz: canto, lyra da braccio, viola organista y viola da gamba
Javier Colbe: órgano de mano de Leonardo, organetto y viola organista
Felipe Sánchez Mascuñano: laúd, vihuela de mano y vihuela de péñola
David Mayoral: cántara, tambores, panderos y panderetas
Alfonso Tomas: flautas, cascabeles, gong y campanil
Eduardo Paniagua: flautas, campana y campanil

log EAC

Exact Audio Copy V0.99 prebeta 5 from 4. May 2009
Отчёт EAC об извлечении, выполненном 16. марта 2013, 15:50
Eduardo Paniagua / L'amore mi fa sollazar
Дисковод: PIONEER DVD-RW DVR-219L Adapter: 3 ID: 0
Режим чтения : Достоверность
Использование точного потока : Да
Отключение кэша аудио : Да
Использование указателей C2 : Нет
Коррекция смещения при чтении : 6
Способность читать области Lead-in и Lead-out : Нет
Заполнение пропущенных сэмплов тишиной : Да
Удаление блоков с тишиной в начале и конце : Нет
При вычислениях CRC использовались нулевые сэмплы : Да
Интерфейс : Встроенный Win32-интерфейс для Win NT/2000
Выходной формат : Внутренние WAV-операции
Формат сэмплов : 44.100 Гц; 16 бит; стерео
TOC извлечённого CD
Трек | Старт | Длительность | Начальный сектор | Конечный сектор
---------------------------------------------------------------------
1 | 0:00.00 | 2:12.10 | 0 | 9909
2 | 2:12.10 | 1:24.47 | 9910 | 16256
3 | 3:36.57 | 2:14.35 | 16257 | 26341
4 | 5:51.17 | 3:42.36 | 26342 | 43027
5 | 9:33.53 | 1:57.00 | 43028 | 51802
6 | 11:30.53 | 4:00.44 | 51803 | 69846
7 | 15:31.22 | 2:17.19 | 69847 | 80140
8 | 17:48.41 | 4:08.52 | 80141 | 98792
9 | 21:57.18 | 1:56.18 | 98793 | 107510
10 | 23:53.36 | 2:29.61 | 107511 | 118746
11 | 26:23.22 | 3:36.22 | 118747 | 134968
12 | 29:59.44 | 3:31.26 | 134969 | 150819
13 | 33:30.70 | 4:02.32 | 150820 | 169001
14 | 37:33.27 | 4:15.40 | 169002 | 188166
15 | 41:48.67 | 3:57.59 | 188167 | 206000
16 | 45:46.51 | 2:01.44 | 206001 | 215119
17 | 47:48.20 | 3:33.04 | 215120 | 231098
18 | 51:21.24 | 3:15.27 | 231099 | 245750
19 | 54:36.51 | 2:11.29 | 245751 | 255604
20 | 56:48.05 | 2:37.41 | 255605 | 267420
Характеристики диапазона извлечения и сообщения об ошибках
Выбранный диапазон
Имя файла C:\Documents and Settings\agni\Мои документы\EAC\Eduardo Paniagua - L'amore mi fa sollazar.wav
Пиковый уровень 100.0 %
Качество диапазона 100.0 %
CRC теста F13BB400
CRC копии F13BB400
Копирование... OK
Ошибок не произошло
AccurateRip: сводка
Трек 1 нет в базе данных
Трек 2 нет в базе данных
Трек 3 нет в базе данных
Трек 4 нет в базе данных
Трек 5 нет в базе данных
Трек 6 нет в базе данных
Трек 7 нет в базе данных
Трек 8 нет в базе данных
Трек 9 нет в базе данных
Трек 10 нет в базе данных
Трек 11 нет в базе данных
Трек 12 нет в базе данных
Трек 13 нет в базе данных
Трек 14 нет в базе данных
Трек 15 нет в базе данных
Трек 16 нет в базе данных
Трек 17 нет в базе данных
Трек 18 нет в базе данных
Трек 19 нет в базе данных
Трек 20 нет в базе данных
Ни одного трека нет в базе AccurateRip
Конец отчёта

Audiochecker

AUDIOCHECKER v2.0 beta (build 457) - by Dester - opdester@freemail.hu
~~~~~~~~~~~~~~~~~~~~~~~~~~~~~~~~~~
Начато: суббота, 25. 07. 2015. - 18:15.57
Найдено файлов: 1
1 -===- C:\Documents and Settings\Agni\Мои документы\Foobar\Eduardo Paniagua - L'amore mi fa sollazar.wav
Заключение: этот трек - CDDA с вероятностью 99%
Завершено: суббота, 25. 07. 2015. - 18:17.59 (Время операции: 0:02.01)

Audiospectre




Показать сообщения:    

Текущее время: 10-Дек 21:35

Часовой пояс: UTC + 3


Вы не можете начинать темы
Вы не можете отвечать на сообщения
Вы не можете редактировать свои сообщения
Вы не можете удалять свои сообщения
Вы не можете голосовать в опросах
Вы не можете прикреплять файлы к сообщениям
Вы не можете скачивать файлы