(Opera) Giuseppe Verdi - Attila / Джузеппе Верди - Аттила (Giuseppe Sinopoli; Nicolai Ghiaurov, Piero Cappuccilli, Mara Zampieri, Piero Visconti), 1980 - live from Wiener Staatsoper / 1994, FLAC (tracks+.cue), lossless


 

[Цитировать]

Giuseppe Verdi - Attila / Джузеппе Верди - Аттила (Giuseppe Sinopoli; Nicolai Ghiaurov, Piero Cappuccilli, Mara Zampieri, Piero Visconti)
Жанр: Opera
Страна-производитель диска: Италия
Год издания диска: 1994
Издатель (лейбл): Cin-Cin
Дата записи: 1980
Аудиокодек: FLAC
Тип рипа: tracks+.cue
Битрейт аудио: lossless
Продолжительность: 104:16
Источник: релизер (Guillermo)
Исполнители:
Attila - Nicolai Ghiaurov,
Ezio - Piero Cappuccilli,
Odabella - Mara Zampieri,
Foresto - Piero Visconti,
Uldino - Josef Hopferwieser,
Leone - Alfred Sramek.
Giuseppe Sinopoli, Conductor
Orchestra and Chorus of Wiener Staatsoper
Recorded live at Wiener Staatsoper, December 21, 1980.

Лог создания рипаЛог создания рипа CD 1

Exact Audio Copy V1.0 beta 3 from 29. August 2011
EAC extraction logfile from 26. July 2015, 10:59
Artista desconocido / Título desconocido
Used drive : HL-DT-STDVDRAM GH24NSC0 Adapter: 3 ID: 0
Read mode : Secure
Utilize accurate stream : Yes
Defeat audio cache : Yes
Make use of C2 pointers : No
Read offset correction : 6
Overread into Lead-In and Lead-Out : No
Fill up missing offset samples with silence : Yes
Delete leading and trailing silent blocks : No
Null samples used in CRC calculations : Yes
Used interface : Native Win32 interface for Win NT & 2000
Gap handling : Appended to previous track
Used output format : User Defined Encoder
Selected bitrate : 768 kBit/s
Quality : High
Add ID3 tag : No
Command line compressor : C:\Program Files (x86)\Exact Audio Copy\FLAC\FLAC.EXE
Additional command line options : -8 -V -T "ARTIST=%artist%" -T "TITLE=%title%" -T "ALBUM=%albumtitle%" -T "DATE=%year%" -T "TRACKNUMBER=%tracknr%" -T "GENRE=%genre%" -T "PERFORMER=%albuminterpret%" -T "COMPOSER=%composer%" %haslyrics%--tag-from-file=LYRICS="%lyricsfile%"%haslyrics% -T "ALBUMARTIST=%albumartist%" -T "DISCNUMBER=%cdnumber%" -T "TOTALDISCS=%totalcds%" -T "TOTALTRACKS=%numtracks%" -T "COMMENT=%comment%" %source% -o %dest%
TOC of the extracted CD
Track | Start | Length | Start sector | End sector
---------------------------------------------------------
1 | 0:00.33 | 3:16.00 | 33 | 14732
2 | 3:16.33 | 5:10.00 | 14733 | 37982
3 | 8:26.33 | 5:32.20 | 37983 | 62902
4 | 13:58.53 | 7:33.67 | 62903 | 96944
5 | 21:32.45 | 6:56.25 | 96945 | 128169
6 | 28:28.70 | 6:45.38 | 128170 | 158582
7 | 35:14.33 | 5:59.25 | 158583 | 185532
8 | 41:13.58 | 8:10.37 | 185533 | 222319
9 | 49:24.20 | 6:25.58 | 222320 | 251252
10 | 55:50.03 | 4:06.05 | 251253 | 269707
11 | 59:56.08 | 4:47.25 | 269708 | 291257
Track 1
Filename f:\Users\Guillermo\Desktop\EAC convertidos\01 Pista01.wav
Pre-gap length 0:00:02.44
Peak level 72.7 %
Extraction speed 0.8 X
Track quality 99.5 %
Test CRC 416BA7C7
Copy CRC 416BA7C7
Copy OK
Track 2
Filename f:\Users\Guillermo\Desktop\EAC convertidos\02 Pista02.wav
Peak level 80.0 %
Extraction speed 1.9 X
Track quality 100.0 %
Test CRC 2919F025
Copy CRC 2919F025
Copy OK
Track 3
Filename f:\Users\Guillermo\Desktop\EAC convertidos\03 Pista03.wav
Peak level 82.6 %
Extraction speed 2.1 X
Track quality 100.0 %
Test CRC FAA2E456
Copy CRC FAA2E456
Copy OK
Track 4
Filename f:\Users\Guillermo\Desktop\EAC convertidos\04 Pista04.wav
Peak level 81.7 %
Extraction speed 2.4 X
Track quality 100.0 %
Test CRC 62E3D1D4
Copy CRC 62E3D1D4
Copy OK
Track 5
Filename f:\Users\Guillermo\Desktop\EAC convertidos\05 Pista05.wav
Peak level 84.5 %
Extraction speed 2.6 X
Track quality 100.0 %
Test CRC D84CBE07
Copy CRC D84CBE07
Copy OK
Track 6
Filename f:\Users\Guillermo\Desktop\EAC convertidos\06 Pista06.wav
Peak level 90.1 %
Extraction speed 2.8 X
Track quality 100.0 %
Test CRC B68BEDE7
Copy CRC B68BEDE7
Copy OK
Track 7
Filename f:\Users\Guillermo\Desktop\EAC convertidos\07 Pista07.wav
Pre-gap length 0:00:02.98
Peak level 73.8 %
Extraction speed 2.9 X
Track quality 100.0 %
Test CRC 448A4264
Copy CRC 448A4264
Copy OK
Track 8
Filename f:\Users\Guillermo\Desktop\EAC convertidos\08 Pista08.wav
Peak level 81.2 %
Extraction speed 3.2 X
Track quality 100.0 %
Test CRC 3E8985FE
Copy CRC 3E8985FE
Copy OK
Track 9
Filename f:\Users\Guillermo\Desktop\EAC convertidos\09 Pista09.wav
Peak level 87.6 %
Extraction speed 3.3 X
Track quality 100.0 %
Test CRC 22F64746
Copy CRC 22F64746
Copy OK
Track 10
Filename f:\Users\Guillermo\Desktop\EAC convertidos\10 Pista10.wav
Peak level 84.6 %
Extraction speed 3.2 X
Track quality 100.0 %
Test CRC 21FE24C3
Copy CRC 21FE24C3
Copy OK
Track 11
Filename f:\Users\Guillermo\Desktop\EAC convertidos\11 Pista11.wav
Peak level 83.8 %
Extraction speed 3.4 X
Track quality 100.0 %
Test CRC 29DA5AE1
Copy CRC 29DA5AE1
Copy OK
No errors occurred
End of status report
==== Log checksum 93996E02C51061EC80FE5ED4011EFEB09C48BDF8401FD3E97748A01ADDC02B0F ====

Лог создания рипа CD 2

Exact Audio Copy V1.0 beta 3 from 29. August 2011
EAC extraction logfile from 26. July 2015, 11:54
Artista desconocido / Título desconocido
Used drive : HL-DT-STDVDRAM GH24NSC0 Adapter: 3 ID: 0
Read mode : Secure
Utilize accurate stream : Yes
Defeat audio cache : Yes
Make use of C2 pointers : No
Read offset correction : 6
Overread into Lead-In and Lead-Out : No
Fill up missing offset samples with silence : Yes
Delete leading and trailing silent blocks : No
Null samples used in CRC calculations : Yes
Used interface : Native Win32 interface for Win NT & 2000
Gap handling : Appended to previous track
Used output format : User Defined Encoder
Selected bitrate : 768 kBit/s
Quality : High
Add ID3 tag : No
Command line compressor : C:\Program Files (x86)\Exact Audio Copy\FLAC\FLAC.EXE
Additional command line options : -8 -V -T "ARTIST=%artist%" -T "TITLE=%title%" -T "ALBUM=%albumtitle%" -T "DATE=%year%" -T "TRACKNUMBER=%tracknr%" -T "GENRE=%genre%" -T "PERFORMER=%albuminterpret%" -T "COMPOSER=%composer%" %haslyrics%--tag-from-file=LYRICS="%lyricsfile%"%haslyrics% -T "ALBUMARTIST=%albumartist%" -T "DISCNUMBER=%cdnumber%" -T "TOTALDISCS=%totalcds%" -T "TOTALTRACKS=%numtracks%" -T "COMMENT=%comment%" %source% -o %dest%
TOC of the extracted CD
Track | Start | Length | Start sector | End sector
---------------------------------------------------------
1 | 0:00.33 | 10:05.00 | 33 | 45407
2 | 10:05.33 | 8:13.50 | 45408 | 82432
3 | 18:19.08 | 5:01.25 | 82433 | 105032
4 | 23:20.33 | 5:27.20 | 105033 | 129577
5 | 28:47.53 | 5:55.17 | 129578 | 156219
6 | 34:42.70 | 4:33.38 | 156220 | 176732
Track 1
Filename f:\Users\Guillermo\Desktop\EAC convertidos\01 Pista01.wav
Pre-gap length 0:00:02.44
Peak level 85.7 %
Extraction speed 2.0 X
Track quality 100.0 %
Test CRC B938BCAA
Copy CRC B938BCAA
Copy OK
Track 2
Filename f:\Users\Guillermo\Desktop\EAC convertidos\02 Pista02.wav
Peak level 85.9 %
Extraction speed 2.3 X
Track quality 100.0 %
Test CRC 5F97D5E6
Copy CRC 5F97D5E6
Copy OK
Track 3
Filename f:\Users\Guillermo\Desktop\EAC convertidos\03 Pista03.wav
Peak level 99.0 %
Extraction speed 2.4 X
Track quality 100.0 %
Test CRC 493AD998
Copy CRC 493AD998
Copy OK
Track 4
Filename f:\Users\Guillermo\Desktop\EAC convertidos\04 Pista04.wav
Pre-gap length 0:00:03.00
Peak level 64.3 %
Extraction speed 2.3 X
Track quality 99.9 %
Test CRC AE34D762
Copy CRC AE34D762
Copy OK
Track 5
Filename f:\Users\Guillermo\Desktop\EAC convertidos\05 Pista05.wav
Peak level 87.5 %
Extraction speed 2.8 X
Track quality 100.0 %
Test CRC 5743DE33
Copy CRC 5743DE33
Copy OK
Track 6
Filename f:\Users\Guillermo\Desktop\EAC convertidos\06 Pista06.wav
Peak level 98.4 %
Extraction speed 2.8 X
Track quality 100.0 %
Test CRC 3A9845E2
Copy CRC 3A9845E2
Copy OK
No errors occurred
End of status report
==== Log checksum EBB200CD1DA47FEA19D7D2A9E442EE254DFD4749797100BFBE2B3AB5BD943ADE ====

Содержание индексной карты (.CUE)Содержание индексной карты (.CUE) CD 1

REM DISCID 9F0F2B0B
REM COMMENT "ExactAudioCopy v1.0b3"
FILE "01 Pista01.wav" WAVE
TRACK 01 AUDIO
PREGAP 00:00:33
INDEX 01 00:00:00
FILE "02 Pista02.wav" WAVE
TRACK 02 AUDIO
INDEX 01 00:00:00
FILE "03 Pista03.wav" WAVE
TRACK 03 AUDIO
INDEX 01 00:00:00
FILE "04 Pista04.wav" WAVE
TRACK 04 AUDIO
INDEX 01 00:00:00
FILE "05 Pista05.wav" WAVE
TRACK 05 AUDIO
INDEX 01 00:00:00
FILE "06 Pista06.wav" WAVE
TRACK 06 AUDIO
INDEX 01 00:00:00
TRACK 07 AUDIO
INDEX 00 06:42:39
FILE "07 Pista07.wav" WAVE
INDEX 01 00:00:00
FILE "08 Pista08.wav" WAVE
TRACK 08 AUDIO
INDEX 01 00:00:00
FILE "09 Pista09.wav" WAVE
TRACK 09 AUDIO
INDEX 01 00:00:00
FILE "10 Pista10.wav" WAVE
TRACK 10 AUDIO
INDEX 01 00:00:00
FILE "11 Pista11.wav" WAVE
TRACK 11 AUDIO
INDEX 01 00:00:00

Содержание индексной карты (.CUE) CD 2

REM DISCID 3A093406
REM COMMENT "ExactAudioCopy v1.0b3"
FILE "01 Pista01.wav" WAVE
TRACK 01 AUDIO
PREGAP 00:00:33
INDEX 01 00:00:00
FILE "02 Pista02.wav" WAVE
TRACK 02 AUDIO
INDEX 01 00:00:00
FILE "03 Pista03.wav" WAVE
TRACK 03 AUDIO
INDEX 01 00:00:00
TRACK 04 AUDIO
INDEX 00 04:58:25
FILE "04 Pista04.wav" WAVE
INDEX 01 00:00:00
FILE "05 Pista05.wav" WAVE
TRACK 05 AUDIO
INDEX 01 00:00:00
FILE "06 Pista06.wav" WAVE
TRACK 06 AUDIO
INDEX 01 00:00:00

Треклист

Disc 1:
1. Preludio
2. Urli, rapine
3. Cavatina. Allor che i forti corrono
4. Cavatina. Uldino, a me dinanzi l'inviato...Scena. Attila!...Oh, il nobil messo!
5. Scena. Qual notte!
6. Cavatina. Ella inpoter del barbaro!
7. Scena. Liberamente or piangi
8. Scena. Qual suion di passi!
9. Scena. Uldino! Uldin!
10. Finale 1. Parla, imponi...Vieni, Le mente visita
11. Finale 1. No!...non è sogno
Disc 2:
1. Scena. Tregua è cogl' Unni... Dagli immortali vertici
2. Finale 2. Del ciel l'immensa volta
3. Si riaccendan le querce
4. Scena. Qui del convegno è il lovo
5. Scena. Che più s'indugia
6. Scena. Non involarti, seguimi



Показать сообщения:    

Текущее время: 04-Дек 02:51

Часовой пояс: UTC + 3


Вы не можете начинать темы
Вы не можете отвечать на сообщения
Вы не можете редактировать свои сообщения
Вы не можете удалять свои сообщения
Вы не можете голосовать в опросах
Вы не можете прикреплять файлы к сообщениям
Вы не можете скачивать файлы