(Classical) Leonard Bernstein · The Age of Anxiety (Symphony No. 2); William Bolcom · Piano Concerto (Marc-André Hamelin, The Ulster Orchestra, Dmitry Sitkovetsky) · 2000, FLAC (tracks+.cue) lossless


 

[Цитировать]

Leonard Bernstein
The Age of Anxiety (Symphony No. 2)
William Bolcom
Piano Concerto

Жанр: classical
Страна-производитель диска: UK
Год издания диска: 2000
Издатель: hyperion
Номер по каталогу: CDA67170
Дата записи: январь 2000
Аудиокодек: FLAC
Тип рипа: tracks+.cue
Битрейт аудио: lossless
Продолжительность: 00:59:28
Источник: скачано с what.cd
Буклет в содержимом раздачи есть
Исполнители:
Marc-André Hamelin (piano)
The Ulster Orchestra
Dmitry Sitkovetsky (conductor)

Треклист

‘The Age of Anxiety’ (Symphony No. 2)
Part 1A. The Prologue
01. Lento moderato (2:36)
Part 1B. The Seven Ages
02. Variation 1. L’istesso tempo (1:04)
03. Variation 2. Poco più mosso (1:27)
04. Variation 3. Largamente, ma mosso (1:03)
05. Variation 4. Più mosso (0:51)
06. Variation 5. Agitato (0:48)
07. Variation 6. Poco meno mosso (0:56)
08. Variation 7. L’istesso tempo (1:53)
Part 1C. The Seven Stages
09. Variation 8. Molto moderato, ma movendo (1:37)
10. Variation 9. Più mosso (Tempo di Valse) (1:17)
11. Variation 10. Più mosso (0:29)
12. Variation 11. L'istesso tempo (0:52)
13. Variation 12. Poco più vivace (0:14)
14. Variation 13. L'istesso tempo (0:45)
15. Variation 14. Poco più vivace (0:35)
16. Part 2A. The Dirge: Largo (6:26)
17. Part 2B. The Masque: Extremely fast (4:30)
18. Part 2C. The Epilogue: L’istesso tempo – Adagio/Andante – quasi cadenza – Lento molto (8:24)
Concerto for piano and large orchestra
19. Andante spianato – Allegro (9:49)
20. Regrets (6:36)
21. Finale (7:16)

Лог создания рипа

Exact Audio Copy V1.0 beta 3 from 29. August 2011
EAC extraction logfile from 26. April 2012, 9:35
Marc-Andre Hamelin, The Ulster Orchestra, Dmitry Sitkovetsky / Bernstein: The Age of Anxiety, Bolcom: Piano Concerto
Used drive : TSSTcorpDVDWBD SH-B123L Adapter: 0 ID: 3
Read mode : Secure
Utilize accurate stream : Yes
Defeat audio cache : Yes
Make use of C2 pointers : No
Read offset correction : 6
Overread into Lead-In and Lead-Out : No
Fill up missing offset samples with silence : Yes
Delete leading and trailing silent blocks : No
Null samples used in CRC calculations : Yes
Used interface : Native Win32 interface for Win NT & 2000
Gap handling : Appended to previous track
Used output format : User Defined Encoder
Selected bitrate : 1024 kBit/s
Quality : High
Add ID3 tag : No
Command line compressor : C:\Program Files (x86)\Exact Audio Copy\Flac\flac.exe
Additional command line options : -8 -V -T "ARTIST=%artist%" -T "TITLE=%title%" -T "ALBUM=%albumtitle%" -T "DATE=%year%" -T "TRACKNUMBER=%tracknr%" -T "GENRE=%genre%" -T "PERFORMER=%albuminterpret%" -T "COMPOSER=%composer%" %haslyrics%--tag-from-file=LYRICS="%lyricsfile%"%haslyrics% -T "ALBUMARTIST=%albumartist%" -T "DISCNUMBER=%cdnumber%" -T "TOTALDISCS=%totalcds%" -T "TOTALTRACKS=%numtracks%" -T "COMMENT=%comment%" %source% -o %dest%
TOC of the extracted CD
Track | Start | Length | Start sector | End sector
---------------------------------------------------------
1 | 0:00.00 | 2:36.30 | 0 | 11729
2 | 2:36.30 | 1:04.18 | 11730 | 16547
3 | 3:40.48 | 1:26.47 | 16548 | 23044
4 | 5:07.20 | 1:02.70 | 23045 | 27764
5 | 6:10.15 | 0:50.60 | 27765 | 31574
6 | 7:01.00 | 0:48.15 | 31575 | 35189
7 | 7:49.15 | 0:55.57 | 35190 | 39371
8 | 8:44.72 | 1:52.50 | 39372 | 47821
9 | 10:37.47 | 1:37.37 | 47822 | 55133
10 | 12:15.09 | 1:17.20 | 55134 | 60928
11 | 13:32.29 | 0:28.68 | 60929 | 63096
12 | 14:01.22 | 0:52.34 | 63097 | 67030
13 | 14:53.56 | 0:14.12 | 67031 | 68092
14 | 15:07.68 | 0:44.50 | 68093 | 71442
15 | 15:52.43 | 0:35.28 | 71443 | 74095
16 | 16:27.71 | 6:26.07 | 74096 | 103052
17 | 22:54.03 | 4:29.66 | 103053 | 123293
18 | 27:23.69 | 8:24.26 | 123294 | 161119
19 | 35:48.20 | 9:48.39 | 161120 | 205258
20 | 45:36.59 | 6:35.38 | 205259 | 234921
21 | 52:12.22 | 7:15.60 | 234922 | 267606
Track 1
Filename F:\EAC rips\Bernstein- The Age of Anxiety, Bolcom- Piano Concerto (2000) [FLAC]\01 Part I - A. The Prologue- Lento moderato.wav
Pre-gap length 0:00:02.00
Peak level 8.5 %
Extraction speed 1.9 X
Track quality 100.0 %
Test CRC C25002E3
Copy CRC C25002E3
Accurately ripped (confidence 6) [04D40FEF] (AR v1)
Copy OK
Track 2
Filename F:\EAC rips\Bernstein- The Age of Anxiety, Bolcom- Piano Concerto (2000) [FLAC]\02 Part I - B. The Seven Ages- Variation 1 - L'istesso tempo.wav
Peak level 7.2 %
Extraction speed 1.5 X
Track quality 100.0 %
Test CRC F3DFD3CB
Copy CRC F3DFD3CB
Accurately ripped (confidence 6) [F25E2A07] (AR v1)
Copy OK
Track 3
Filename F:\EAC rips\Bernstein- The Age of Anxiety, Bolcom- Piano Concerto (2000) [FLAC]\03 Part I - B. The Seven Ages- GVariation 2 - Poco piu mosso.wav
Peak level 34.5 %
Extraction speed 1.3 X
Track quality 99.8 %
Test CRC B6699300
Copy CRC B6699300
Accurately ripped (confidence 6) [618E0509] (AR v1)
Copy OK
Track 4
Filename F:\EAC rips\Bernstein- The Age of Anxiety, Bolcom- Piano Concerto (2000) [FLAC]\04 Part I - B. The Seven Ages- Variation 3 - Largamente, ma mosso.wav
Peak level 16.3 %
Extraction speed 1.6 X
Track quality 100.0 %
Test CRC 0662C7A5
Copy CRC 0662C7A5
Accurately ripped (confidence 6) [25E4B318] (AR v1)
Copy OK
Track 5
Filename F:\EAC rips\Bernstein- The Age of Anxiety, Bolcom- Piano Concerto (2000) [FLAC]\05 Part I - B. The Seven Ages- Variation 4 - Piu mosso.wav
Peak level 53.0 %
Extraction speed 1.0 X
Track quality 99.7 %
Test CRC 4D7B9407
Copy CRC 4D7B9407
Accurately ripped (confidence 6) [48D8823D] (AR v1)
Copy OK
Track 6
Filename F:\EAC rips\Bernstein- The Age of Anxiety, Bolcom- Piano Concerto (2000) [FLAC]\06 Part I - B. The Seven Ages- Variation 5 - Agitato.wav
Peak level 72.2 %
Extraction speed 1.5 X
Track quality 100.0 %
Test CRC 741934FE
Copy CRC 741934FE
Accurately ripped (confidence 6) [D8E76C0E] (AR v1)
Copy OK
Track 7
Filename F:\EAC rips\Bernstein- The Age of Anxiety, Bolcom- Piano Concerto (2000) [FLAC]\07 Part I - B. The Seven Ages- Variation 6 - Poco meno mosso.wav
Peak level 15.1 %
Extraction speed 1.1 X
Track quality 99.8 %
Test CRC 0E6D59DB
Copy CRC 0E6D59DB
Accurately ripped (confidence 6) [5A9BF135] (AR v1)
Copy OK
Track 8
Filename F:\EAC rips\Bernstein- The Age of Anxiety, Bolcom- Piano Concerto (2000) [FLAC]\08 Part I - B. The Seven Ages- Variation 7 - L'istesso tempo.wav
Peak level 6.1 %
Extraction speed 2.1 X
Track quality 100.0 %
Test CRC 1E8F0E89
Copy CRC 1E8F0E89
Accurately ripped (confidence 6) [FB287568] (AR v1)
Copy OK
Track 9
Filename F:\EAC rips\Bernstein- The Age of Anxiety, Bolcom- Piano Concerto (2000) [FLAC]\09 Part I - C. The Seven Stages- Variation 8 - Molto moderato, ma movendo.wav
Peak level 17.7 %
Extraction speed 2.0 X
Track quality 100.0 %
Test CRC 6F532519
Copy CRC 6F532519
Accurately ripped (confidence 6) [B2514CEA] (AR v1)
Copy OK
Track 10
Filename F:\EAC rips\Bernstein- The Age of Anxiety, Bolcom- Piano Concerto (2000) [FLAC]\10 Part I - C. The Seven Stages- Variation 9 - Piu mosso (Tempo di Valse).wav
Peak level 76.6 %
Extraction speed 2.0 X
Track quality 100.0 %
Test CRC BA4F38EC
Copy CRC BA4F38EC
Accurately ripped (confidence 6) [377F9358] (AR v1)
Copy OK
Track 11
Filename F:\EAC rips\Bernstein- The Age of Anxiety, Bolcom- Piano Concerto (2000) [FLAC]\11 Part I - C. The Seven Stages- Variation 10 - Piu mosso.wav
Peak level 35.1 %
Extraction speed 1.2 X
Track quality 100.0 %
Test CRC 48F0067E
Copy CRC 48F0067E
Accurately ripped (confidence 6) [CDF067FF] (AR v1)
Copy OK
Track 12
Filename F:\EAC rips\Bernstein- The Age of Anxiety, Bolcom- Piano Concerto (2000) [FLAC]\12 Part I - C. The Seven Stages- Variation 11 - L'istesso tempo.wav
Peak level 32.9 %
Extraction speed 1.1 X
Track quality 99.7 %
Test CRC 5A61B9D1
Copy CRC 5A61B9D1
Accurately ripped (confidence 6) [E673C320] (AR v1)
Copy OK
Track 13
Filename F:\EAC rips\Bernstein- The Age of Anxiety, Bolcom- Piano Concerto (2000) [FLAC]\13 Part I - C. The Seven Stages- Variation 12 - Poco piu vivace.wav
Peak level 12.8 %
Extraction speed 0.8 X
Track quality 100.0 %
Test CRC 6C8A76C7
Copy CRC 6C8A76C7
Accurately ripped (confidence 6) [14986096] (AR v1)
Copy OK
Track 14
Filename F:\EAC rips\Bernstein- The Age of Anxiety, Bolcom- Piano Concerto (2000) [FLAC]\14 Part I - C. The Seven Stages- Variation 13 - L'istesso tempo.wav
Peak level 86.8 %
Extraction speed 1.7 X
Track quality 100.0 %
Test CRC C237EBE6
Copy CRC C237EBE6
Accurately ripped (confidence 6) [94D30B17] (AR v1)
Copy OK
Track 15
Filename F:\EAC rips\Bernstein- The Age of Anxiety, Bolcom- Piano Concerto (2000) [FLAC]\15 Part I - C. The Seven Stages- Variation 14 - Poco piu vivace.wav
Peak level 99.7 %
Extraction speed 1.5 X
Track quality 100.0 %
Test CRC A7983CF9
Copy CRC A7983CF9
Accurately ripped (confidence 6) [E79C21CC] (AR v1)
Copy OK
Track 16
Filename F:\EAC rips\Bernstein- The Age of Anxiety, Bolcom- Piano Concerto (2000) [FLAC]\16 Part II - A. The Dirge- Largo.wav
Pre-gap length 0:00:01.84
Peak level 99.9 %
Extraction speed 2.6 X
Track quality 99.9 %
Test CRC 3F17EF6A
Copy CRC 3F17EF6A
Accurately ripped (confidence 6) [900F1C6B] (AR v1)
Copy OK
Track 17
Filename F:\EAC rips\Bernstein- The Age of Anxiety, Bolcom- Piano Concerto (2000) [FLAC]\17 Part II - B. The Masque- Extremely fast.wav
Peak level 75.7 %
Extraction speed 2.5 X
Track quality 99.9 %
Test CRC D527AA5F
Copy CRC D527AA5F
Accurately ripped (confidence 6) [0E5A945E] (AR v1)
Copy OK
Track 18
Filename F:\EAC rips\Bernstein- The Age of Anxiety, Bolcom- Piano Concerto (2000) [FLAC]\18 Part II - C. The Epilogue- L'stesso tempo - Adagio....wav
Peak level 99.2 %
Extraction speed 3.5 X
Track quality 100.0 %
Test CRC 2665C0C6
Copy CRC 2665C0C6
Accurately ripped (confidence 6) [D3D291CB] (AR v1)
Copy OK
Track 19
Filename F:\EAC rips\Bernstein- The Age of Anxiety, Bolcom- Piano Concerto (2000) [FLAC]\19 Bolcom Concerto for Piano and Large Orchestra - I. Andante spianato - Allegro.wav
Pre-gap length 0:00:05.85
Peak level 93.9 %
Extraction speed 3.9 X
Track quality 100.0 %
Test CRC A61ECE60
Copy CRC A61ECE60
Accurately ripped (confidence 6) [F96068D3] (AR v1)
Copy OK
Track 20
Filename F:\EAC rips\Bernstein- The Age of Anxiety, Bolcom- Piano Concerto (2000) [FLAC]\20 Bolcom Concerto for Piano and Large Orchestra - II. Regrets.wav
Pre-gap length 0:00:03.48
Peak level 99.7 %
Extraction speed 4.0 X
Track quality 100.0 %
Test CRC 0409840C
Copy CRC 0409840C
Accurately ripped (confidence 6) [86819C46] (AR v1)
Copy OK
Track 21
Filename F:\EAC rips\Bernstein- The Age of Anxiety, Bolcom- Piano Concerto (2000) [FLAC]\21 Bolcom Concerto for Piano and Large Orchestra - III. Finale.wav
Peak level 99.9 %
Extraction speed 4.3 X
Track quality 100.0 %
Test CRC A999C055
Copy CRC A999C055
Accurately ripped (confidence 6) [355B91BD] (AR v1)
Copy OK
All tracks accurately ripped
No errors occurred
End of status report
---- CUETools DB Plugin V2.1.3
[CTDB TOCID: DkN3mQ4w0sU578DZLdB_1NusO4k-] found, Submit result: DkN3mQ4w0sU578DZLdB_1NusO4k- has been confirmed
[cf64cd6a] (2/2) Accurately ripped
==== Log checksum 20D7C41237A253BD841714DB4B18722A64C93EE6075794D2C5BDA5B1BF78516C ====

Содержание индексной карты (.CUE)

REM DATE 2000
REM DISCID 2C0DF015
REM COMMENT "ExactAudioCopy v1.0b3"
PERFORMER "Marc-André Hamelin · The Ulster Orchestra · Dmitry Sitkovetsky"
TITLE "Bernstein · The Age of Anxiety; Bolcom · Piano Concerto "
FILE "01. Part 1A. The Prologue. Lento moderato.wav" WAVE
TRACK 01 AUDIO
TITLE "Part 1A. The Prologue: Lento moderato"
PERFORMER "Marc-André Hamelin · The Ulster Orchestra · Dmitry Sitkovetsky"
ISRC GBAJY0017001
INDEX 01 00:00:00
FILE "02. Part 1B. The Seven Ages. Variation 1. L’istesso tempo.wav" WAVE
TRACK 02 AUDIO
TITLE "Part 1B. The Seven Ages: Variation 1. L’istesso tempo"
PERFORMER "Marc-André Hamelin · The Ulster Orchestra · Dmitry Sitkovetsky"
ISRC GBAJY0017002
INDEX 01 00:00:00
FILE "03. Part 1B. The Seven Ages. Variation 2. Poco più mosso.wav" WAVE
TRACK 03 AUDIO
TITLE "Part 1B. The Seven Ages: Variation 2. Poco più mosso"
PERFORMER "Marc-André Hamelin · The Ulster Orchestra · Dmitry Sitkovetsky"
ISRC GBAJY0017003
INDEX 01 00:00:00
FILE "04. Part 1B. The Seven Ages. Variation 3. Largamente, ma mosso.wav" WAVE
TRACK 04 AUDIO
TITLE "Part 1B. The Seven Ages: Variation 3. Largamente, ma mosso"
PERFORMER "Marc-André Hamelin · The Ulster Orchestra · Dmitry Sitkovetsky"
ISRC GBAJY0017004
INDEX 01 00:00:00
FILE "05. Part 1B. The Seven Ages. Variation 4. Più mosso.wav" WAVE
TRACK 05 AUDIO
TITLE "Part 1B. The Seven Ages: Variation 4. Più mosso"
PERFORMER "Marc-André Hamelin · The Ulster Orchestra · Dmitry Sitkovetsky"
ISRC GBAJY0017005
INDEX 01 00:00:00
FILE "06. Part 1B. The Seven Ages. Variation 5. Agitato.wav" WAVE
TRACK 06 AUDIO
TITLE "Part 1B. The Seven Ages: Variation 5. Agitato"
PERFORMER "Marc-André Hamelin · The Ulster Orchestra · Dmitry Sitkovetsky"
ISRC GBAJY0017006
INDEX 01 00:00:00
FILE "07. Part 1B. The Seven Ages. Variation 6. Poco meno mosso.wav" WAVE
TRACK 07 AUDIO
TITLE "Part 1B. The Seven Ages: Variation 6. Poco meno mosso"
PERFORMER "Marc-André Hamelin · The Ulster Orchestra · Dmitry Sitkovetsky"
ISRC GBAJY0017007
INDEX 01 00:00:00
FILE "08. Part 1B. The Seven Ages. Variation 7. L’istesso tempo.wav" WAVE
TRACK 08 AUDIO
TITLE "Part 1B. The Seven Ages: Variation 7. L’istesso tempo"
PERFORMER "Marc-André Hamelin · The Ulster Orchestra · Dmitry Sitkovetsky"
ISRC GBAJY0017008
INDEX 01 00:00:00
FILE "09. Part 1C. The Seven Stages. Variation 8. Molto moderato, ma movendo.wav" WAVE
TRACK 09 AUDIO
TITLE "Part 1C. The Seven Stages: Variation 8. Molto moderato, ma movendo"
PERFORMER "Marc-André Hamelin · The Ulster Orchestra · Dmitry Sitkovetsky"
ISRC GBAJY0017009
INDEX 01 00:00:00
FILE "10. Part 1C. The Seven Stages. Variation 9. Più mosso (Tempo di Valse).wav" WAVE
TRACK 10 AUDIO
TITLE "Part 1C. The Seven Stages: Variation 9. Più mosso (Tempo di Valse)"
PERFORMER "Marc-André Hamelin · The Ulster Orchestra · Dmitry Sitkovetsky"
ISRC GBAJY0017010
INDEX 01 00:00:00
FILE "11. Part 1C. The Seven Stages. Variation 10. Più mosso.wav" WAVE
TRACK 11 AUDIO
TITLE "Part 1C. The Seven Stages: Variation 10. Più mosso"
PERFORMER "Marc-André Hamelin · The Ulster Orchestra · Dmitry Sitkovetsky"
ISRC GBAJY0017011
INDEX 01 00:00:00
FILE "12. Part 1C. The Seven Stages. Variation 11. L’istesso tempo.wav" WAVE
TRACK 12 AUDIO
TITLE "Part 1C. The Seven Stages: Variation 11. L’istesso tempo"
PERFORMER "Marc-André Hamelin · The Ulster Orchestra · Dmitry Sitkovetsky"
ISRC GBAJY0017012
INDEX 01 00:00:00
FILE "13. Part 1C. The Seven Stages. Variation 12. Poco più vivace.wav" WAVE
TRACK 13 AUDIO
TITLE "Part 1C. The Seven Stages: Variation 12. Poco più vivace"
PERFORMER "Marc-André Hamelin · The Ulster Orchestra · Dmitry Sitkovetsky"
ISRC GBAJY0017013
INDEX 01 00:00:00
FILE "14. Part 1C. The Seven Stages. Variation 13. L’istesso tempo.wav" WAVE
TRACK 14 AUDIO
TITLE "Part 1C. The Seven Stages: Variation 13. L’istesso tempo"
PERFORMER "Marc-André Hamelin · The Ulster Orchestra · Dmitry Sitkovetsky"
ISRC GBAJY0017014
INDEX 01 00:00:00
FILE "15. Part 1C. The Seven Stages. Variation 14. Poco più vivace.wav" WAVE
TRACK 15 AUDIO
TITLE "Part 1C. The Seven Stages: Variation 14. Poco più vivace"
PERFORMER "Marc-André Hamelin · The Ulster Orchestra · Dmitry Sitkovetsky"
ISRC GBAJY0017015
INDEX 01 00:00:00
TRACK 16 AUDIO
TITLE "Part 2A. The Dirge: Largo"
PERFORMER "Marc-André Hamelin · The Ulster Orchestra · Dmitry Sitkovetsky"
ISRC GBAJY0017016
INDEX 00 00:33:40
FILE "16. Part 2A. The Dirge. Largo.wav" WAVE
INDEX 01 00:00:00
FILE "17. Part 2B. The Masque. Extremely fast.wav" WAVE
TRACK 17 AUDIO
TITLE "Part 2B. The Masque: Extremely fast"
PERFORMER "Marc-André Hamelin · The Ulster Orchestra · Dmitry Sitkovetsky"
ISRC GBAJY0017017
INDEX 01 00:00:00
FILE "18. Part 2C. The Epilogue. L’istesso tempo – Adagio-Andante – quasi cadenza – Lento molto.wav" WAVE
TRACK 18 AUDIO
TITLE "Part 2C. The Epilogue: L’istesso tempo – Adagio/Andante – quasi cadenza – Lento molto"
PERFORMER "Marc-André Hamelin · The Ulster Orchestra · Dmitry Sitkovetsky"
ISRC GBAJY0017018
INDEX 01 00:00:00
TRACK 19 AUDIO
TITLE "Andante spianato – Allegro"
PERFORMER "Marc-André Hamelin · The Ulster Orchestra · Dmitry Sitkovetsky"
ISRC GBAJY0017019
INDEX 00 08:18:37
FILE "19. Andante spianato – Allegro.wav" WAVE
INDEX 01 00:00:00
TRACK 20 AUDIO
TITLE "Regrets"
PERFORMER "Marc-André Hamelin · The Ulster Orchestra · Dmitry Sitkovetsky"
ISRC GBAJY0017020
INDEX 00 09:45:03
FILE "20. Regrets.wav" WAVE
INDEX 01 00:00:00
FILE "21. Finale.wav" WAVE
TRACK 21 AUDIO
TITLE "Finale"
PERFORMER "Marc-André Hamelin · The Ulster Orchestra · Dmitry Sitkovetsky"
ISRC GBAJY0017021
INDEX 01 00:00:00



Показать сообщения:    

Текущее время: 03-Дек 16:40

Часовой пояс: UTC + 3


Вы не можете начинать темы
Вы не можете отвечать на сообщения
Вы не можете редактировать свои сообщения
Вы не можете удалять свои сообщения
Вы не можете голосовать в опросах
Вы не можете прикреплять файлы к сообщениям
Вы не можете скачивать файлы